<?xml version="1.0" standalone="no"?>
<!DOCTYPE svg PUBLIC "-//W3C//DTD SVG 1.1//EN" "http://www.w3.org/Graphics/SVG/1.1/DTD/svg11.dtd" >
<svg>
<metadata>
Created by FontForge 20090622 at Mon Apr 17 16:20:14 2017
 By deploy user
Copyright (c) 2010-2013, Khaled Hosny &#60;khaledhosny@eglug.org&#62;.
Portions copyright (c) 2010, Sebastian Kosch &#60;sebastian@aldusleaf.org&#62;

This Font Software is licensed under the Open Font License, Version 1.1.
</metadata>
<defs>
<font id="Amiri-Regular" horiz-adv-x="449" >
  <font-face 
    font-family="Amiri"
    font-weight="400"
    font-stretch="normal"
    units-per-em="2048"
    panose-1="0 0 5 0 0 0 0 0 0 0"
    ascent="1638"
    descent="-410"
    x-height="860"
    cap-height="1324"
    bbox="-1190 -1837.86 23473.4 3715.12"
    underline-thickness="102"
    underline-position="-1100"
    unicode-range="U+0021-U+1EEBB"
  />
<missing-glyph horiz-adv-x="748" 
d="M68 0v1365h544v-1365h-544zM136 68h408v1229h-408v-1229z" />
    <glyph glyph-name="uni08F0" unicode="&#x64e;&#x64e;" horiz-adv-x="0" 
d="M689 2073q66 45 46 -17l-21 -64q-10 -32 -34 -46l-358 -220q-43 -26 -36 19l6 39q5 28 34 48zM851 2377q59 37 44 -17l-14 -52q-9 -33 -43 -53l-363 -211q-71 -41 -43 20l18 39q14 30 32 41z" />
    <glyph glyph-name="uni08F1" unicode="&#x64f;&#x64f;" horiz-adv-x="0" 
d="M743 2291q32 9 53 -19q18 -26 20 -72.5t-40 -144.5q36 -22 52 -31t4 -33l-25 -51q-11 -23 -83 20q-115 -149 -208 -200q-42 -23 -55 -5q-12 18 40 55q100 71 180 178q-126 61 -80 159q56 120 142 144zM729 2153.5q-15 27.5 -52 10.5t-27 -29q20 -24 80 -56q14 47 -1 74.5
zM408 2286q32 9 53 -19q18 -26 20 -72.5t-40 -144.5q36 -22 52 -31t4 -33l-25 -51q-11 -23 -83 20q-115 -149 -208 -200q-42 -23 -55 -5q-12 18 40 55q100 71 180 178q-126 61 -80 159q56 120 142 144zM394 2148.5q-15 27.5 -52 10.5t-27 -29q20 -24 80 -56q14 47 -1 74.5z
" />
    <glyph glyph-name="uni08F2" unicode="&#x650;&#x650;" horiz-adv-x="0" 
d="M689 -944q66 45 46 -17l-21 -64q-10 -32 -34 -46l-358 -220q-43 -26 -36 19l6 39q5 28 34 48zM851 -640q59 37 44 -17l-14 -52q-9 -33 -43 -53l-363 -211q-71 -41 -43 20l18 39q14 30 32 41z" />
    <glyph glyph-name="f_f.liga" unicode="ff" horiz-adv-x="1120" 
d="M1001 1288q-146 0 -146 -280v-144h230q10 0 10 -22q0 -32 -28 -60h-212v-550q0 -116 10 -148q4 -14 54 -23t80 -9q6 -8 6.5 -29t-6.5 -29q-205 10 -222 10q-35 0 -67.5 -1.5t-74.5 -4.5t-70 -4q-7 8 -6.5 29t6.5 29q29 0 75.5 9t50.5 23q10 32 10 148v550h-356v-550
q0 -116 10 -148q4 -14 54 -23t80 -9q6 -8 6.5 -29t-6.5 -29q-205 10 -222 10q-35 0 -67.5 -1.5t-74.5 -4.5t-70 -4q-7 8 -6.5 29t6.5 29q29 0 75.5 9t50.5 23q10 32 10 148v550h-116q-6 0 -6 18q0 11 20.5 37.5t37.5 26.5h64v12q0 106 63.5 212t160 172t188.5 66
q83 0 148 -22.5t90 -49.5q44 57 114.5 98.5t141.5 41.5q25 0 49 -8.5t35 -17.5q12 -24 12 -54q0 -39 -22.5 -63.5t-47.5 -24.5q-19 0 -38 10t-30 24q-24 28 -54 28zM731 1110l4.5 9l4 8t1.5 5t-2 8q-5 11 -15 26t-30.5 35t-56 33.5t-78.5 13.5q-58 0 -101 -29.5t-67 -81.5
t-35 -112t-11 -131v-30h356v68q0 29 10 87.5t20 90.5z" />
    <glyph glyph-name="f_i.liga" unicode="fi" horiz-adv-x="1064" 
d="M577 838q206 0 300 28q1 0 5 1t5 1q8 0 10.5 -17t-0.5 -25q-10 -80 -10 -144v-450q0 -116 10 -148q4 -14 50.5 -23t75.5 -9q6 -8 6.5 -29t-6.5 -29q-205 10 -214 10q-35 0 -67.5 -1.5t-74.5 -4.5t-70 -4q-7 8 -6.5 29t6.5 29q29 0 75.5 9t50.5 23q10 32 10 148v378
q0 63 -28 108q-22 38 -146 38h-212v-524q0 -116 10 -148q4 -14 54 -23t80 -9q6 -8 6.5 -29t-6.5 -29q-205 10 -222 10q-35 0 -67.5 -1.5t-74.5 -4.5t-70 -4q-7 8 -6.5 29t6.5 29q29 0 75.5 9t50.5 23q10 32 10 148v524h-116q-6 0 -6 18q0 11 20.5 37.5t37.5 26.5h64v30
q0 116 54 237t151.5 205t208.5 84q63 0 123 -29.5t95 -66.5q66 -66 66 -128q0 -33 -25 -57.5t-63 -24.5q-63 0 -92 72q-4 10 -10.5 28.5t-11.5 31t-10 20.5q-22 31 -49 45.5t-77 14.5q-84 0 -145 -114t-61 -252v-96h230z" />
    <glyph glyph-name="f_l.liga" unicode="fl" horiz-adv-x="1108" 
d="M194 232q2 320 2 498q0 14 -10 14h-106q-6 0 -6 12q0 20 11.5 51t18.5 31h82q10 0 10 12v26q0 105 36 202t92.5 164.5t128 107.5t141.5 40q31 0 97 -23t91 -23q28 0 61.5 11t55.5 22t23 11h6q8 0 15 -11t9 -21q-22 -64 -22 -174v-912q0 -116 16 -178q4 -14 52 -27t68 -13
q7 0 8.5 -24.5t-2.5 -33.5q-200 10 -214 10q-13 0 -218 -10q-8 8 -8 33t8 25q24 0 71 12.5t51 27.5q14 58 14 140v770q0 25 -6.5 80.5t-15.5 75.5q-21 44 -87.5 99t-134.5 55q-58 0 -101 -54.5t-63 -135t-20 -172.5v-102q0 -3 3.5 -6.5t6.5 -3.5h222q7 0 8.5 -2t1.5 -12
q0 -32 -24 -80h-206q-4 0 -8 -4t-4 -8v-462q4 -132 16 -178q4 -14 52 -27t68 -13q7 0 8.5 -24.5t-2.5 -33.5q-200 10 -214 10q-13 0 -218 -10q-8 8 -8 33t8 25q24 0 71 12.5t51 27.5q14 58 14 140z" />
    <glyph glyph-name="f_f_i.liga" unicode="ffi" horiz-adv-x="1630" 
d="M1296 232v388q0 59 -24 94q-8 12 -41 19t-59 9t-46 2h-206q-4 0 -8 -4t-4 -8v-462q0 -116 16 -178q4 -14 48.5 -27t63.5 -13q7 0 8.5 -24.5t-2.5 -33.5q-200 10 -214 10q-37 0 -69 -1.5t-72.5 -4.5t-68.5 -4q-8 8 -8 30q0 28 8 28q24 0 68 12.5t48 27.5q18 70 18 178
q4 282 4 460q0 14 -10 14h-384q-4 0 -8 -4t-4 -8v-462q0 -116 16 -178q4 -14 48.5 -27t63.5 -13q7 0 8.5 -24.5t-2.5 -33.5q-200 10 -214 10q-37 0 -69 -1.5t-72.5 -4.5t-68.5 -4q-8 8 -8 30q0 28 8 28q24 0 68 12.5t48 27.5q18 70 18 178q4 282 4 460q0 14 -10 14h-106
q-6 0 -6 12q0 20 11.5 51t18.5 31h82q10 0 10 12v26q0 104 39 197.5t100.5 155t135.5 97.5t145 36q52 0 98.5 -16t77.5 -40t49.5 -44t28.5 -36q59 77 133 120.5t149 43.5q88 0 180 -46q108 -56 108 -120q0 -42 -24 -68t-66 -26q-59 0 -84 44q-13 24 -19 33.5t-24.5 34
t-34.5 36.5t-42.5 23t-55.5 11q-59 0 -103.5 -53.5t-65 -136t-15.5 -172.5v-102q0 -3 3.5 -6.5t6.5 -3.5h222q225 0 300 28q1 0 5 3t5 3q10 0 10 -46q-10 -80 -10 -144v-412q0 -116 16 -178q4 -14 52 -27t68 -13q7 0 8.5 -24.5t-2.5 -33.5q-200 10 -214 10q-13 0 -218 -10
q-8 8 -8 33t8 25q24 0 71 12.5t51 27.5q14 58 14 140zM548 1284q-94 0 -146 -96t-52 -238v-102q0 -3 3.5 -6.5t6.5 -3.5h386q10 0 10 12v8q0 113 24 194q4 10 4 30q0 10 -8 34l-11 24q-11 24 -26 44t-40 45t-64 40t-87 15z" />
    <glyph glyph-name="f_f_l.liga" unicode="ffl" horiz-adv-x="1666" 
d="M1334 232v770q0 25 -6.5 80.5t-15.5 75.5q-21 44 -87.5 99t-134.5 55q-58 0 -101 -54.5t-63 -135t-20 -172.5v-102q0 -3 3.5 -6.5t6.5 -3.5h222q7 0 8.5 -2t1.5 -12q0 -32 -24 -80h-206q-4 0 -8 -4t-4 -8l4 -462q0 -116 16 -178q4 -14 48.5 -27t63.5 -13q7 0 8.5 -24.5
t-2.5 -33.5q-200 10 -214 10q-37 0 -69 -1.5t-72.5 -4.5t-68.5 -4q-8 8 -8 30q0 28 8 28q24 0 68 12.5t48 27.5q18 70 18 178v460q0 14 -10 14h-382q-14 0 -14 -12l4 -462q0 -116 16 -178q4 -14 48.5 -27t63.5 -13q7 0 8.5 -24.5t-2.5 -33.5q-200 10 -214 10q-37 0 -69 -1.5
t-72.5 -4.5t-68.5 -4q-8 8 -8 30q0 28 8 28q24 0 68 12.5t48 27.5q18 70 18 178v460q0 14 -10 14h-106q-6 0 -6 12q0 20 11.5 51t18.5 31h82q10 0 10 12v26q0 104 39 197.5t100.5 155t135.5 97.5t145 36q52 0 98.5 -16t77.5 -40t49.5 -44t28.5 -36q57 77 131.5 120.5
t150.5 43.5q31 0 97 -23t91 -23q28 0 61.5 11t55.5 22t23 11h6q8 0 15 -11t9 -21q-22 -64 -22 -174v-912q0 -116 16 -178q4 -14 52 -27t68 -13q7 0 8.5 -24.5t-2.5 -33.5q-200 10 -214 10q-13 0 -218 -10q-8 8 -8 33t8 25q24 0 71 12.5t51 27.5q14 58 14 140zM774 1116
l-11 24q-11 24 -26 44t-40 45t-64 40t-87 15q-94 0 -146 -96t-52 -238v-102q0 -3 3.5 -6.5t6.5 -3.5h386q6 0 10 20q8 140 24 194q4 10 4 30q0 10 -8 34z" />
    <glyph glyph-name="afii57440_afii57440.rlig" unicode="&#x640;&#x640;" horiz-adv-x="700" 
d="M351 -8q-176 0 -351 8q-18 1 -26 31l-26 89q-17 67 52 65q175 -6 349 -6q175 0 350 6q70 2 53 -65l-26 -89q-8 -30 -25 -31q-175 -8 -350 -8z" />
    <glyph glyph-name="afii57440_afii57440_afii57440.rlig" unicode="&#x640;&#x640;&#x640;" horiz-adv-x="1500" 
d="M1500 0q-326 -26 -750 -26q-438 0 -750 26q-18 0 -26 31l-26 89q-18 70 52 65q312 -26 750 -26q424 0 750 26q69 4 52 -65l-26 -89q-8 -30 -26 -31z" />
    <glyph glyph-name="afii57440_afii57440_afii57440_afii57440.rlig" unicode="&#x640;&#x640;&#x640;&#x640;" horiz-adv-x="2500" 
d="M2500 185q55 3 55 -40q0 -11 -3 -25l-26 -89q-8 -30 -26 -31q-645 -61 -1250 -60q-657 1 -1250 60q-18 1 -26 31l-26 89q-4 15 -4 27q2 45 56 38q595 -58 1250 -59q606 -1 1250 59z" />
    <glyph glyph-name="f_b.liga" unicode="fb" horiz-adv-x="1636" 
d="M778 1004q0 25 -6.5 79.5t-15.5 74.5q-21 44 -87.5 99t-134.5 55q-58 0 -101 -54.5t-63 -135t-20 -172.5v-102q0 -3 3.5 -6.5t6.5 -3.5h222q7 0 8.5 -2t1.5 -12q0 -32 -24 -80h-206q-4 0 -8 -4t-4 -8l2 -462q0 -116 16 -178q4 -14 48.5 -27t63.5 -13q7 0 8.5 -24.5
t-2.5 -33.5q-200 10 -214 10q-37 0 -69 -1.5t-72.5 -4.5t-68.5 -4q-8 8 -8 30q0 28 8 28q24 0 68 12.5t48 27.5q18 70 18 178q2 282 2 460q0 14 -10 14h-106q-6 0 -6 12q0 20 11.5 51t18.5 31h82q10 0 10 12v26q0 105 36 202t92.5 164.5t128 107.5t141.5 40q31 0 97 -23
t91 -23q28 0 61.5 11t55.5 22t23 11h6q8 0 15 -11t9 -21q-22 -64 -22 -174v-394v-9t1.5 -8.5t4 -5t6.5 2.5q41 30 117 69t125 39q86 0 157.5 -38t116 -99t68.5 -132t24 -141q0 -97 -37.5 -185.5t-102.5 -153t-157.5 -103t-196.5 -38.5q-43 0 -148 30q-5 1 -21 6t-22.5 6.5
t-20.5 4t-22.5 2.5t-20.5 -1.5t-23 -5.5q-7 0 -16.5 17.5t-9.5 26.5q24 53 24 148v784zM1090 758q-36 0 -84 -19t-64 -35q-10 -10 -10 -22v-486q0 -61 58 -101.5t128 -40.5t132 49.5t98 127t36 157.5q0 173 -79.5 271.5t-214.5 98.5z" />
    <glyph glyph-name="f_f_b.liga" unicode="ffb" horiz-adv-x="2192" 
d="M1334 1002q0 35 -6 85t-16 71q-21 44 -87.5 99t-134.5 55q-58 0 -101 -54.5t-63 -135t-20 -172.5v-102q0 -3 3.5 -6.5t6.5 -3.5h222q7 0 8.5 -2t1.5 -12q0 -32 -24 -80h-206q-4 0 -8 -4t-4 -8l4 -462q0 -116 16 -178q4 -14 48.5 -27t63.5 -13q7 0 8.5 -24.5t-2.5 -33.5
q-200 10 -214 10q-37 0 -69 -1.5t-72.5 -4.5t-68.5 -4q-8 8 -8 30q0 28 8 28q24 0 68 12.5t48 27.5q18 70 18 178v460q0 14 -10 14h-382q-14 0 -14 -12l4 -462q0 -116 16 -178q4 -14 48.5 -27t63.5 -13q7 0 8.5 -24.5t-2.5 -33.5q-200 10 -214 10q-37 0 -69 -1.5t-72.5 -4.5
t-68.5 -4q-8 8 -8 30q0 28 8 28q24 0 68 12.5t48 27.5q18 70 18 178v460q0 14 -10 14h-106q-6 0 -6 12q0 20 11.5 51t18.5 31h82q10 0 10 12v26q0 104 39 197.5t100.5 155t135.5 97.5t145 36q52 0 98.5 -16t77.5 -40t49.5 -44t28.5 -36q57 77 131.5 120.5t150.5 43.5
q31 0 97 -23t91 -23q28 0 61.5 11t55.5 22t23 11h6q8 0 15 -11t9 -21q-22 -64 -22 -174v-394v-9t1.5 -8.5t4 -5t6.5 2.5q41 30 117 69t125 39q86 0 157.5 -38t116 -99t68.5 -132t24 -141q0 -97 -37.5 -185.5t-102.5 -153t-157.5 -103t-196.5 -38.5q-43 0 -148 30q-5 1 -21 6
t-22.5 6.5t-20.5 4t-22.5 2.5t-20.5 -1.5t-23 -5.5q-7 0 -16.5 17.5t-9.5 26.5q24 53 24 148v782zM1646 758q-36 0 -84 -19t-64 -35q-10 -10 -10 -22v-486q0 -61 58 -101.5t128 -40.5t132 49.5t98 127t36 157.5q0 173 -79.5 271.5t-214.5 98.5zM774 1116l-11 24
q-11 24 -26 44t-40 45t-64 40t-87 15q-94 0 -146 -96t-52 -238v-102q0 -3 3.5 -6.5t6.5 -3.5h386q6 0 10 20q8 140 24 194q4 10 4 30q0 10 -8 34z" />
    <glyph glyph-name="f_k.liga" unicode="fk" horiz-adv-x="1614" 
d="M776 1000q0 27 -5.5 81.5t-14.5 76.5q-18 43 -86 98.5t-136 55.5q-58 0 -101 -54.5t-63 -135t-20 -172.5v-102q0 -3 3.5 -6.5t6.5 -3.5h222q7 0 8.5 -2t1.5 -12q0 -32 -24 -80h-206q-4 0 -8 -4t-4 -8l2 -462q0 -116 16 -178q4 -14 48.5 -27t63.5 -13q7 0 8.5 -24.5
t-2.5 -33.5q-200 10 -214 10q-37 0 -69 -1.5t-72.5 -4.5t-68.5 -4q-8 8 -8 30q0 28 8 28q24 0 68 12.5t48 27.5q18 70 18 178q2 282 2 460q0 14 -10 14h-106q-6 0 -6 12q0 20 11.5 51t18.5 31h82q10 0 10 12v26q0 105 36 202t92.5 164.5t128 107.5t141.5 40q31 0 97 -23
t91 -23q28 0 61.5 11t55.5 22t23 11h6q8 0 15 -11t9 -21q-24 -64 -24 -174v-712q36 13 164 122l58 48.5l52.5 43t38 32t27 26.5t8.5 16t-4 11t-12 8.5t-16 6t-18.5 4t-18 2t-16.5 1.5t-11 1q-7 11 -5.5 33t9.5 25q97 -10 192 -10q103 0 176 10q6 -9 5.5 -30.5t-5.5 -27.5
q-27 0 -76.5 -13t-77.5 -33q-221 -161 -324 -248l143.5 -158.5l141 -156.5t75.5 -77q36 -29 87.5 -42.5t96.5 -11.5q3 -5 4.5 -22.5t-2.5 -25.5q-28 -12 -130 -12q-80 0 -149 29t-97 59l-286 310q-4 4 -11 9t-13 7l-6 2v-176q0 -116 10 -148q4 -14 50.5 -23t75.5 -9
q6 -8 6.5 -29t-6.5 -29q-205 10 -214 10q-35 0 -67.5 -1.5t-74.5 -4.5t-70 -4q-7 8 -6.5 29t6.5 29q29 0 75.5 9t50.5 23q10 32 10 148v768z" />
    <glyph glyph-name="f_f_k.liga" unicode="ffk" horiz-adv-x="2170" 
d="M1332 1002q0 28 -5.5 82t-14.5 74q-18 42 -86 98t-136 56q-58 0 -101 -54.5t-63 -135t-20 -172.5v-102q0 -3 3.5 -6.5t6.5 -3.5h222q7 0 8.5 -2t1.5 -12q0 -32 -24 -80h-206q-4 0 -8 -4t-4 -8l4 -462q0 -116 16 -178q4 -14 48.5 -27t63.5 -13q7 0 8.5 -24.5t-2.5 -33.5
q-200 10 -214 10q-37 0 -69 -1.5t-72.5 -4.5t-68.5 -4q-8 8 -8 30q0 28 8 28q24 0 68 12.5t48 27.5q15 56 18 178v460q0 14 -10 14h-382q-14 0 -14 -12l4 -462q0 -116 16 -178q4 -14 48.5 -27t63.5 -13q7 0 8.5 -24.5t-2.5 -33.5q-200 10 -214 10q-37 0 -69 -1.5t-72.5 -4.5
t-68.5 -4q-8 8 -8 30q0 28 8 28q24 0 68 12.5t48 27.5q15 56 18 178v460q0 14 -10 14h-106q-6 0 -6 12q0 20 11.5 51t18.5 31h82q10 0 10 12v26q0 104 39 197.5t100.5 155t135.5 97.5t145 36q52 0 98.5 -16t77.5 -40t49.5 -44t28.5 -36q57 77 131.5 120.5t150.5 43.5
q31 0 97.5 -23t90.5 -23q28 0 61.5 11t55.5 22t23 11h6q8 0 15 -11t9 -21q-24 -64 -24 -174v-712q36 13 164 122l58 48.5l52.5 43t38 32t27 26.5t8.5 16t-4 11t-12 8.5t-16 6t-18.5 4t-18 2t-16.5 1.5t-11 1q-7 11 -5.5 33t9.5 25q97 -10 192 -10q103 0 176 10
q6 -9 5.5 -30.5t-5.5 -27.5q-27 0 -76.5 -13t-77.5 -33q-221 -161 -324 -248l143.5 -158.5l141 -156.5t75.5 -77q36 -29 87.5 -42.5t96.5 -11.5q3 -5 4.5 -22.5t-2.5 -25.5q-28 -12 -130 -12q-80 0 -149 29t-97 59l-286 310q-4 4 -11 9t-13 7l-6 2v-176q0 -116 10 -148
q4 -14 50.5 -23t75.5 -9q6 -8 6.5 -29t-6.5 -29q-205 10 -214 10q-35 0 -67.5 -1.5t-74.5 -4.5t-70 -4q-7 8 -6.5 29t6.5 29q29 0 75.5 9t50.5 23q10 32 10 148v770zM772 1116q-1 1 -6.5 14.5t-13 27t-20 32t-29.5 34t-39 30t-52.5 22.5t-65.5 8q-94 0 -146 -96t-52 -238
v-102q0 -3 3.5 -6.5t6.5 -3.5h386q6 0 10 20q8 140 22 194q4 10 4 30q0 10 -8 34z" />
    <glyph glyph-name="f_h.liga" unicode="fh" horiz-adv-x="1624" 
d="M774 996q0 33 -6.5 87.5t-15.5 74.5q-21 44 -87.5 99t-134.5 55q-58 0 -101 -54.5t-63 -135t-20 -172.5v-102q0 -3 3.5 -6.5t6.5 -3.5h222q7 0 8.5 -2t1.5 -12q0 -32 -24 -80h-206q-4 0 -8 -4t-4 -8l2 -462q0 -116 16 -178q4 -15 46.5 -29.5t59.5 -14.5q7 0 8.5 -22.5
t-2.5 -31.5q-28 1 -66.5 4t-69 4.5t-66.5 1.5q-37 0 -69 -1.5t-72.5 -4.5t-68.5 -4q-8 8 -8 30q0 24 8 24q22 0 64 14.5t46 29.5q18 70 18 178q2 282 2 460q0 14 -10 14h-106q-6 0 -6 12q0 20 11.5 51t18.5 31h82q10 0 10 12v26q0 105 36 202t92.5 164.5t128 107.5t141.5 40
q31 0 97 -23t91 -23q28 0 61.5 11t55.5 22t23 11h6q8 0 15 -11t9 -21q-22 -64 -22 -174v-452q0 -4 6 -4q2 0 6 4q40 44 123 95t147 51q65 0 110 -17t74 -48t45.5 -85t22.5 -118t6 -156v-220q0 -116 10 -148q4 -14 50.5 -23t75.5 -9q6 -8 6.5 -29t-6.5 -29q-205 10 -214 10
q-35 0 -67.5 -1.5t-74.5 -4.5t-70 -4q-7 8 -6.5 29t6.5 29q29 0 75.5 9t50.5 23q10 32 10 148v200q0 189 -40.5 258.5t-155.5 69.5q-34 0 -80.5 -24t-78 -50t-31.5 -36v-418q0 -116 10 -148q4 -14 50.5 -23t75.5 -9q6 -8 6.5 -29t-6.5 -29q-205 10 -214 10q-35 0 -67.5 -1.5
t-74.5 -4.5t-70 -4q-7 8 -6.5 29t6.5 29q29 0 75.5 9t50.5 23q10 32 10 148v764z" />
    <glyph glyph-name="f_f_h.liga" unicode="ffh" horiz-adv-x="2184" 
d="M1334 996q0 30 -6.5 86t-15.5 76q-18 42 -86 98t-136 56q-58 0 -101 -54.5t-63 -135t-20 -172.5v-102q0 -3 3.5 -6.5t6.5 -3.5h222q7 0 8.5 -2t1.5 -12q0 -32 -24 -80h-206q-4 0 -8 -4t-4 -8l4 -462q0 -116 16 -178q4 -14 48.5 -27t63.5 -13q7 0 8.5 -24.5t-2.5 -33.5
q-200 10 -214 10q-37 0 -69 -1.5t-72.5 -4.5t-68.5 -4q-8 8 -8 30q0 28 8 28q24 0 68 12.5t48 27.5q15 56 18 178v460q0 14 -10 14h-382q-14 0 -14 -12l4 -462q0 -116 16 -178q4 -14 48.5 -27t63.5 -13q7 0 8.5 -24.5t-2.5 -33.5q-200 10 -214 10q-37 0 -69 -1.5t-72.5 -4.5
t-68.5 -4q-8 8 -8 30q0 28 8 28q24 0 68 12.5t48 27.5q15 56 18 178v460q0 14 -10 14h-106q-6 0 -6 12q0 20 11.5 51t18.5 31h82q10 0 10 12v26q0 104 39 197.5t100.5 155t135.5 97.5t145 36q52 0 98.5 -16t77.5 -40t49.5 -44t28.5 -36q57 77 131.5 120.5t150.5 43.5
q31 0 97.5 -23t90.5 -23q28 0 61.5 11t55.5 22t23 11h6q8 0 15 -11t9 -21q-22 -64 -22 -174v-452q0 -4 6 -4q2 0 6 4q40 44 123 95t147 51q65 0 110 -17t74 -48t45.5 -85t22.5 -118t6 -156v-220q0 -116 10 -148q4 -14 50.5 -23t75.5 -9q6 -8 6.5 -29t-6.5 -29
q-205 10 -214 10q-35 0 -67.5 -1.5t-74.5 -4.5t-70 -4q-7 8 -6.5 29t6.5 29q29 0 75.5 9t50.5 23q10 32 10 148v200q0 189 -40.5 258.5t-155.5 69.5q-34 0 -80.5 -24t-78 -50t-31.5 -36v-418q0 -116 10 -148q4 -14 50.5 -23t75.5 -9q6 -8 6.5 -29t-6.5 -29q-205 10 -214 10
q-35 0 -67.5 -1.5t-74.5 -4.5t-70 -4q-7 8 -6.5 29t6.5 29q29 0 75.5 9t50.5 23q10 32 10 148v764zM772 1116q-1 1 -6.5 14.5t-13 27t-20 32t-29.5 34t-39 30t-52.5 22.5t-65.5 8q-94 0 -146 -96t-52 -238v-102q0 -3 3.5 -6.5t6.5 -3.5h386q6 0 10 20q8 140 22 194
q4 10 4 30q0 10 -8 34z" />
    <glyph glyph-name="f_j.liga" unicode="fj" horiz-adv-x="1028" 
d="M734 620q0 59 -24 94q-8 12 -41 19t-59 9t-46 2h-206q-4 0 -8 -4t-4 -8l2 -462q0 -116 16 -178q4 -15 46.5 -29.5t59.5 -14.5q7 0 8.5 -22.5t-2.5 -31.5q-28 1 -66.5 4t-69 4.5t-66.5 1.5q-37 0 -69 -1.5t-72.5 -4.5t-68.5 -4q-8 8 -8 30q0 24 8 24q22 0 64 14.5t46 29.5
q18 70 18 178q2 282 2 460q0 14 -10 14h-106q-6 0 -6 12q0 20 11.5 51t18.5 31h82q10 0 10 12v26q0 105 36 202t92.5 164.5t128 107.5t141.5 40q61 0 128 -23t113.5 -62.5t46.5 -80.5q0 -42 -24 -68t-66 -26q-59 0 -84 44q-13 24 -19 33.5t-24.5 34t-34.5 36.5t-42.5 23
t-55.5 11q-58 0 -101 -54.5t-63 -135t-20 -172.5v-102q0 -3 3.5 -6.5t6.5 -3.5h222q214 0 300 28q1 0 5 3t5 3q10 0 10 -46q-10 -80 -10 -144v-34v-512q0 -110 -23.5 -204t-58.5 -156.5t-83.5 -113t-91.5 -78t-89 -46.5q-18 11 -26 30q-2 3 -2 7.5t2 6.5q41 29 67.5 52.5
t58 66t49.5 91.5t30.5 125.5t12.5 172.5v530z" />
    <glyph glyph-name="f_f_j.liga" unicode="ffj" horiz-adv-x="1588" 
d="M1296 620q0 56 -26 94q-8 12 -41 19t-59 9t-46 2h-206q-4 0 -8 -4t-4 -8l4 -462q0 -116 16 -178q4 -14 48.5 -27t63.5 -13q7 0 8.5 -24.5t-2.5 -33.5q-200 10 -214 10q-37 0 -69 -1.5t-72.5 -4.5t-68.5 -4q-8 8 -8 30q0 28 8 28q24 0 68 12.5t48 27.5q18 70 18 178v460
q0 14 -10 14h-384q-4 0 -8 -4t-4 -8l4 -462q0 -116 16 -178q4 -14 48.5 -27t63.5 -13q7 0 8.5 -24.5t-2.5 -33.5q-200 10 -214 10q-37 0 -69 -1.5t-72.5 -4.5t-68.5 -4q-8 8 -8 30q0 28 8 28q24 0 68 12.5t48 27.5q18 70 18 178v460q0 14 -10 14h-106q-6 0 -6 12
q0 20 11.5 51t18.5 31h82q10 0 10 12v26q0 104 39 197.5t100.5 155t135.5 97.5t145 36q52 0 98.5 -16t77.5 -40t49.5 -44t28.5 -36q59 77 133 120.5t149 43.5q61 0 128 -23t113.5 -62.5t46.5 -80.5q0 -42 -24 -68t-66 -26q-59 0 -84 44q-13 24 -19 33.5t-24.5 34t-34.5 36.5
t-42.5 23t-55.5 11q-59 0 -103.5 -53.5t-65 -136t-15.5 -172.5v-102q0 -3 3.5 -6.5t6.5 -3.5h222q214 0 300 28q1 0 6 3t6 3q3 0 5 -3.5t3 -10t1 -12t-0.5 -12.5t-0.5 -8q-8 -64 -8 -144v-34v-512q0 -110 -23.5 -204t-58.5 -156.5t-83.5 -113t-91.5 -78t-89 -46.5
q-18 11 -26 30q-2 3 -2 7.5t2 6.5q41 29 67.5 52.5t58 66t49.5 91.5t30.5 125.5t12.5 172.5v530zM774 1116l-11 24q-11 24 -26 44t-40 45t-64 40t-87 15q-94 0 -146 -96t-52 -238v-102q0 -3 3.5 -6.5t6.5 -3.5h386q10 0 10 12v8q0 113 24 194q4 10 4 30q0 10 -8 34z" />
    <glyph glyph-name="afii57414.init" unicode="&#x626;" horiz-adv-x="390" arabic-form="initial" 
d="M122 433l58 127q18 39 38 1q81 -149 30 -360q-49 -201 -248 -201q-22 0 -43 104q-16 83 43 81q121 -5 182 65q3 4 1 14q-12 59 -55 119q-18 25 -6 50zM326 834q-111 -22 -157 -36.5t-173 -70.5q-27 -11 -39 7q-25 37 80 102q-76 38 -85 86q-16 83 69 201q86 117 183 109
q62 -5 55.5 -69.5t-36.5 -106.5t-51 -9t-61.5 37t-63.5 -23t4 -53q68 -64 199 -68q21 0 63 10t58.5 9.5t24 -13t2.5 -23.5q-39 -82 -72 -89z" />
    <glyph glyph-name="afii57414.medi" unicode="&#x626;" horiz-adv-x="500" arabic-form="medial" 
d="M500 185q34 -8 38 -24t0 -48q-15 -113 -38 -113q-110 -1 -222 124q-91 -111 -278 -124q-19 -1 -26 31l-18 85q-5 21 8.5 44t35.5 25q228 17 304 134q11 17 28 17t18.5 -19t4.5 -25q67 -92 145 -107zM401 774q-111 -22 -157 -36.5t-173 -70.5q-27 -11 -39 7q-25 37 80 102
q-76 38 -85 86q-16 83 69 201q86 117 183 109q62 -5 55.5 -69.5t-36.5 -106.5t-51 -9t-61.5 37t-63.5 -23t4 -53q68 -64 199 -68q21 0 63 10t58.5 9.5t24 -13t2.5 -23.5q-39 -82 -72 -89z" />
    <glyph glyph-name="afii57416.init" unicode="&#x628;" horiz-adv-x="390" arabic-form="initial" 
d="M122 433l58 127q18 39 38 1q81 -149 30 -360q-49 -201 -248 -201q-22 0 -43 104q-16 83 43 81q121 -5 182 65q3 4 1 14q-12 59 -55 119q-18 25 -6 50zM137 -230q5 8 17 4q81 -28 145 -85q9 -8 3 -18l-98 -155q-6 -9 -20.5 3t-143.5 90q-8 5 -3 12z" />
    <glyph glyph-name="afii57416.medi" unicode="&#x628;" horiz-adv-x="500" arabic-form="medial" 
d="M500 185q34 -8 38 -24t0 -48q-15 -113 -38 -113q-110 -1 -222 124q-91 -111 -278 -124q-19 -1 -26 31l-18 85q-5 21 8.5 44t35.5 25q228 17 304 134q11 17 28 17t18.5 -19t4.5 -25q67 -92 145 -107zM227 -230q5 8 17 4q81 -28 145 -85q9 -8 3 -18l-98 -155q-6 -9 -20.5 3
t-143.5 90q-8 5 -3 12z" />
    <glyph glyph-name="afii57418.init" unicode="&#x62a;" horiz-adv-x="390" arabic-form="initial" 
d="M122 433l58 127q18 39 38 1q81 -149 30 -360q-49 -201 -248 -201q-22 0 -43 104q-16 83 43 81q121 -5 182 65q3 4 1 14q-12 59 -55 119q-18 25 -6 50zM240 966q5 8 17 4q81 -28 145 -85q9 -8 3 -18l-98 -155q-6 -9 -20 3q-13 11 -116 73l-77 -122q-6 -9 -20.5 3
t-143.5 90q-8 5 -3 12l100 149q5 8 17 4q67 -23 123 -67z" />
    <glyph glyph-name="afii57418.medi" unicode="&#x62a;" horiz-adv-x="500" arabic-form="medial" 
d="M500 185q34 -8 38 -24t0 -48q-15 -113 -38 -113q-110 -1 -222 124q-91 -111 -278 -124q-19 -1 -26 31l-18 85q-5 21 8.5 44t35.5 25q228 17 304 134q11 17 28 17t18.5 -19t4.5 -25q67 -92 145 -107zM300 906q5 8 17 4q81 -28 145 -85q9 -8 3 -18l-98 -155q-6 -9 -20 3
q-13 11 -116 73l-77 -122q-6 -9 -20.5 3t-143.5 90q-8 5 -3 12l100 149q5 8 17 4q67 -23 123 -67z" />
    <glyph glyph-name="afii57419.init" unicode="&#x62b;" horiz-adv-x="390" arabic-form="initial" 
d="M122 433l58 127q18 39 38 1q81 -149 30 -360q-49 -201 -248 -201q-22 0 -43 104q-16 83 43 81q121 -5 182 65q3 4 1 14q-12 59 -55 119q-18 25 -6 50zM91 1179q5 8 17 4q81 -28 145 -85q9 -8 3 -18l-98 -155q-6 -9 -20.5 3t-143.5 90q-8 5 -3 12zM232 966q5 8 17 4
q81 -28 145 -85q9 -8 3 -18l-98 -155q-6 -9 -20 3q-12 10 -101 64l-72 -114q-6 -9 -20.5 3t-143.5 90q-8 5 -3 12l100 149q5 8 17 4q59 -20 109 -56z" />
    <glyph glyph-name="afii57419.medi" unicode="&#x62b;" horiz-adv-x="500" arabic-form="medial" 
d="M500 185q34 -8 38 -24t0 -48q-15 -113 -38 -113q-110 -1 -222 124q-91 -111 -278 -124q-19 -1 -26 31l-18 85q-5 21 8.5 44t35.5 25q228 17 304 134q11 17 28 17t18.5 -19t4.5 -25q67 -92 145 -107zM151 1119q5 8 17 4q81 -28 145 -85q9 -8 3 -18l-98 -155q-6 -9 -20.5 3
t-143.5 90q-8 5 -3 12zM292 906q5 8 17 4q81 -28 145 -85q9 -8 3 -18l-98 -155q-6 -9 -20 3q-12 10 -101 64l-72 -114q-6 -9 -20.5 3t-143.5 90q-8 5 -3 12l100 149q5 8 17 4q59 -20 109 -56z" />
    <glyph glyph-name="afii57420.init" unicode="&#x62c;" horiz-adv-x="1343" arabic-form="initial" 
d="M12 447q16 63 83 128t144 66t357 -116q102 -43 259.5 -72.5t323.5 -18.5q45 3 27 -36l-57 -126q-11 -24 -44 -19q-233 39 -438 -21q-253 -84 -404 -159q-147 -73 -263 -73q-13 0 -21 20q-24 63 -10.5 113t31.5 52q294 21 543 148q-272 156 -498 85q-16 -5 -26.5 4.5
t-6.5 24.5zM577 -82q5 8 17 4q81 -28 145 -85q9 -8 3 -18l-98 -155q-6 -9 -20.5 3t-143.5 90q-8 5 -3 12z" />
    <glyph glyph-name="afii57420.medi" unicode="&#x62c;" horiz-adv-x="1250" arabic-form="medial" 
d="M284 639q47 3 298 -98q129 -52 304 -78t333 -4q29 4 21 -30q-21 -90 -44 -145q-6 -15 -24 -13q-103 8 -178 10q-31 -60 49.5 -83.5t206.5 -12.5q83 7 39 -139q-13 -43 -39 -46q-156 -20 -256 14q-137 48 -86 226q8 28 10 37q-188 -11 -392 -72q-84 -25 -264 -115
t-262 -90q-28 0 -44 40t-6 88q11 51 50 57q176 31 282 78q134 62 194 79q20 6 18 16q0 8 -16 15q-154 66 -244.5 74t-167.5 -35q-18 -10 -33.5 -5.5t-8.5 29.5q53 190 260 203zM567 -70q5 8 17 4q81 -28 145 -85q9 -8 3 -18l-98 -155q-6 -9 -20.5 3t-143.5 90q-8 5 -3 12z
" />
    <glyph glyph-name="afii57421.init" unicode="&#x62d;" horiz-adv-x="1343" arabic-form="initial" 
d="M12 447q16 63 83 128t144 66t357 -116q102 -43 259.5 -72.5t323.5 -18.5q45 3 27 -36l-57 -126q-11 -24 -44 -19q-233 39 -438 -21q-253 -84 -404 -159q-147 -73 -263 -73q-13 0 -21 20q-24 63 -10.5 113t31.5 52q294 21 543 148q-272 156 -498 85q-16 -5 -26.5 4.5
t-6.5 24.5z" />
    <glyph glyph-name="afii57421.medi" unicode="&#x62d;" horiz-adv-x="1250" arabic-form="medial" 
d="M284 639q47 3 298 -98q129 -52 304 -78t333 -4q29 4 21 -30q-21 -90 -44 -145q-6 -15 -24 -13q-103 8 -178 10q-31 -60 49.5 -83.5t206.5 -12.5q83 7 39 -139q-13 -43 -39 -46q-156 -20 -256 14q-137 48 -86 226q8 28 10 37q-188 -11 -392 -72q-84 -25 -264 -115
t-262 -90q-28 0 -44 40t-6 88q11 51 50 57q176 31 282 78q134 62 194 79q20 6 18 16q0 8 -16 15q-154 66 -244.5 74t-167.5 -35q-18 -10 -33.5 -5.5t-8.5 29.5q53 190 260 203z" />
    <glyph glyph-name="afii57422.init" unicode="&#x62e;" horiz-adv-x="1343" arabic-form="initial" 
d="M12 447q16 63 83 128t144 66t357 -116q102 -43 259.5 -72.5t323.5 -18.5q45 3 27 -36l-57 -126q-11 -24 -44 -19q-233 39 -438 -21q-253 -84 -404 -159q-147 -73 -263 -73q-13 0 -21 20q-24 63 -10.5 113t31.5 52q294 21 543 148q-272 156 -498 85q-16 -5 -26.5 4.5
t-6.5 24.5zM577 1070q5 8 17 4q81 -28 145 -85q9 -8 3 -18l-98 -155q-6 -9 -20.5 3t-143.5 90q-8 5 -3 12z" />
    <glyph glyph-name="afii57422.medi" unicode="&#x62e;" horiz-adv-x="1250" arabic-form="medial" 
d="M284 639q47 3 298 -98q129 -52 304 -78t333 -4q29 4 21 -30q-21 -90 -44 -145q-6 -15 -24 -13q-103 8 -178 10q-31 -60 49.5 -83.5t206.5 -12.5q83 7 39 -139q-13 -43 -39 -46q-156 -20 -256 14q-137 48 -86 226q8 28 10 37q-188 -11 -392 -72q-84 -25 -264 -115
t-262 -90q-28 0 -44 40t-6 88q11 51 50 57q176 31 282 78q134 62 194 79q20 6 18 16q0 8 -16 15q-154 66 -244.5 74t-167.5 -35q-18 -10 -33.5 -5.5t-8.5 29.5q53 190 260 203zM617 1070q5 8 17 4q81 -28 145 -85q9 -8 3 -18l-98 -155q-6 -9 -20.5 3t-143.5 90q-8 5 -3 12z
" />
    <glyph glyph-name="afii57427.init" unicode="&#x633;" horiz-adv-x="1164" arabic-form="initial" 
d="M994 584q8 12 22 -12t18 -102.5t-14 -155.5q-42 -166 -107 -168q-150 -6 -255 103q-72 -169 -198 -202t-256 106q-108 -153 -204 -153q-21 -1 -36.5 89.5t36.5 95.5q198 20 307 207q5 11 15 10q10 0 16 -8q11 -15 -30 -90q34 -62 166 -64q158 -2 242 277q4 11 14 12.5
t17 -7t5 -20.5l-21 -87q43 -45 125.5 -69t95.5 5.5t-18 120.5q-4 10 60 112z" />
    <glyph glyph-name="afii57427.medi" unicode="&#x633;" horiz-adv-x="1165" arabic-form="medial" 
d="M263 331q12 26 28 31.5t28.5 -10.5t-2 -46.5t-33.5 -64.5q248 -102 347 133q11 26 27 31.5t27.5 -9t3.5 -39.5q-24 -69 -21 -93q5 -46 75.5 -62.5t106 20t65.5 165.5q4 17 25.5 17t28.5 -17q74 -189 196 -202q25 -3 35 -59q10 -50 -1.5 -88t-33.5 -38q-168 0 -245 203
q-5 14 -10 -1q-36 -124 -71 -169t-80 -47q-145 -6 -218 109q-79 -95 -196.5 -95t-175.5 80q-81 -80 -169 -80q-39 0 -48 138q-3 42 48 47q204 16 263 146z" />
    <glyph glyph-name="afii57428.init" unicode="&#x634;" horiz-adv-x="1164" arabic-form="initial" 
d="M994 584q8 12 22 -12t18 -102.5t-14 -155.5q-42 -166 -107 -168q-150 -6 -255 103q-72 -169 -198 -202t-256 106q-108 -153 -204 -153q-21 -1 -36.5 89.5t36.5 95.5q198 20 307 207q5 11 15 10q10 0 16 -8q11 -15 -30 -90q34 -62 166 -64q158 -2 242 277q4 11 14 12.5
t17 -7t5 -20.5l-21 -87q43 -45 125.5 -69t95.5 5.5t-18 120.5q-4 10 60 112zM570 1279q5 8 17 4q81 -28 145 -85q9 -8 3 -18l-98 -155q-6 -9 -20.5 3t-143.5 90q-8 5 -3 12zM711 1066q5 8 17 4q81 -28 145 -85q9 -8 3 -18l-98 -155q-6 -9 -20 3q-12 10 -101 64l-72 -114
q-6 -9 -20.5 3t-143.5 90q-8 5 -3 12l100 149q5 8 17 4q59 -20 109 -56z" />
    <glyph glyph-name="afii57428.medi" unicode="&#x634;" horiz-adv-x="1165" arabic-form="medial" 
d="M263 331q12 26 28 31.5t28.5 -10.5t-2 -46.5t-33.5 -64.5q248 -102 347 133q11 26 27 31.5t27.5 -9t3.5 -39.5q-24 -69 -21 -93q5 -46 75.5 -62.5t106 20t65.5 165.5q4 17 25.5 17t28.5 -17q74 -189 196 -202q25 -3 35 -59q10 -50 -1.5 -88t-33.5 -38q-168 0 -245 203
q-5 14 -10 -1q-36 -124 -71 -169t-80 -47q-145 -6 -218 109q-79 -95 -196.5 -95t-175.5 80q-81 -80 -169 -80q-39 0 -48 138q-3 42 48 47q204 16 263 146zM515 1156q5 8 17 4q81 -28 145 -85q9 -8 3 -18l-98 -155q-6 -9 -20.5 3t-143.5 90q-8 5 -3 12zM656 943q5 8 17 4
q81 -28 145 -85q9 -8 3 -18l-98 -155q-6 -9 -20 3q-12 10 -101 64l-72 -114q-6 -9 -20.5 3t-143.5 90q-8 5 -3 12l100 149q5 8 17 4q59 -20 109 -56z" />
    <glyph glyph-name="afii57429.init" unicode="&#x635;" horiz-adv-x="1430" arabic-form="initial" 
d="M1072 584q58 0 150 -67t79 -136t-66 -164.5t-75 -111.5q-188 -137 -493 -137q-121 1 -226 30q-16 -20 -56 -167q-7 -30 -40 -18.5t-29 44.5q11 73 51 169q-107 46 -168 119q-22 27 -34.5 27t-24.5 -29q-59 -143 -140 -143q-12 0 -23 23q-32 74 -17 115t40 47
q106 26 178 157q15 28 44 27.5t48 -32.5q63 -101 217 -146q88 98 172 172q253 219 413 221zM1161 272q-117 106 -262 95q-57 -5 -171.5 -80t-155.5 -117q118 -18 331.5 6t256.5 76q13 9 1 20z" />
    <glyph glyph-name="afii57429.medi" unicode="&#x635;" horiz-adv-x="1480" arabic-form="medial" 
d="M1226 394q-154 154 -423 -24q-134 -89 -202 -190q155 -6 371 60q139 43 255 131q13 10 -1 23zM480 22q-32 -91 -38.5 -132.5t-27 -51.5t-37.5 3q-32 25 31 205q-64 19 -106 48.5t-83 82.5q-109 -167 -219 -177q-24 -2 -35 34q-24 75 3 127q14 27 32 24q94 -16 219 136
q15 18 29 12.5t35 -28.5q93 -103 224 -113q118 178 296.5 319.5t294.5 168.5q81 17 173.5 -39.5t110.5 -131.5q-36 -169 -117 -276q122 -44 214 -48q19 -1 23 -51q12 -131 -23 -134q-159 -16 -396 104q-299 -150 -603 -82z" />
    <glyph glyph-name="afii57430.init" unicode="&#x636;" horiz-adv-x="1430" arabic-form="initial" 
d="M1072 584q58 0 150 -67t79 -136t-66 -164.5t-75 -111.5q-188 -137 -493 -137q-121 1 -226 30q-16 -20 -56 -167q-7 -30 -40 -18.5t-29 44.5q11 73 51 169q-107 46 -168 119q-22 27 -34.5 27t-24.5 -29q-59 -143 -140 -143q-12 0 -23 23q-32 74 -17 115t40 47
q106 26 178 157q15 28 44 27.5t48 -32.5q63 -101 217 -146q88 98 172 172q253 219 413 221zM1161 272q-117 106 -262 95q-57 -5 -171.5 -80t-155.5 -117q118 -18 331.5 6t256.5 76q13 9 1 20zM601 1014q5 8 17 4q81 -28 145 -85q9 -8 3 -18l-98 -155q-6 -9 -20.5 3
t-143.5 90q-8 5 -3 12z" />
    <glyph glyph-name="afii57430.medi" unicode="&#x636;" horiz-adv-x="1480" arabic-form="medial" 
d="M1226 394q-154 154 -423 -24q-134 -89 -202 -190q155 -6 371 60q139 43 255 131q13 10 -1 23zM480 22q-32 -91 -38.5 -132.5t-27 -51.5t-37.5 3q-32 25 31 205q-64 19 -106 48.5t-83 82.5q-109 -167 -219 -177q-24 -2 -35 34q-24 75 3 127q14 27 32 24q94 -16 219 136
q15 18 29 12.5t35 -28.5q93 -103 224 -113q118 178 296.5 319.5t294.5 168.5q81 17 173.5 -39.5t110.5 -131.5q-36 -169 -117 -276q122 -44 214 -48q19 -1 23 -51q12 -131 -23 -134q-159 -16 -396 104q-299 -150 -603 -82zM679 1107q5 8 17 4q81 -28 145 -85q9 -8 3 -18
l-98 -155q-6 -9 -20.5 3t-143.5 90q-8 5 -3 12z" />
    <glyph glyph-name="afii57431.init" unicode="&#x637;" horiz-adv-x="1163" arabic-form="initial" 
d="M256 1451q8 11 17 8.5t14 -15.5q51 -118 88 -159q17 -18 -1 -41l-41 -52q-12 -14 -10 -44q27 -409 27 -452q0 -205 -26 -328q299 241 445 280q76 21 124 3q76 -29 134 -140q12 -23 2 -58q-36 -129 -105 -234q-48 -74 -202 -110q-375 -87 -722 -109q-21 -1 -35.5 45
t-6.5 92t42 48q87 4 135 11l115 111q4 16 8 77q4 62 3 158t-17 349q-18 297 -31.5 367t-9.5 81q25 67 53 112zM696 462q-22 0 -43 -6q-203 -66 -392 -252q392 33 630 118q12 4 6 14q-83 124 -201 126z" />
    <glyph glyph-name="afii57431.medi" unicode="&#x637;" horiz-adv-x="1130" arabic-form="medial" 
d="M684 49q-150 -49 -392.5 -52.5t-291.5 3.5q-15 2 -30 48q-42 132 30 137l88 1l113 122q4 393 -66 947q-10 81 -15 99q-8 30 49 140q6 12 17.5 10.5t16.5 -14.5q42 -110 86 -152q24 -23 0 -54l-35 -45q-11 -14 -7 -46q52 -419 43 -588q-4 -69 -38 -240q250 208 375 267
t190 39q98 -29 154 -144q11 -22 4 -60q-29 -157 -140 -256q157 -40 295 -26q29 3 38 -37q18 -81 -3.5 -114t-34.5 -34q-200 -16 -446 49zM752 424q-130 95 -358 -62q-116 -80 -210 -175q369 20 644 159q-22 39 -76 78z" />
    <glyph glyph-name="afii57432.init" unicode="&#x638;" horiz-adv-x="1163" arabic-form="initial" 
d="M256 1451q8 11 17 8.5t14 -15.5q51 -118 88 -159q17 -18 -1 -41l-41 -52q-12 -14 -10 -44q27 -409 27 -452q0 -205 -26 -328q299 241 445 280q76 21 124 3q76 -29 134 -140q12 -23 2 -58q-36 -129 -105 -234q-48 -74 -202 -110q-375 -87 -722 -109q-21 -1 -35.5 45
t-6.5 92t42 48q87 4 135 11l115 111q4 16 8 77q4 62 3 158t-17 349q-18 297 -31.5 367t-9.5 81q25 67 53 112zM696 462q-22 0 -43 -6q-203 -66 -392 -252q392 33 630 118q12 4 6 14q-83 124 -201 126zM732 1120q5 8 17 4q81 -28 145 -85q9 -8 3 -18l-98 -155q-6 -9 -20.5 3
t-143.5 90q-8 5 -3 12z" />
    <glyph glyph-name="afii57432.medi" unicode="&#x638;" horiz-adv-x="1130" arabic-form="medial" 
d="M684 49q-150 -49 -392.5 -52.5t-291.5 3.5q-15 2 -30 48q-42 132 30 137l88 1l113 122q4 393 -66 947q-10 81 -15 99q-8 30 49 140q6 12 17.5 10.5t16.5 -14.5q42 -110 86 -152q24 -23 0 -54l-35 -45q-11 -14 -7 -46q52 -419 43 -588q-4 -69 -38 -240q250 208 375 267
t190 39q98 -29 154 -144q11 -22 4 -60q-29 -157 -140 -256q157 -40 295 -26q29 3 38 -37q18 -81 -3.5 -114t-34.5 -34q-200 -16 -446 49zM752 424q-130 95 -358 -62q-116 -80 -210 -175q369 20 644 159q-22 39 -76 78zM667 1120q5 8 17 4q81 -28 145 -85q9 -8 3 -18
l-98 -155q-6 -9 -20.5 3t-143.5 90q-8 5 -3 12z" />
    <glyph glyph-name="afii57433.init" unicode="&#x639;" horiz-adv-x="978" arabic-form="initial" 
d="M848 515l-42 -164q-5 -18 -35 -29q-121 -44 -300 -118l-471 -204q-45 0 -61.5 75.5t61.5 109.5l142 59q-94 81 -73 187q53 269 324 382q50 21 133.5 -22t144.5 -113q21 -24 6.5 -43t-41.5 -8q-120 49 -267 15t-183 -120q-14 -33 45 -85.5t115 -61.5q164 -25 380 113
q44 28 78 46q57 33 44 -19z" />
    <glyph glyph-name="afii57433.medi" unicode="&#x639;" horiz-adv-x="750" arabic-form="medial" 
d="M750 185q72 0 62 -73q-16 -109 -62 -112q-188 -13 -379 210q-254 -212 -371 -210q-49 1 -63 78q-18 104 63 107q127 5 242 84q-66 65 -186 82q-14 2 -10 22q10 64 106 146q176 142 395 9q104 -63 99 -123t-144 -147q73 -73 248 -73z" />
    <glyph glyph-name="afii57434.init" unicode="&#x63a;" horiz-adv-x="978" arabic-form="initial" 
d="M848 515l-42 -164q-5 -18 -35 -29q-121 -44 -300 -118l-471 -204q-45 0 -61.5 75.5t61.5 109.5l142 59q-94 81 -73 187q53 269 324 382q50 21 133.5 -22t144.5 -113q21 -24 6.5 -43t-41.5 -8q-120 49 -267 15t-183 -120q-14 -33 45 -85.5t115 -61.5q164 -25 380 113
q44 28 78 46q57 33 44 -19zM267 1220q5 8 17 4q81 -28 145 -85q9 -8 3 -18l-98 -155q-6 -9 -20.5 3t-143.5 90q-8 5 -3 12z" />
    <glyph glyph-name="afii57434.medi" unicode="&#x63a;" horiz-adv-x="750" arabic-form="medial" 
d="M750 185q72 0 62 -73q-16 -109 -62 -112q-188 -13 -379 210q-254 -212 -371 -210q-49 1 -63 78q-18 104 63 107q127 5 242 84q-66 65 -186 82q-14 2 -10 22q10 64 106 146q176 142 395 9q104 -63 99 -123t-144 -147q73 -73 248 -73zM227 1120q5 8 17 4q81 -28 145 -85
q9 -8 3 -18l-98 -155q-6 -9 -20.5 3t-143.5 90q-8 5 -3 12z" />
    <glyph glyph-name="uni063B.init" unicode="&#x63b;" horiz-adv-x="1350" 
d="M0 185q336 -48 526 142q6 6 4 14q-126 204 -428 356q-34 17 -37 127q-5 155 62 215q291 260 1063 501q16 5 24 5q12 0 12 -14q0 -3 -3 -14l-40 -144q-8 -30 -27 -36q-881 -315 -1022 -456q-8 -8 4 -14q431 -258 434 -515q1 -143 -60 -226q-62 -84 -152 -106
q-213 -53 -377 -23q-27 5 -33 53q-6 50 -6 72q0 71 56 63zM352 1592q5 8 17 4q81 -28 145 -85q9 -8 3 -18l-98 -155q-6 -9 -20 3q-13 11 -116 73l-77 -122q-6 -9 -20.5 3t-143.5 90q-8 5 -3 12l100 149q5 8 17 4q67 -23 123 -67z" />
    <glyph glyph-name="uni063B.medi" unicode="&#x63b;" horiz-adv-x="1206" 
d="M-11 186q5 0 44 -5t129.5 -5t196.5 40.5t175 120.5q-48 185 -423 361q-42 28 -52 135q-9 120 21 162q237 337 1034 665q17 7 28 7q19 0 18 -21q0 -9 -2 -18l-30 -130q-6 -25 -32 -38q-712 -350 -957 -586q418 -212 715 -482q214 -195 350 -208q49 -5 49 -62
q0 -33 -14.5 -78.5t-34.5 -44.5q-141 0 -428 284q-95 94 -196 169q6 -82 -4 -153q-46 -312 -479 -312q-71 0 -112 9.5t-41 125.5q0 64 45 64zM285 1616q5 8 17 4q81 -28 145 -85q9 -8 3 -18l-98 -155q-6 -9 -20 3q-13 11 -116 73l-77 -122q-6 -9 -20.5 3t-143.5 90
q-8 5 -3 12l100 149q5 8 17 4q67 -23 123 -67z" />
    <glyph glyph-name="uni063C.init" unicode="&#x63c;" horiz-adv-x="1350" 
d="M0 185q336 -48 526 142q6 6 4 14q-126 204 -428 356q-34 17 -37 127q-5 155 62 215q291 260 1063 501q16 5 24 5q12 0 12 -14q0 -3 -3 -14l-40 -144q-8 -30 -27 -36q-881 -315 -1022 -456q-8 -8 4 -14q431 -258 434 -515q1 -143 -60 -226q-62 -84 -152 -106
q-213 -53 -377 -23q-27 5 -33 53q-6 50 -6 72q0 71 56 63zM353 -555q-5 -8 -17 -4q-81 28 -145 85q-9 8 -3 18l98 155q6 9 20.5 -3t143.5 -90q8 -5 3 -12zM212 -342q-5 -8 -17 -4q-81 28 -145 85q-9 8 -3 18l98 155q6 9 20 -3q12 -10 101 -64l72 114q6 9 20.5 -3t143.5 -90
q8 -5 3 -12l-100 -149q-5 -8 -17 -4q-59 20 -109 56z" />
    <glyph glyph-name="uni063C.medi" unicode="&#x63c;" horiz-adv-x="1206" 
d="M-11 186q5 0 44 -5t129.5 -5t196.5 40.5t175 120.5q-48 185 -423 361q-42 28 -52 135q-9 120 21 162q237 337 1034 665q17 7 28 7q19 0 18 -21q0 -9 -2 -18l-30 -130q-6 -25 -32 -38q-712 -350 -957 -586q418 -212 715 -482q214 -195 350 -208q49 -5 49 -62
q0 -33 -14.5 -78.5t-34.5 -44.5q-141 0 -428 284q-95 94 -196 169q6 -82 -4 -153q-46 -312 -479 -312q-71 0 -112 9.5t-41 125.5q0 64 45 64zM842 -591q-5 -8 -17 -4q-81 28 -145 85q-9 8 -3 18l98 155q6 9 20.5 -3t143.5 -90q8 -5 3 -12zM701 -378q-5 -8 -17 -4
q-81 28 -145 85q-9 8 -3 18l98 155q6 9 20 -3q12 -10 101 -64l72 114q6 9 20.5 -3t143.5 -90q8 -5 3 -12l-100 -149q-5 -8 -17 -4q-59 20 -109 56z" />
    <glyph glyph-name="uni063D.init" unicode="&#x63d;" horiz-adv-x="390" 
d="M122 433l58 127q18 39 38 1q81 -149 30 -360q-49 -201 -248 -201q-22 0 -43 104q-16 83 43 81q121 -5 182 65q3 4 1 14q-12 59 -55 119q-18 25 -6 50zM333 787q-5 -10 -14 -10q-10 -2 -23 11q-99 97 -157 244q-63 -138 -83 -216q-9 -35 -35 -30q-20 4 -22 22q0 9 4 24
q48 170 149 326q7 11 15 12q5 1 9 -2l20 -12q48 -117 165 -271q8 -8 9 -18q1 -8 -5 -20zM304 -231q5 8 17 4q81 -28 145 -85q9 -8 3 -18l-98 -155q-6 -9 -20 3q-13 11 -116 73l-77 -122q-6 -9 -20.5 3t-143.5 90q-8 5 -3 12l100 149q5 8 17 4q67 -23 123 -67z" />
    <glyph glyph-name="uni063D.medi" unicode="&#x63d;" horiz-adv-x="500" 
d="M500 185q34 -8 38 -24t0 -48q-15 -113 -38 -113q-110 -1 -222 124q-91 -111 -278 -124q-19 -1 -26 31l-18 85q-5 21 8.5 44t35.5 25q228 17 304 134q11 17 28 17t18.5 -19t4.5 -25q67 -92 145 -107zM344 -131q5 8 17 4q81 -28 145 -85q9 -8 3 -18l-98 -155q-6 -9 -20 3
q-13 11 -116 73l-77 -122q-6 -9 -20.5 3t-143.5 90q-8 5 -3 12l100 149q5 8 17 4q67 -23 123 -67zM408 727q-5 -10 -14 -10q-10 -2 -23 11q-99 97 -157 244q-63 -138 -83 -216q-9 -35 -35 -30q-20 4 -22 22q0 9 4 24q48 170 149 326q7 11 15 12q5 1 9 -2l20 -12
q48 -117 165 -271q8 -8 9 -18q1 -8 -5 -20z" />
    <glyph glyph-name="afii57441.init" unicode="&#x641;" horiz-adv-x="605" arabic-form="initial" 
d="M236 838q27 0 66 -34q183 -161 173 -405q-5 -129 -63 -205q-150 -194 -412 -194q-26 -1 -38 46.5t-1.5 92t39.5 46.5q256 17 385 146q-5 61 -19 81t-23 18t-12 -9q-35 -89 -106 -105q-225 -48 -206 174q9 109 81 229t136 119zM168 616q-47 -2 -56 -79q-1 -11 3 -12
q40 -12 83 -6t55 25q-47 74 -85 72zM127 1270q5 8 17 4q81 -28 145 -85q9 -8 3 -18l-98 -155q-6 -9 -20.5 3t-143.5 90q-8 5 -3 12z" />
    <glyph glyph-name="afii57441.medi" unicode="&#x641;" horiz-adv-x="775" arabic-form="medial" 
d="M579 776q12 0 20 -4q49 -30 63 -112q27 -157 -35 -293q-30 -66 -74 -131q127 -47 222 -51q19 -1 23 -51q12 -131 -23 -134q-168 -17 -423 118q-74 -36 -194.5 -76.5t-157.5 -41.5q-25 -1 -36 44.5t-1 91t37 49.5q116 17 217 52q-15 91 24 195q63 170 231 296
q64 48 107 48zM487 560q-97 8 -178 -105q-23 -29 22 -90t105 -61t135 78q5 158 -84 178zM452 1320q5 8 17 4q81 -28 145 -85q9 -8 3 -18l-98 -155q-6 -9 -20.5 3t-143.5 90q-8 5 -3 12z" />
    <glyph glyph-name="afii57442.init" unicode="&#x642;" horiz-adv-x="605" arabic-form="initial" 
d="M236 838q27 0 66 -34q183 -161 173 -405q-5 -129 -63 -205q-150 -194 -412 -194q-26 -1 -38 46.5t-1.5 92t39.5 46.5q256 17 385 146q-5 61 -19 81t-23 18t-12 -9q-35 -89 -106 -105q-225 -48 -206 174q9 109 81 229t136 119zM168 616q-47 -2 -56 -79q-1 -11 3 -12
q40 -12 83 -6t55 25q-47 74 -85 72zM300 1316q5 8 17 4q81 -28 145 -85q9 -8 3 -18l-98 -155q-6 -9 -20 3q-13 11 -116 73l-77 -122q-6 -9 -20.5 3t-143.5 90q-8 5 -3 12l100 149q5 8 17 4q67 -23 123 -67z" />
    <glyph glyph-name="afii57442.medi" unicode="&#x642;" horiz-adv-x="775" arabic-form="medial" 
d="M579 776q12 0 20 -4q49 -30 63 -112q27 -157 -35 -293q-30 -66 -74 -131q127 -47 222 -51q19 -1 23 -51q12 -131 -23 -134q-168 -17 -423 118q-74 -36 -194.5 -76.5t-157.5 -41.5q-25 -1 -36 44.5t-1 91t37 49.5q116 17 217 52q-15 91 24 195q63 170 231 296
q64 48 107 48zM487 560q-97 8 -178 -105q-23 -29 22 -90t105 -61t135 78q5 158 -84 178zM480 1366q5 8 17 4q81 -28 145 -85q9 -8 3 -18l-98 -155q-6 -9 -20 3q-13 11 -116 73l-77 -122q-6 -9 -20.5 3t-143.5 90q-8 5 -3 12l100 149q5 8 17 4q67 -23 123 -67z" />
    <glyph glyph-name="afii57443.init" unicode="&#x643;" horiz-adv-x="1350" arabic-form="initial" 
d="M0 185q336 -48 526 142q6 6 4 14q-126 204 -428 356q-34 17 -37 127q-5 155 62 215q291 260 1063 501q16 5 24 5q12 0 12 -14q0 -3 -3 -14l-40 -144q-8 -30 -27 -36q-881 -315 -1022 -456q-8 -8 4 -14q431 -258 434 -515q1 -143 -60 -226q-62 -84 -152 -106
q-213 -53 -377 -23q-27 5 -33 53q-6 50 -6 72q0 71 56 63z" />
    <glyph glyph-name="afii57443.medi" unicode="&#x643;" horiz-adv-x="1206" arabic-form="medial" 
d="M-11 186q5 0 44 -5t129.5 -5t196.5 40.5t175 120.5q-48 185 -423 361q-42 28 -52 135q-9 120 21 162q237 337 1034 665q17 7 28 7q19 0 18 -21q0 -9 -2 -18l-30 -130q-6 -25 -32 -38q-712 -350 -957 -586q418 -212 715 -482q214 -195 350 -208q49 -5 49 -62
q0 -33 -14.5 -78.5t-34.5 -44.5q-141 0 -428 284q-95 94 -196 169q6 -82 -4 -153q-46 -312 -479 -312q-71 0 -112 9.5t-41 125.5q0 64 45 64z" />
    <glyph glyph-name="afii57444.init" unicode="&#x644;" horiz-adv-x="360" arabic-form="initial" 
d="M32 1352q31 75 37 92.5t21 17.5t22 -21q31 -91 89 -149q20 -20 -3 -47l-45 -63q13 -115 26 -214q69 -506 47 -618q-64 -324 -226 -350q-36 -5 -31 135q1 47 31 50q111 13 155 92q-6 161 -50.5 503t-53.5 419l-20 115q-4 24 1 38z" />
    <glyph glyph-name="afii57444.medi" unicode="&#x644;" horiz-adv-x="405" arabic-form="medial" 
d="M405 185q27 -6 26 -60q-3 -127 -26 -125q-116 14 -203 236q-18 45 -25 -7q-35 -227 -177 -229q-15 0 -23 23q-50 141 23 162q71 21 108 73q32 44 30 115l-36 927q-1 26 9 36l59 69q21 25 23 -11q9 -99 15 -270q21 -624 40 -707q48 -208 157 -232z" />
    <glyph glyph-name="afii57445.init" unicode="&#x645;" horiz-adv-x="797" arabic-form="initial" 
d="M477 652q137 -2 190 -341q3 -23 -6 -34l-112 -142q-16 -21 -39 -14q-159 46 -278 147q-94 -268 -232 -268q-17 -1 -31 42q-45 142 31 143q95 3 181 115q29 37 132 225q70 127 164 127zM330 451q73 -71 184 -95q3 88 -58.5 117t-125.5 -22z" />
    <glyph glyph-name="afii57445.medi" unicode="&#x645;" horiz-adv-x="950" arabic-form="medial" 
d="M456 511q13 5 19 -4q75 -110 197 -208.5t278 -113.5q40 -4 40 -51q-1 -134 -40 -134q-142 0 -288 102q-8 -110 -26 -128t-37 -17q-229 17 -384 203q-7 9 -15 -2q-101 -154 -200 -158q-21 -1 -30 33q-25 92 2 131q14 20 28 21q193 6 236 97q90 182 220 229zM448 360
q-3 6 -14 4q-63 -16 -88 -51q-9 -13 2 -23q73 -61 176 -93q28 -8 13 11q-44 56 -89 152z" />
    <glyph glyph-name="afii57446.init" unicode="&#x646;" horiz-adv-x="390" arabic-form="initial" 
d="M122 433l58 127q18 39 38 1q81 -149 30 -360q-49 -201 -248 -201q-22 0 -43 104q-16 83 43 81q121 -5 182 65q3 4 1 14q-12 59 -55 119q-18 25 -6 50zM142 1020q5 8 17 4q81 -28 145 -85q9 -8 3 -18l-98 -155q-6 -9 -20.5 3t-143.5 90q-8 5 -3 12z" />
    <glyph glyph-name="afii57446.medi" unicode="&#x646;" horiz-adv-x="500" arabic-form="medial" 
d="M500 185q34 -8 38 -24t0 -48q-15 -113 -38 -113q-110 -1 -222 124q-91 -111 -278 -124q-19 -1 -26 31l-18 85q-5 21 8.5 44t35.5 25q228 17 304 134q11 17 28 17t18.5 -19t4.5 -25q67 -92 145 -107zM217 990q5 8 17 4q81 -28 145 -85q9 -8 3 -18l-98 -155q-6 -9 -20.5 3
t-143.5 90q-8 5 -3 12z" />
    <glyph glyph-name="afii57470.init" unicode="&#x647;" horiz-adv-x="926" arabic-form="initial" 
d="M176 659q48 185 135.5 181t275.5 -183t206 -287q23 -134 -64 -238q-44 -52 -107 -46q-162 17 -350 89q-196 -175 -272 -175q-19 -1 -33 33q-60 138 33 151q76 10 142 58q-57 47 -32 125q43 132 151 227q-21 33 -67 39q-24 3 -18 26zM325 337q68 34 68 55q-8 107 -64 118
q-83 17 -153 -71q-20 -25 15 -48t134 -54zM479 485q-8 6 -7 -3q9 -66 -71 -170q239 -75 281 -50q13 7 10 17q-39 96 -213 206z" />
    <glyph glyph-name="afii57470.medi" unicode="&#x647;" horiz-adv-x="800" arabic-form="medial" 
d="M581 717q44 -19 48 -85q21 -308 -195 -497q110 -10 366 50q17 4 28 -22q25 -58 -1 -129q-11 -30 -27 -34q-105 -23 -194 -18q68 -72 55 -241q-6 -73 -57 -142t-122 -70q-221 -3 -266 416l-59 8l1 98q-101 -51 -158 -51q-40 0 -57 138q-5 44 57 47q114 5 240 49
q82 221 240 405q76 89 101 78zM483 479q-17 0 -28 -6q-125 -71 -164 -226q195 77 255 164q12 16 3 32q-21 37 -66 36zM299 -65q36 -163 132 -205q78 -33 158 15q23 14 7 39q-76 110 -297 151z" />
    <glyph glyph-name="afii57449.init" unicode="&#x649;" horiz-adv-x="390" 
d="M122 433l58 127q18 39 38 1q81 -149 30 -360q-49 -201 -248 -201q-22 0 -43 104q-16 83 43 81q121 -5 182 65q3 4 1 14q-12 59 -55 119q-18 25 -6 50z" />
    <glyph glyph-name="afii57449.medi" unicode="&#x649;" horiz-adv-x="500" 
d="M500 185q34 -8 38 -24t0 -48q-15 -113 -38 -113q-110 -1 -222 124q-91 -111 -278 -124q-19 -1 -26 31l-18 85q-5 21 8.5 44t35.5 25q228 17 304 134q11 17 28 17t18.5 -19t4.5 -25q67 -92 145 -107z" />
    <glyph glyph-name="afii57450.init" unicode="&#x64a;" horiz-adv-x="390" arabic-form="initial" 
d="M122 433l58 127q18 39 38 1q81 -149 30 -360q-49 -201 -248 -201q-22 0 -43 104q-16 83 43 81q121 -5 182 65q3 4 1 14q-12 59 -55 119q-18 25 -6 50zM304 -231q5 8 17 4q81 -28 145 -85q9 -8 3 -18l-98 -155q-6 -9 -20 3q-13 11 -116 73l-77 -122q-6 -9 -20.5 3
t-143.5 90q-8 5 -3 12l100 149q5 8 17 4q67 -23 123 -67z" />
    <glyph glyph-name="afii57450.medi" unicode="&#x64a;" horiz-adv-x="500" arabic-form="medial" 
d="M500 185q34 -8 38 -24t0 -48q-15 -113 -38 -113q-110 -1 -222 124q-91 -111 -278 -124q-19 -1 -26 31l-18 85q-5 21 8.5 44t35.5 25q228 17 304 134q11 17 28 17t18.5 -19t4.5 -25q67 -92 145 -107zM344 -131q5 8 17 4q81 -28 145 -85q9 -8 3 -18l-98 -155q-6 -9 -20 3
q-13 11 -116 73l-77 -122q-6 -9 -20.5 3t-143.5 90q-8 5 -3 12l100 149q5 8 17 4q67 -23 123 -67z" />
    <glyph glyph-name="uni066E.init" unicode="&#x66e;" horiz-adv-x="390" 
d="M122 433l58 127q18 39 38 1q81 -149 30 -360q-49 -201 -248 -201q-22 0 -43 104q-16 83 43 81q121 -5 182 65q3 4 1 14q-12 59 -55 119q-18 25 -6 50z" />
    <glyph glyph-name="uni066E.medi" unicode="&#x66e;" horiz-adv-x="500" 
d="M500 185q34 -8 38 -24t0 -48q-15 -113 -38 -113q-110 -1 -222 124q-91 -111 -278 -124q-19 -1 -26 31l-18 85q-5 21 8.5 44t35.5 25q228 17 304 134q11 17 28 17t18.5 -19t4.5 -25q67 -92 145 -107z" />
    <glyph glyph-name="uni066F.init" unicode="&#x66f;" horiz-adv-x="605" 
d="M236 838q27 0 66 -34q183 -161 173 -405q-5 -129 -63 -205q-150 -194 -412 -194q-26 -1 -38 46.5t-1.5 92t39.5 46.5q256 17 385 146q-5 61 -19 81t-23 18t-12 -9q-35 -89 -106 -105q-225 -48 -206 174q9 109 81 229t136 119zM168 616q-47 -2 -56 -79q-1 -11 3 -12
q40 -12 83 -6t55 25q-47 74 -85 72z" />
    <glyph glyph-name="uni066F.medi" unicode="&#x66f;" horiz-adv-x="775" 
d="M579 776q12 0 20 -4q49 -30 63 -112q27 -157 -35 -293q-30 -66 -74 -131q127 -47 222 -51q19 -1 23 -51q12 -131 -23 -134q-168 -17 -423 118q-74 -36 -194.5 -76.5t-157.5 -41.5q-25 -1 -36 44.5t-1 91t37 49.5q116 17 217 52q-15 91 24 195q63 170 231 296
q64 48 107 48zM487 560q-97 8 -178 -105q-23 -29 22 -90t105 -61t135 78q5 158 -84 178z" />
    <glyph glyph-name="uni0678.init" unicode="&#x678;" horiz-adv-x="390" 
d="M122 433l58 127q18 39 38 1q81 -149 30 -360q-49 -201 -248 -201q-22 0 -43 104q-16 83 43 81q121 -5 182 65q3 4 1 14q-12 59 -55 119q-18 25 -6 50zM576 834q-111 -22 -157 -36.5t-173 -70.5q-27 -11 -39 7q-25 37 80 102q-76 38 -85 86q-16 83 69 201q86 117 183 109
q62 -5 55.5 -69.5t-36.5 -106.5t-51 -9t-61.5 37t-63.5 -23t4 -53q68 -64 199 -68q21 0 63 10t58.5 9.5t24 -13t2.5 -23.5q-39 -82 -72 -89z" />
    <glyph glyph-name="uni0678.medi" unicode="&#x678;" horiz-adv-x="500" 
d="M500 185q34 -8 38 -24t0 -48q-15 -113 -38 -113q-110 -1 -222 124q-91 -111 -278 -124q-19 -1 -26 31l-18 85q-5 21 8.5 44t35.5 25q228 17 304 134q11 17 28 17t18.5 -19t4.5 -25q67 -92 145 -107zM501 774q-111 -22 -157 -36.5t-173 -70.5q-27 -11 -39 7q-25 37 80 102
q-76 38 -85 86q-16 83 69 201q86 117 183 109q62 -5 55.5 -69.5t-36.5 -106.5t-51 -9t-61.5 37t-63.5 -23t4 -53q68 -64 199 -68q21 0 63 10t58.5 9.5t24 -13t2.5 -23.5q-39 -82 -72 -89z" />
    <glyph glyph-name="afii57511.init" unicode="&#x679;" horiz-adv-x="390" arabic-form="initial" 
d="M122 433l58 127q18 39 38 1q81 -149 30 -360q-49 -201 -248 -201q-22 0 -43 104q-16 83 43 81q121 -5 182 65q3 4 1 14q-12 59 -55 119q-18 25 -6 50zM108 1316q16 8 20 -24q41 -294 21 -413q63 68 124 113t107 27q46 -17 68.5 -72t-53.5 -151q-16 -20 -130.5 -55
t-237.5 -41q-53 9 -87.5 39t-41.5 45.5t4 13.5q76 -8 156 -1l54 53q7 145 -34 401q-1 5 10 33t20 32zM272 926q-38 -14 -156 -124q138 19 270 84q-34 69 -114 40z" />
    <glyph glyph-name="afii57511.medi" unicode="&#x679;" horiz-adv-x="500" arabic-form="medial" 
d="M500 185q34 -8 38 -24t0 -48q-15 -113 -38 -113q-110 -1 -222 124q-91 -111 -278 -124q-19 -1 -26 31l-18 85q-5 21 8.5 44t35.5 25q228 17 304 134q11 17 28 17t18.5 -19t4.5 -25q67 -92 145 -107zM183 1286q16 8 20 -24q41 -294 21 -413q63 68 124 113t107 27
q46 -17 68.5 -72t-53.5 -151q-16 -20 -130.5 -55t-237.5 -41q-53 9 -87.5 39t-41.5 45.5t4 13.5q76 -8 156 -1l54 53q7 145 -34 401q-1 5 10 33t20 32zM347 896q-38 -14 -156 -124q138 19 270 84q-34 69 -114 40z" />
    <glyph glyph-name="uni067A.init" unicode="&#x67a;" horiz-adv-x="390" arabic-form="initial" 
d="M122 433l58 127q18 39 38 1q81 -149 30 -360q-49 -201 -248 -201q-22 0 -43 104q-16 83 43 81q121 -5 182 65q3 4 1 14q-12 59 -55 119q-18 25 -6 50zM102 1210q5 8 17 4q81 -28 145 -85q9 -8 3 -18l-66 -104q56 -26 103 -68q9 -8 3 -18l-98 -155q-6 -9 -20.5 3
t-143.5 90q-8 5 -3 12l74 110l-111 68q-8 5 -3 12z" />
    <glyph glyph-name="uni067A.medi" unicode="&#x67a;" horiz-adv-x="500" arabic-form="medial" 
d="M500 185q34 -8 38 -24t0 -48q-15 -113 -38 -113q-110 -1 -222 124q-91 -111 -278 -124q-19 -1 -26 31l-18 85q-5 21 8.5 44t35.5 25q228 17 304 134q11 17 28 17t18.5 -19t4.5 -25q67 -92 145 -107zM177 1180q5 8 17 4q81 -28 145 -85q9 -8 3 -18l-66 -104
q56 -26 103 -68q9 -8 3 -18l-98 -155q-6 -9 -20.5 3t-143.5 90q-8 5 -3 12l74 110l-111 68q-8 5 -3 12z" />
    <glyph glyph-name="uni067B.init" unicode="&#x67b;" horiz-adv-x="390" arabic-form="initial" 
d="M122 433l58 127q18 39 38 1q81 -149 30 -360q-49 -201 -248 -201q-22 0 -43 104q-16 83 43 81q121 -5 182 65q3 4 1 14q-12 59 -55 119q-18 25 -6 50zM137 -230q5 8 17 4q81 -28 145 -85q9 -8 3 -18l-66 -104q56 -26 103 -68q9 -8 3 -18l-98 -155q-6 -9 -20.5 3
t-143.5 90q-8 5 -3 12l74 110l-111 68q-8 5 -3 12z" />
    <glyph glyph-name="uni067B.medi" unicode="&#x67b;" horiz-adv-x="500" arabic-form="medial" 
d="M500 185q34 -8 38 -24t0 -48q-15 -113 -38 -113q-110 -1 -222 124q-91 -111 -278 -124q-19 -1 -26 31l-18 85q-5 21 8.5 44t35.5 25q228 17 304 134q11 17 28 17t18.5 -19t4.5 -25q67 -92 145 -107zM227 -230q5 8 17 4q81 -28 145 -85q9 -8 3 -18l-66 -104
q56 -26 103 -68q9 -8 3 -18l-98 -155q-6 -9 -20.5 3t-143.5 90q-8 5 -3 12l74 110l-111 68q-8 5 -3 12z" />
    <glyph glyph-name="uni067C.init" unicode="&#x67c;" horiz-adv-x="390" 
d="M122 433l58 127q18 39 38 1q81 -149 30 -360q-49 -201 -248 -201q-22 0 -43 104q-16 83 43 81q121 -5 182 65q3 4 1 14q-12 59 -55 119q-18 25 -6 50zM240 966q5 8 17 4q81 -28 145 -85q9 -8 3 -18l-98 -155q-6 -9 -20 3q-13 11 -116 73l-77 -122q-6 -9 -20.5 3
t-143.5 90q-8 5 -3 12l100 149q5 8 17 4q67 -23 123 -67zM363 -16q1 -52 -7 -84q-28 -103 -156 -98q-122 4 -109 143q14 139 80 189t138 -13q52 -44 54 -137zM322 -67q-28 122 -102 125q-46 2 -68.5 -30t-15.5 -77.5t73.5 -51.5t104.5 22q8 6 8 12z" />
    <glyph glyph-name="uni067C.medi" unicode="&#x67c;" horiz-adv-x="500" 
d="M500 185q34 -8 38 -24t0 -48q-15 -113 -38 -113q-110 -1 -222 124q-91 -111 -278 -124q-19 -1 -26 31l-18 85q-5 21 8.5 44t35.5 25q228 17 304 134q11 17 28 17t18.5 -19t4.5 -25q67 -92 145 -107zM300 906q5 8 17 4q81 -28 145 -85q9 -8 3 -18l-98 -155q-6 -9 -20 3
q-13 11 -116 73l-77 -122q-6 -9 -20.5 3t-143.5 90q-8 5 -3 12l100 149q5 8 17 4q67 -23 123 -67zM393 -46q1 -52 -7 -84q-28 -103 -156 -98q-122 4 -109 143q14 139 80 189t138 -13q52 -44 54 -137zM352 -97q-28 122 -102 125q-46 2 -68.5 -30t-15.5 -77.5t73.5 -51.5
t104.5 22q8 6 8 12z" />
    <glyph glyph-name="uni067D.init" unicode="&#x67d;" horiz-adv-x="390" 
d="M122 433l58 127q18 39 38 1q81 -149 30 -360q-49 -201 -248 -201q-22 0 -43 104q-16 83 43 81q121 -5 182 65q3 4 1 14q-12 59 -55 119q-18 25 -6 50zM249 659q-5 -8 -17 -4q-81 28 -145 85q-9 8 -3 18l98 155q6 9 20.5 -3t143.5 -90q8 -5 3 -12zM108 872q-5 -8 -17 -4
q-81 28 -145 85q-9 8 -3 18l98 155q6 9 20 -3q12 -10 101 -64l72 114q6 9 20.5 -3t143.5 -90q8 -5 3 -12l-100 -149q-5 -8 -17 -4q-59 20 -109 56z" />
    <glyph glyph-name="uni067D.medi" unicode="&#x67d;" horiz-adv-x="500" 
d="M500 185q34 -8 38 -24t0 -48q-15 -113 -38 -113q-110 -1 -222 124q-91 -111 -278 -124q-19 -1 -26 31l-18 85q-5 21 8.5 44t35.5 25q228 17 304 134q11 17 28 17t18.5 -19t4.5 -25q67 -92 145 -107zM309 599q-5 -8 -17 -4q-81 28 -145 85q-9 8 -3 18l98 155q6 9 20.5 -3
t143.5 -90q8 -5 3 -12zM168 812q-5 -8 -17 -4q-81 28 -145 85q-9 8 -3 18l98 155q6 9 20 -3q12 -10 101 -64l72 114q6 9 20.5 -3t143.5 -90q8 -5 3 -12l-100 -149q-5 -8 -17 -4q-59 20 -109 56z" />
    <glyph glyph-name="afii57506.init" unicode="&#x67e;" horiz-adv-x="390" arabic-form="initial" 
d="M122 433l58 127q18 39 38 1q81 -149 30 -360q-49 -201 -248 -201q-22 0 -43 104q-16 83 43 81q121 -5 182 65q3 4 1 14q-12 59 -55 119q-18 25 -6 50zM313 -741q-5 -8 -17 -4q-81 28 -145 85q-9 8 -3 18l98 155q6 9 20.5 -3t143.5 -90q8 -5 3 -12zM172 -528q-5 -8 -17 -4
q-81 28 -145 85q-9 8 -3 18l98 155q6 9 20 -3q12 -10 101 -64l72 114q6 9 20.5 -3t143.5 -90q8 -5 3 -12l-100 -149q-5 -8 -17 -4q-59 20 -109 56z" />
    <glyph glyph-name="afii57506.medi" unicode="&#x67e;" horiz-adv-x="500" arabic-form="medial" 
d="M500 185q34 -8 38 -24t0 -48q-15 -113 -38 -113q-110 -1 -222 124q-91 -111 -278 -124q-19 -1 -26 31l-18 85q-5 21 8.5 44t35.5 25q228 17 304 134q11 17 28 17t18.5 -19t4.5 -25q67 -92 145 -107zM353 -641q-5 -8 -17 -4q-81 28 -145 85q-9 8 -3 18l98 155q6 9 20.5 -3
t143.5 -90q8 -5 3 -12zM212 -428q-5 -8 -17 -4q-81 28 -145 85q-9 8 -3 18l98 155q6 9 20 -3q12 -10 101 -64l72 114q6 9 20.5 -3t143.5 -90q8 -5 3 -12l-100 -149q-5 -8 -17 -4q-59 20 -109 56z" />
    <glyph glyph-name="uni067F.init" unicode="&#x67f;" horiz-adv-x="390" arabic-form="initial" 
d="M122 433l58 127q18 39 38 1q81 -149 30 -360q-49 -201 -248 -201q-22 0 -43 104q-16 83 43 81q121 -5 182 65q3 4 1 14q-12 59 -55 119q-18 25 -6 50zM-4 1159q5 8 17 4q68 -23 124 -67l74 110q5 8 17 4q81 -28 145 -85q9 -8 3 -18l-93 -147q65 -27 119 -75q9 -8 3 -18
l-98 -155q-6 -9 -20 3q-13 11 -116 73l-77 -122q-6 -9 -20.5 3t-143.5 90q-8 5 -3 12l99 148q-33 22 -127 79q-8 5 -3 12zM167 857l73 109l1 1q-28 19 -100 62l-72 -115q53 -22 98 -57z" />
    <glyph glyph-name="uni067F.medi" unicode="&#x67f;" horiz-adv-x="500" arabic-form="medial" 
d="M500 185q34 -8 38 -24t0 -48q-15 -113 -38 -113q-110 -1 -222 124q-91 -111 -278 -124q-19 -1 -26 31l-18 85q-5 21 8.5 44t35.5 25q228 17 304 134q11 17 28 17t18.5 -19t4.5 -25q67 -92 145 -107zM56 1099q5 8 17 4q68 -23 124 -67l74 110q5 8 17 4q81 -28 145 -85
q9 -8 3 -18l-93 -147q65 -27 119 -75q9 -8 3 -18l-98 -155q-6 -9 -20 3q-13 11 -116 73l-77 -122q-6 -9 -20.5 3t-143.5 90q-8 5 -3 12l99 148q-33 22 -127 79q-8 5 -3 12zM227 797l73 109l1 1q-28 19 -100 62l-72 -115q53 -22 98 -57z" />
    <glyph glyph-name="uni0680.init" unicode="&#x680;" horiz-adv-x="390" arabic-form="initial" 
d="M122 433l58 127q18 39 38 1q81 -149 30 -360q-49 -201 -248 -201q-22 0 -43 104q-16 83 43 81q121 -5 182 65q3 4 1 14q-12 59 -55 119q-18 25 -6 50zM86 -231q5 8 17 4q68 -23 124 -67l74 110q5 8 17 4q81 -28 145 -85q9 -8 3 -18l-93 -147q65 -27 119 -75q9 -8 3 -18
l-98 -155q-6 -9 -20 3q-13 11 -116 73l-77 -122q-6 -9 -20.5 3t-143.5 90q-8 5 -3 12l99 148q-33 22 -127 79q-8 5 -3 12zM257 -533l73 109l1 1q-28 19 -100 62l-72 -115q53 -22 98 -57z" />
    <glyph glyph-name="uni0680.medi" unicode="&#x680;" horiz-adv-x="500" arabic-form="medial" 
d="M500 185q34 -8 38 -24t0 -48q-15 -113 -38 -113q-110 -1 -222 124q-91 -111 -278 -124q-19 -1 -26 31l-18 85q-5 21 8.5 44t35.5 25q228 17 304 134q11 17 28 17t18.5 -19t4.5 -25q67 -92 145 -107zM126 -131q5 8 17 4q68 -23 124 -67l74 110q5 8 17 4q81 -28 145 -85
q9 -8 3 -18l-93 -147q65 -27 119 -75q9 -8 3 -18l-98 -155q-6 -9 -20 3q-13 11 -116 73l-77 -122q-6 -9 -20.5 3t-143.5 90q-8 5 -3 12l99 148q-33 22 -127 79q-8 5 -3 12zM297 -433l73 109l1 1q-28 19 -100 62l-72 -115q53 -22 98 -57z" />
    <glyph glyph-name="uni0681.init" unicode="&#x681;" horiz-adv-x="1343" 
d="M12 447q16 63 83 128t144 66t357 -116q102 -43 259.5 -72.5t323.5 -18.5q45 3 27 -36l-57 -126q-11 -24 -44 -19q-233 39 -438 -21q-253 -84 -404 -159q-147 -73 -263 -73q-13 0 -21 20q-24 63 -10.5 113t31.5 52q294 21 543 148q-272 156 -498 85q-16 -5 -26.5 4.5
t-6.5 24.5zM761 984q-111 -22 -157 -36.5t-173 -70.5q-27 -11 -39 7q-25 37 80 102q-76 38 -85 86q-16 83 69 201q86 117 183 109q62 -5 55.5 -69.5t-36.5 -106.5t-51 -9t-61.5 37t-63.5 -23t4 -53q68 -64 199 -68q21 0 63 10t58.5 9.5t24 -13t2.5 -23.5q-39 -82 -72 -89z
" />
    <glyph glyph-name="uni0681.medi" unicode="&#x681;" horiz-adv-x="1250" 
d="M284 639q47 3 298 -98q129 -52 304 -78t333 -4q29 4 21 -30q-21 -90 -44 -145q-6 -15 -24 -13q-103 8 -178 10q-31 -60 49.5 -83.5t206.5 -12.5q83 7 39 -139q-13 -43 -39 -46q-156 -20 -256 14q-137 48 -86 226q8 28 10 37q-188 -11 -392 -72q-84 -25 -264 -115
t-262 -90q-28 0 -44 40t-6 88q11 51 50 57q176 31 282 78q134 62 194 79q20 6 18 16q0 8 -16 15q-154 66 -244.5 74t-167.5 -35q-18 -10 -33.5 -5.5t-8.5 29.5q53 190 260 203zM801 984q-111 -22 -157 -36.5t-173 -70.5q-27 -11 -39 7q-25 37 80 102q-76 38 -85 86
q-16 83 69 201q86 117 183 109q62 -5 55.5 -69.5t-36.5 -106.5t-51 -9t-61.5 37t-63.5 -23t4 -53q68 -64 199 -68q21 0 63 10t58.5 9.5t24 -13t2.5 -23.5q-39 -82 -72 -89z" />
    <glyph glyph-name="uni0682.init" unicode="&#x682;" horiz-adv-x="1343" 
d="M12 447q16 63 83 128t144 66t357 -116q102 -43 259.5 -72.5t323.5 -18.5q45 3 27 -36l-57 -126q-11 -24 -44 -19q-233 39 -438 -21q-253 -84 -404 -159q-147 -73 -263 -73q-13 0 -21 20q-24 63 -10.5 113t31.5 52q294 21 543 148q-272 156 -498 85q-16 -5 -26.5 4.5
t-6.5 24.5zM537 1260q5 8 17 4q81 -28 145 -85q9 -8 3 -18l-66 -104q56 -26 103 -68q9 -8 3 -18l-98 -155q-6 -9 -20.5 3t-143.5 90q-8 5 -3 12l74 110l-111 68q-8 5 -3 12z" />
    <glyph glyph-name="uni0682.medi" unicode="&#x682;" horiz-adv-x="1250" 
d="M284 639q47 3 298 -98q129 -52 304 -78t333 -4q29 4 21 -30q-21 -90 -44 -145q-6 -15 -24 -13q-103 8 -178 10q-31 -60 49.5 -83.5t206.5 -12.5q83 7 39 -139q-13 -43 -39 -46q-156 -20 -256 14q-137 48 -86 226q8 28 10 37q-188 -11 -392 -72q-84 -25 -264 -115
t-262 -90q-28 0 -44 40t-6 88q11 51 50 57q176 31 282 78q134 62 194 79q20 6 18 16q0 8 -16 15q-154 66 -244.5 74t-167.5 -35q-18 -10 -33.5 -5.5t-8.5 29.5q53 190 260 203zM577 1260q5 8 17 4q81 -28 145 -85q9 -8 3 -18l-66 -104q56 -26 103 -68q9 -8 3 -18l-98 -155
q-6 -9 -20.5 3t-143.5 90q-8 5 -3 12l74 110l-111 68q-8 5 -3 12z" />
    <glyph glyph-name="uni0683.init" unicode="&#x683;" horiz-adv-x="1343" arabic-form="initial" 
d="M12 447q16 63 83 128t144 66t357 -116q102 -43 259.5 -72.5t323.5 -18.5q45 3 27 -36l-57 -126q-11 -24 -44 -19q-233 39 -438 -21q-253 -84 -404 -159q-147 -73 -263 -73q-13 0 -21 20q-24 63 -10.5 113t31.5 52q294 21 543 148q-272 156 -498 85q-16 -5 -26.5 4.5
t-6.5 24.5zM683 -83q5 8 17 4q81 -28 145 -85q9 -8 3 -18l-98 -155q-6 -9 -20 3q-13 11 -116 73l-77 -122q-6 -9 -20.5 3t-143.5 90q-8 5 -3 12l100 149q5 8 17 4q67 -23 123 -67z" />
    <glyph glyph-name="uni0683.medi" unicode="&#x683;" horiz-adv-x="1250" arabic-form="medial" 
d="M284 639q47 3 298 -98q129 -52 304 -78t333 -4q29 4 21 -30q-21 -90 -44 -145q-6 -15 -24 -13q-103 8 -178 10q-31 -60 49.5 -83.5t206.5 -12.5q83 7 39 -139q-13 -43 -39 -46q-156 -20 -256 14q-137 48 -86 226q8 28 10 37q-188 -11 -392 -72q-84 -25 -264 -115
t-262 -90q-28 0 -44 40t-6 88q11 51 50 57q176 31 282 78q134 62 194 79q20 6 18 16q0 8 -16 15q-154 66 -244.5 74t-167.5 -35q-18 -10 -33.5 -5.5t-8.5 29.5q53 190 260 203zM673 -71q5 8 17 4q81 -28 145 -85q9 -8 3 -18l-98 -155q-6 -9 -20 3q-13 11 -116 73l-77 -122
q-6 -9 -20.5 3t-143.5 90q-8 5 -3 12l100 149q5 8 17 4q67 -23 123 -67z" />
    <glyph glyph-name="uni0684.init" unicode="&#x684;" horiz-adv-x="1343" arabic-form="initial" 
d="M12 447q16 63 83 128t144 66t357 -116q102 -43 259.5 -72.5t323.5 -18.5q45 3 27 -36l-57 -126q-11 -24 -44 -19q-233 39 -438 -21q-253 -84 -404 -159q-147 -73 -263 -73q-13 0 -21 20q-24 63 -10.5 113t31.5 52q294 21 543 148q-272 156 -498 85q-16 -5 -26.5 4.5
t-6.5 24.5zM577 -82q5 8 17 4q81 -28 145 -85q9 -8 3 -18l-66 -104q56 -26 103 -68q9 -8 3 -18l-98 -155q-6 -9 -20.5 3t-143.5 90q-8 5 -3 12l74 110l-111 68q-8 5 -3 12z" />
    <glyph glyph-name="uni0684.medi" unicode="&#x684;" horiz-adv-x="1250" arabic-form="medial" 
d="M284 639q47 3 298 -98q129 -52 304 -78t333 -4q29 4 21 -30q-21 -90 -44 -145q-6 -15 -24 -13q-103 8 -178 10q-31 -60 49.5 -83.5t206.5 -12.5q83 7 39 -139q-13 -43 -39 -46q-156 -20 -256 14q-137 48 -86 226q8 28 10 37q-188 -11 -392 -72q-84 -25 -264 -115
t-262 -90q-28 0 -44 40t-6 88q11 51 50 57q176 31 282 78q134 62 194 79q20 6 18 16q0 8 -16 15q-154 66 -244.5 74t-167.5 -35q-18 -10 -33.5 -5.5t-8.5 29.5q53 190 260 203zM567 -70q5 8 17 4q81 -28 145 -85q9 -8 3 -18l-66 -104q56 -26 103 -68q9 -8 3 -18l-98 -155
q-6 -9 -20.5 3t-143.5 90q-8 5 -3 12l74 110l-111 68q-8 5 -3 12z" />
    <glyph glyph-name="uni0685.init" unicode="&#x685;" horiz-adv-x="1343" 
d="M12 447q16 63 83 128t144 66t357 -116q102 -43 259.5 -72.5t323.5 -18.5q45 3 27 -36l-57 -126q-11 -24 -44 -19q-233 39 -438 -21q-253 -84 -404 -159q-147 -73 -263 -73q-13 0 -21 20q-24 63 -10.5 113t31.5 52q294 21 543 148q-272 156 -498 85q-16 -5 -26.5 4.5
t-6.5 24.5zM531 1329q5 8 17 4q81 -28 145 -85q9 -8 3 -18l-98 -155q-6 -9 -20.5 3t-143.5 90q-8 5 -3 12zM672 1116q5 8 17 4q81 -28 145 -85q9 -8 3 -18l-98 -155q-6 -9 -20 3q-12 10 -101 64l-72 -114q-6 -9 -20.5 3t-143.5 90q-8 5 -3 12l100 149q5 8 17 4
q59 -20 109 -56z" />
    <glyph glyph-name="uni0685.medi" unicode="&#x685;" horiz-adv-x="1250" 
d="M284 639q47 3 298 -98q129 -52 304 -78t333 -4q29 4 21 -30q-21 -90 -44 -145q-6 -15 -24 -13q-103 8 -178 10q-31 -60 49.5 -83.5t206.5 -12.5q83 7 39 -139q-13 -43 -39 -46q-156 -20 -256 14q-137 48 -86 226q8 28 10 37q-188 -11 -392 -72q-84 -25 -264 -115
t-262 -90q-28 0 -44 40t-6 88q11 51 50 57q176 31 282 78q134 62 194 79q20 6 18 16q0 8 -16 15q-154 66 -244.5 74t-167.5 -35q-18 -10 -33.5 -5.5t-8.5 29.5q53 190 260 203zM581 1329q5 8 17 4q81 -28 145 -85q9 -8 3 -18l-98 -155q-6 -9 -20.5 3t-143.5 90q-8 5 -3 12z
M722 1116q5 8 17 4q81 -28 145 -85q9 -8 3 -18l-98 -155q-6 -9 -20 3q-12 10 -101 64l-72 -114q-6 -9 -20.5 3t-143.5 90q-8 5 -3 12l100 149q5 8 17 4q59 -20 109 -56z" />
    <glyph glyph-name="afii57507.init" unicode="&#x686;" horiz-adv-x="1343" arabic-form="initial" 
d="M12 447q16 63 83 128t144 66t357 -116q102 -43 259.5 -72.5t323.5 -18.5q45 3 27 -36l-57 -126q-11 -24 -44 -19q-233 39 -438 -21q-253 -84 -404 -159q-147 -73 -263 -73q-13 0 -21 20q-24 63 -10.5 113t31.5 52q294 21 543 148q-272 156 -498 85q-16 -5 -26.5 4.5
t-6.5 24.5zM692 -593q-5 -8 -17 -4q-81 28 -145 85q-9 8 -3 18l98 155q6 9 20.5 -3t143.5 -90q8 -5 3 -12zM551 -380q-5 -8 -17 -4q-81 28 -145 85q-9 8 -3 18l98 155q6 9 20 -3q12 -10 101 -64l72 114q6 9 20.5 -3t143.5 -90q8 -5 3 -12l-100 -149q-5 -8 -17 -4
q-59 20 -109 56z" />
    <glyph glyph-name="afii57507.medi" unicode="&#x686;" horiz-adv-x="1250" arabic-form="medial" 
d="M284 639q47 3 298 -98q129 -52 304 -78t333 -4q29 4 21 -30q-21 -90 -44 -145q-6 -15 -24 -13q-103 8 -178 10q-31 -60 49.5 -83.5t206.5 -12.5q83 7 39 -139q-13 -43 -39 -46q-156 -20 -256 14q-137 48 -86 226q8 28 10 37q-188 -11 -392 -72q-84 -25 -264 -115
t-262 -90q-28 0 -44 40t-6 88q11 51 50 57q176 31 282 78q134 62 194 79q20 6 18 16q0 8 -16 15q-154 66 -244.5 74t-167.5 -35q-18 -10 -33.5 -5.5t-8.5 29.5q53 190 260 203zM682 -581q-5 -8 -17 -4q-81 28 -145 85q-9 8 -3 18l98 155q6 9 20.5 -3t143.5 -90q8 -5 3 -12z
M541 -368q-5 -8 -17 -4q-81 28 -145 85q-9 8 -3 18l98 155q6 9 20 -3q12 -10 101 -64l72 114q6 9 20.5 -3t143.5 -90q8 -5 3 -12l-100 -149q-5 -8 -17 -4q-59 20 -109 56z" />
    <glyph glyph-name="uni0687.init" unicode="&#x687;" horiz-adv-x="1343" arabic-form="initial" 
d="M12 447q16 63 83 128t144 66t357 -116q102 -43 259.5 -72.5t323.5 -18.5q45 3 27 -36l-57 -126q-11 -24 -44 -19q-233 39 -438 -21q-253 -84 -404 -159q-147 -73 -263 -73q-13 0 -21 20q-24 63 -10.5 113t31.5 52q294 21 543 148q-272 156 -498 85q-16 -5 -26.5 4.5
t-6.5 24.5zM465 -83q5 8 17 4q68 -23 124 -67l74 110q5 8 17 4q81 -28 145 -85q9 -8 3 -18l-93 -147q65 -27 119 -75q9 -8 3 -18l-98 -155q-6 -9 -20 3q-13 11 -116 73l-77 -122q-6 -9 -20.5 3t-143.5 90q-8 5 -3 12l99 148q-33 22 -127 79q-8 5 -3 12zM636 -385l73 109l1 1
q-28 19 -100 62l-72 -115q53 -22 98 -57z" />
    <glyph glyph-name="uni0687.medi" unicode="&#x687;" horiz-adv-x="1250" arabic-form="medial" 
d="M284 639q47 3 298 -98q129 -52 304 -78t333 -4q29 4 21 -30q-21 -90 -44 -145q-6 -15 -24 -13q-103 8 -178 10q-31 -60 49.5 -83.5t206.5 -12.5q83 7 39 -139q-13 -43 -39 -46q-156 -20 -256 14q-137 48 -86 226q8 28 10 37q-188 -11 -392 -72q-84 -25 -264 -115
t-262 -90q-28 0 -44 40t-6 88q11 51 50 57q176 31 282 78q134 62 194 79q20 6 18 16q0 8 -16 15q-154 66 -244.5 74t-167.5 -35q-18 -10 -33.5 -5.5t-8.5 29.5q53 190 260 203zM455 -71q5 8 17 4q68 -23 124 -67l74 110q5 8 17 4q81 -28 145 -85q9 -8 3 -18l-93 -147
q65 -27 119 -75q9 -8 3 -18l-98 -155q-6 -9 -20 3q-13 11 -116 73l-77 -122q-6 -9 -20.5 3t-143.5 90q-8 5 -3 12l99 148q-33 22 -127 79q-8 5 -3 12zM626 -373l73 109l1 1q-28 19 -100 62l-72 -115q53 -22 98 -57z" />
    <glyph glyph-name="uni069A.init" unicode="&#x69a;" horiz-adv-x="1164" 
d="M994 584q8 12 22 -12t18 -102.5t-14 -155.5q-42 -166 -107 -168q-150 -6 -255 103q-72 -169 -198 -202t-256 106q-108 -153 -204 -153q-21 -1 -36.5 89.5t36.5 95.5q198 20 307 207q5 11 15 10q10 0 16 -8q11 -15 -30 -90q34 -62 166 -64q158 -2 242 277q4 11 14 12.5
t17 -7t5 -20.5l-21 -87q43 -45 125.5 -69t95.5 5.5t-18 120.5q-4 10 60 112zM617 1020q5 8 17 4q81 -28 145 -85q9 -8 3 -18l-98 -155q-6 -9 -20.5 3t-143.5 90q-8 5 -3 12zM617 -80q5 8 17 4q81 -28 145 -85q9 -8 3 -18l-98 -155q-6 -9 -20.5 3t-143.5 90q-8 5 -3 12z" />
    <glyph glyph-name="uni069A.medi" unicode="&#x69a;" horiz-adv-x="1165" 
d="M263 331q12 26 28 31.5t28.5 -10.5t-2 -46.5t-33.5 -64.5q248 -102 347 133q11 26 27 31.5t27.5 -9t3.5 -39.5q-24 -69 -21 -93q5 -46 75.5 -62.5t106 20t65.5 165.5q4 17 25.5 17t28.5 -17q74 -189 196 -202q25 -3 35 -59q10 -50 -1.5 -88t-33.5 -38q-168 0 -245 203
q-5 14 -10 -1q-36 -124 -71 -169t-80 -47q-145 -6 -218 109q-79 -95 -196.5 -95t-175.5 80q-81 -80 -169 -80q-39 0 -48 138q-3 42 48 47q204 16 263 146zM562 897q5 8 17 4q81 -28 145 -85q9 -8 3 -18l-98 -155q-6 -9 -20.5 3t-143.5 90q-8 5 -3 12zM517 -280q5 8 17 4
q81 -28 145 -85q9 -8 3 -18l-98 -155q-6 -9 -20.5 3t-143.5 90q-8 5 -3 12z" />
    <glyph glyph-name="uni069B.init" unicode="&#x69b;" horiz-adv-x="1164" 
d="M994 584q8 12 22 -12t18 -102.5t-14 -155.5q-42 -166 -107 -168q-150 -6 -255 103q-72 -169 -198 -202t-256 106q-108 -153 -204 -153q-21 -1 -36.5 89.5t36.5 95.5q198 20 307 207q5 11 15 10q10 0 16 -8q11 -15 -30 -90q34 -62 166 -64q158 -2 242 277q4 11 14 12.5
t17 -7t5 -20.5l-21 -87q43 -45 125.5 -69t95.5 5.5t-18 120.5q-4 10 60 112zM743 -591q-5 -8 -17 -4q-81 28 -145 85q-9 8 -3 18l98 155q6 9 20.5 -3t143.5 -90q8 -5 3 -12zM602 -378q-5 -8 -17 -4q-81 28 -145 85q-9 8 -3 18l98 155q6 9 20 -3q12 -10 101 -64l72 114
q6 9 20.5 -3t143.5 -90q8 -5 3 -12l-100 -149q-5 -8 -17 -4q-59 20 -109 56z" />
    <glyph glyph-name="uni069B.medi" unicode="&#x69b;" horiz-adv-x="1165" 
d="M263 331q12 26 28 31.5t28.5 -10.5t-2 -46.5t-33.5 -64.5q248 -102 347 133q11 26 27 31.5t27.5 -9t3.5 -39.5q-24 -69 -21 -93q5 -46 75.5 -62.5t106 20t65.5 165.5q4 17 25.5 17t28.5 -17q74 -189 196 -202q25 -3 35 -59q10 -50 -1.5 -88t-33.5 -38q-168 0 -245 203
q-5 14 -10 -1q-36 -124 -71 -169t-80 -47q-145 -6 -218 109q-79 -95 -196.5 -95t-175.5 80q-81 -80 -169 -80q-39 0 -48 138q-3 42 48 47q204 16 263 146zM643 -691q-5 -8 -17 -4q-81 28 -145 85q-9 8 -3 18l98 155q6 9 20.5 -3t143.5 -90q8 -5 3 -12zM502 -478
q-5 -8 -17 -4q-81 28 -145 85q-9 8 -3 18l98 155q6 9 20 -3q12 -10 101 -64l72 114q6 9 20.5 -3t143.5 -90q8 -5 3 -12l-100 -149q-5 -8 -17 -4q-59 20 -109 56z" />
    <glyph glyph-name="uni069C.init" unicode="&#x69c;" horiz-adv-x="1164" 
d="M994 584q8 12 22 -12t18 -102.5t-14 -155.5q-42 -166 -107 -168q-150 -6 -255 103q-72 -169 -198 -202t-256 106q-108 -153 -204 -153q-21 -1 -36.5 89.5t36.5 95.5q198 20 307 207q5 11 15 10q10 0 16 -8q11 -15 -30 -90q34 -62 166 -64q158 -2 242 277q4 11 14 12.5
t17 -7t5 -20.5l-21 -87q43 -45 125.5 -69t95.5 5.5t-18 120.5q-4 10 60 112zM570 1279q5 8 17 4q81 -28 145 -85q9 -8 3 -18l-98 -155q-6 -9 -20.5 3t-143.5 90q-8 5 -3 12zM711 1066q5 8 17 4q81 -28 145 -85q9 -8 3 -18l-98 -155q-6 -9 -20 3q-12 10 -101 64l-72 -114
q-6 -9 -20.5 3t-143.5 90q-8 5 -3 12l100 149q5 8 17 4q59 -20 109 -56zM743 -591q-5 -8 -17 -4q-81 28 -145 85q-9 8 -3 18l98 155q6 9 20.5 -3t143.5 -90q8 -5 3 -12zM602 -378q-5 -8 -17 -4q-81 28 -145 85q-9 8 -3 18l98 155q6 9 20 -3q12 -10 101 -64l72 114
q6 9 20.5 -3t143.5 -90q8 -5 3 -12l-100 -149q-5 -8 -17 -4q-59 20 -109 56z" />
    <glyph glyph-name="uni069C.medi" unicode="&#x69c;" horiz-adv-x="1165" 
d="M263 331q12 26 28 31.5t28.5 -10.5t-2 -46.5t-33.5 -64.5q248 -102 347 133q11 26 27 31.5t27.5 -9t3.5 -39.5q-24 -69 -21 -93q5 -46 75.5 -62.5t106 20t65.5 165.5q4 17 25.5 17t28.5 -17q74 -189 196 -202q25 -3 35 -59q10 -50 -1.5 -88t-33.5 -38q-168 0 -245 203
q-5 14 -10 -1q-36 -124 -71 -169t-80 -47q-145 -6 -218 109q-79 -95 -196.5 -95t-175.5 80q-81 -80 -169 -80q-39 0 -48 138q-3 42 48 47q204 16 263 146zM515 1156q5 8 17 4q81 -28 145 -85q9 -8 3 -18l-98 -155q-6 -9 -20.5 3t-143.5 90q-8 5 -3 12zM656 943q5 8 17 4
q81 -28 145 -85q9 -8 3 -18l-98 -155q-6 -9 -20 3q-12 10 -101 64l-72 -114q-6 -9 -20.5 3t-143.5 90q-8 5 -3 12l100 149q5 8 17 4q59 -20 109 -56zM643 -691q-5 -8 -17 -4q-81 28 -145 85q-9 8 -3 18l98 155q6 9 20.5 -3t143.5 -90q8 -5 3 -12zM502 -478q-5 -8 -17 -4
q-81 28 -145 85q-9 8 -3 18l98 155q6 9 20 -3q12 -10 101 -64l72 114q6 9 20.5 -3t143.5 -90q8 -5 3 -12l-100 -149q-5 -8 -17 -4q-59 20 -109 56z" />
    <glyph glyph-name="uni069D.init" unicode="&#x69d;" horiz-adv-x="1430" 
d="M1072 584q58 0 150 -67t79 -136t-66 -164.5t-75 -111.5q-188 -137 -493 -137q-121 1 -226 30q-16 -20 -56 -167q-7 -30 -40 -18.5t-29 44.5q11 73 51 169q-107 46 -168 119q-22 27 -34.5 27t-24.5 -29q-59 -143 -140 -143q-12 0 -23 23q-32 74 -17 115t40 47
q106 26 178 157q15 28 44 27.5t48 -32.5q63 -101 217 -146q88 98 172 172q253 219 413 221zM1161 272q-117 106 -262 95q-57 -5 -171.5 -80t-155.5 -117q118 -18 331.5 6t256.5 76q13 9 1 20zM884 -281q5 8 17 4q81 -28 145 -85q9 -8 3 -18l-98 -155q-6 -9 -20 3
q-13 11 -116 73l-77 -122q-6 -9 -20.5 3t-143.5 90q-8 5 -3 12l100 149q5 8 17 4q67 -23 123 -67z" />
    <glyph glyph-name="uni069D.medi" unicode="&#x69d;" horiz-adv-x="1480" 
d="M1226 394q-154 154 -423 -24q-134 -89 -202 -190q155 -6 371 60q139 43 255 131q13 10 -1 23zM480 22q-32 -91 -38.5 -132.5t-27 -51.5t-37.5 3q-32 25 31 205q-64 19 -106 48.5t-83 82.5q-109 -167 -219 -177q-24 -2 -35 34q-24 75 3 127q14 27 32 24q94 -16 219 136
q15 18 29 12.5t35 -28.5q93 -103 224 -113q118 178 296.5 319.5t294.5 168.5q81 17 173.5 -39.5t110.5 -131.5q-36 -169 -117 -276q122 -44 214 -48q19 -1 23 -51q12 -131 -23 -134q-159 -16 -396 104q-299 -150 -603 -82zM884 -281q5 8 17 4q81 -28 145 -85q9 -8 3 -18
l-98 -155q-6 -9 -20 3q-13 11 -116 73l-77 -122q-6 -9 -20.5 3t-143.5 90q-8 5 -3 12l100 149q5 8 17 4q67 -23 123 -67z" />
    <glyph glyph-name="uni069E.init" unicode="&#x69e;" horiz-adv-x="1430" 
d="M1072 584q58 0 150 -67t79 -136t-66 -164.5t-75 -111.5q-188 -137 -493 -137q-121 1 -226 30q-16 -20 -56 -167q-7 -30 -40 -18.5t-29 44.5q11 73 51 169q-107 46 -168 119q-22 27 -34.5 27t-24.5 -29q-59 -143 -140 -143q-12 0 -23 23q-32 74 -17 115t40 47
q106 26 178 157q15 28 44 27.5t48 -32.5q63 -101 217 -146q88 98 172 172q253 219 413 221zM1161 272q-117 106 -262 95q-57 -5 -171.5 -80t-155.5 -117q118 -18 331.5 6t256.5 76q13 9 1 20zM554 1273q5 8 17 4q81 -28 145 -85q9 -8 3 -18l-98 -155q-6 -9 -20.5 3
t-143.5 90q-8 5 -3 12zM695 1060q5 8 17 4q81 -28 145 -85q9 -8 3 -18l-98 -155q-6 -9 -20 3q-12 10 -101 64l-72 -114q-6 -9 -20.5 3t-143.5 90q-8 5 -3 12l100 149q5 8 17 4q59 -20 109 -56z" />
    <glyph glyph-name="uni069E.medi" unicode="&#x69e;" horiz-adv-x="1480" 
d="M1226 394q-154 154 -423 -24q-134 -89 -202 -190q155 -6 371 60q139 43 255 131q13 10 -1 23zM480 22q-32 -91 -38.5 -132.5t-27 -51.5t-37.5 3q-32 25 31 205q-64 19 -106 48.5t-83 82.5q-109 -167 -219 -177q-24 -2 -35 34q-24 75 3 127q14 27 32 24q94 -16 219 136
q15 18 29 12.5t35 -28.5q93 -103 224 -113q118 178 296.5 319.5t294.5 168.5q81 17 173.5 -39.5t110.5 -131.5q-36 -169 -117 -276q122 -44 214 -48q19 -1 23 -51q12 -131 -23 -134q-159 -16 -396 104q-299 -150 -603 -82zM632 1366q5 8 17 4q81 -28 145 -85q9 -8 3 -18
l-98 -155q-6 -9 -20.5 3t-143.5 90q-8 5 -3 12zM773 1153q5 8 17 4q81 -28 145 -85q9 -8 3 -18l-98 -155q-6 -9 -20 3q-12 10 -101 64l-72 -114q-6 -9 -20.5 3t-143.5 90q-8 5 -3 12l100 149q5 8 17 4q59 -20 109 -56z" />
    <glyph glyph-name="uni069F.init" unicode="&#x69f;" horiz-adv-x="1163" 
d="M256 1451q8 11 17 8.5t14 -15.5q51 -118 88 -159q17 -18 -1 -41l-41 -52q-12 -14 -10 -44q27 -409 27 -452q0 -205 -26 -328q299 241 445 280q76 21 124 3q76 -29 134 -140q12 -23 2 -58q-36 -129 -105 -234q-48 -74 -202 -110q-375 -87 -722 -109q-21 -1 -35.5 45
t-6.5 92t42 48q87 4 135 11l115 111q4 16 8 77q4 62 3 158t-17 349q-18 297 -31.5 367t-9.5 81q25 67 53 112zM696 462q-22 0 -43 -6q-203 -66 -392 -252q392 33 630 118q12 4 6 14q-83 124 -201 126zM681 1379q5 8 17 4q81 -28 145 -85q9 -8 3 -18l-98 -155q-6 -9 -20.5 3
t-143.5 90q-8 5 -3 12zM822 1166q5 8 17 4q81 -28 145 -85q9 -8 3 -18l-98 -155q-6 -9 -20 3q-12 10 -101 64l-72 -114q-6 -9 -20.5 3t-143.5 90q-8 5 -3 12l100 149q5 8 17 4q59 -20 109 -56z" />
    <glyph glyph-name="uni069F.medi" unicode="&#x69f;" horiz-adv-x="1130" 
d="M684 49q-150 -49 -392.5 -52.5t-291.5 3.5q-15 2 -30 48q-42 132 30 137l88 1l113 122q4 393 -66 947q-10 81 -15 99q-8 30 49 140q6 12 17.5 10.5t16.5 -14.5q42 -110 86 -152q24 -23 0 -54l-35 -45q-11 -14 -7 -46q52 -419 43 -588q-4 -69 -38 -240q250 208 375 267
t190 39q98 -29 154 -144q11 -22 4 -60q-29 -157 -140 -256q157 -40 295 -26q29 3 38 -37q18 -81 -3.5 -114t-34.5 -34q-200 -16 -446 49zM752 424q-130 95 -358 -62q-116 -80 -210 -175q369 20 644 159q-22 39 -76 78zM620 1379q5 8 17 4q81 -28 145 -85q9 -8 3 -18
l-98 -155q-6 -9 -20.5 3t-143.5 90q-8 5 -3 12zM761 1166q5 8 17 4q81 -28 145 -85q9 -8 3 -18l-98 -155q-6 -9 -20 3q-12 10 -101 64l-72 -114q-6 -9 -20.5 3t-143.5 90q-8 5 -3 12l100 149q5 8 17 4q59 -20 109 -56z" />
    <glyph glyph-name="uni06A0.init" unicode="&#x6a0;" horiz-adv-x="978" 
d="M848 515l-42 -164q-5 -18 -35 -29q-121 -44 -300 -118l-471 -204q-45 0 -61.5 75.5t61.5 109.5l142 59q-94 81 -73 187q53 269 324 382q50 21 133.5 -22t144.5 -113q21 -24 6.5 -43t-41.5 -8q-120 49 -267 15t-183 -120q-14 -33 45 -85.5t115 -61.5q164 -25 380 113
q44 28 78 46q57 33 44 -19zM221 1479q5 8 17 4q81 -28 145 -85q9 -8 3 -18l-98 -155q-6 -9 -20.5 3t-143.5 90q-8 5 -3 12zM362 1266q5 8 17 4q81 -28 145 -85q9 -8 3 -18l-98 -155q-6 -9 -20 3q-12 10 -101 64l-72 -114q-6 -9 -20.5 3t-143.5 90q-8 5 -3 12l100 149
q5 8 17 4q59 -20 109 -56z" />
    <glyph glyph-name="uni06A0.medi" unicode="&#x6a0;" horiz-adv-x="750" 
d="M750 185q72 0 62 -73q-16 -109 -62 -112q-188 -13 -379 210q-254 -212 -371 -210q-49 1 -63 78q-18 104 63 107q127 5 242 84q-66 65 -186 82q-14 2 -10 22q10 64 106 146q176 142 395 9q104 -63 99 -123t-144 -147q73 -73 248 -73zM180 1379q5 8 17 4q81 -28 145 -85
q9 -8 3 -18l-98 -155q-6 -9 -20.5 3t-143.5 90q-8 5 -3 12zM321 1166q5 8 17 4q81 -28 145 -85q9 -8 3 -18l-98 -155q-6 -9 -20 3q-12 10 -101 64l-72 -114q-6 -9 -20.5 3t-143.5 90q-8 5 -3 12l100 149q5 8 17 4q59 -20 109 -56z" />
    <glyph glyph-name="uni06A1.init" unicode="&#x6a1;" horiz-adv-x="605" 
d="M236 838q27 0 66 -34q183 -161 173 -405q-5 -129 -63 -205q-150 -194 -412 -194q-26 -1 -38 46.5t-1.5 92t39.5 46.5q256 17 385 146q-5 61 -19 81t-23 18t-12 -9q-35 -89 -106 -105q-225 -48 -206 174q9 109 81 229t136 119zM168 616q-47 -2 -56 -79q-1 -11 3 -12
q40 -12 83 -6t55 25q-47 74 -85 72z" />
    <glyph glyph-name="uni06A1.medi" unicode="&#x6a1;" horiz-adv-x="775" 
d="M579 776q12 0 20 -4q49 -30 63 -112q27 -157 -35 -293q-30 -66 -74 -131q127 -47 222 -51q19 -1 23 -51q12 -131 -23 -134q-168 -17 -423 118q-74 -36 -194.5 -76.5t-157.5 -41.5q-25 -1 -36 44.5t-1 91t37 49.5q116 17 217 52q-15 91 24 195q63 170 231 296
q64 48 107 48zM487 560q-97 8 -178 -105q-23 -29 22 -90t105 -61t135 78q5 158 -84 178z" />
    <glyph glyph-name="uni06A2.init" unicode="&#x6a2;" horiz-adv-x="605" 
d="M236 838q27 0 66 -34q183 -161 173 -405q-5 -129 -63 -205q-150 -194 -412 -194q-26 -1 -38 46.5t-1.5 92t39.5 46.5q256 17 385 146q-5 61 -19 81t-23 18t-12 -9q-35 -89 -106 -105q-225 -48 -206 174q9 109 81 229t136 119zM168 616q-47 -2 -56 -79q-1 -11 3 -12
q40 -12 83 -6t55 25q-47 74 -85 72zM267 -180q5 8 17 4q81 -28 145 -85q9 -8 3 -18l-98 -155q-6 -9 -20.5 3t-143.5 90q-8 5 -3 12z" />
    <glyph glyph-name="uni06A2.medi" unicode="&#x6a2;" horiz-adv-x="775" 
d="M579 776q12 0 20 -4q49 -30 63 -112q27 -157 -35 -293q-30 -66 -74 -131q127 -47 222 -51q19 -1 23 -51q12 -131 -23 -134q-168 -17 -423 118q-74 -36 -194.5 -76.5t-157.5 -41.5q-25 -1 -36 44.5t-1 91t37 49.5q116 17 217 52q-15 91 24 195q63 170 231 296
q64 48 107 48zM487 560q-97 8 -178 -105q-23 -29 22 -90t105 -61t135 78q5 158 -84 178zM337 -180q5 8 17 4q81 -28 145 -85q9 -8 3 -18l-98 -155q-6 -9 -20.5 3t-143.5 90q-8 5 -3 12z" />
    <glyph glyph-name="uni06A3.init" unicode="&#x6a3;" horiz-adv-x="605" 
d="M236 838q27 0 66 -34q183 -161 173 -405q-5 -129 -63 -205q-150 -194 -412 -194q-26 -1 -38 46.5t-1.5 92t39.5 46.5q256 17 385 146q-5 61 -19 81t-23 18t-12 -9q-35 -89 -106 -105q-225 -48 -206 174q9 109 81 229t136 119zM168 616q-47 -2 -56 -79q-1 -11 3 -12
q40 -12 83 -6t55 25q-47 74 -85 72zM127 1270q5 8 17 4q81 -28 145 -85q9 -8 3 -18l-98 -155q-6 -9 -20.5 3t-143.5 90q-8 5 -3 12zM267 -180q5 8 17 4q81 -28 145 -85q9 -8 3 -18l-98 -155q-6 -9 -20.5 3t-143.5 90q-8 5 -3 12z" />
    <glyph glyph-name="uni06A3.medi" unicode="&#x6a3;" horiz-adv-x="775" 
d="M579 776q12 0 20 -4q49 -30 63 -112q27 -157 -35 -293q-30 -66 -74 -131q127 -47 222 -51q19 -1 23 -51q12 -131 -23 -134q-168 -17 -423 118q-74 -36 -194.5 -76.5t-157.5 -41.5q-25 -1 -36 44.5t-1 91t37 49.5q116 17 217 52q-15 91 24 195q63 170 231 296
q64 48 107 48zM487 560q-97 8 -178 -105q-23 -29 22 -90t105 -61t135 78q5 158 -84 178zM452 1320q5 8 17 4q81 -28 145 -85q9 -8 3 -18l-98 -155q-6 -9 -20.5 3t-143.5 90q-8 5 -3 12zM337 -180q5 8 17 4q81 -28 145 -85q9 -8 3 -18l-98 -155q-6 -9 -20.5 3t-143.5 90
q-8 5 -3 12z" />
    <glyph glyph-name="afii57505.init" unicode="&#x6a4;" horiz-adv-x="605" arabic-form="initial" 
d="M236 838q27 0 66 -34q183 -161 173 -405q-5 -129 -63 -205q-150 -194 -412 -194q-26 -1 -38 46.5t-1.5 92t39.5 46.5q256 17 385 146q-5 61 -19 81t-23 18t-12 -9q-35 -89 -106 -105q-225 -48 -206 174q9 109 81 229t136 119zM168 616q-47 -2 -56 -79q-1 -11 3 -12
q40 -12 83 -6t55 25q-47 74 -85 72zM151 1529q5 8 17 4q81 -28 145 -85q9 -8 3 -18l-98 -155q-6 -9 -20.5 3t-143.5 90q-8 5 -3 12zM292 1316q5 8 17 4q81 -28 145 -85q9 -8 3 -18l-98 -155q-6 -9 -20 3q-12 10 -101 64l-72 -114q-6 -9 -20.5 3t-143.5 90q-8 5 -3 12
l100 149q5 8 17 4q59 -20 109 -56z" />
    <glyph glyph-name="afii57505.medi" unicode="&#x6a4;" horiz-adv-x="775" arabic-form="medial" 
d="M579 776q12 0 20 -4q49 -30 63 -112q27 -157 -35 -293q-30 -66 -74 -131q127 -47 222 -51q19 -1 23 -51q12 -131 -23 -134q-168 -17 -423 118q-74 -36 -194.5 -76.5t-157.5 -41.5q-25 -1 -36 44.5t-1 91t37 49.5q116 17 217 52q-15 91 24 195q63 170 231 296
q64 48 107 48zM487 560q-97 8 -178 -105q-23 -29 22 -90t105 -61t135 78q5 158 -84 178zM331 1579q5 8 17 4q81 -28 145 -85q9 -8 3 -18l-98 -155q-6 -9 -20.5 3t-143.5 90q-8 5 -3 12zM472 1366q5 8 17 4q81 -28 145 -85q9 -8 3 -18l-98 -155q-6 -9 -20 3q-12 10 -101 64
l-72 -114q-6 -9 -20.5 3t-143.5 90q-8 5 -3 12l100 149q5 8 17 4q59 -20 109 -56z" />
    <glyph glyph-name="uni06A5.init" unicode="&#x6a5;" horiz-adv-x="605" 
d="M236 838q27 0 66 -34q183 -161 173 -405q-5 -129 -63 -205q-150 -194 -412 -194q-26 -1 -38 46.5t-1.5 92t39.5 46.5q256 17 385 146q-5 61 -19 81t-23 18t-12 -9q-35 -89 -106 -105q-225 -48 -206 174q9 109 81 229t136 119zM168 616q-47 -2 -56 -79q-1 -11 3 -12
q40 -12 83 -6t55 25q-47 74 -85 72zM393 -691q-5 -8 -17 -4q-81 28 -145 85q-9 8 -3 18l98 155q6 9 20.5 -3t143.5 -90q8 -5 3 -12zM252 -478q-5 -8 -17 -4q-81 28 -145 85q-9 8 -3 18l98 155q6 9 20 -3q12 -10 101 -64l72 114q6 9 20.5 -3t143.5 -90q8 -5 3 -12l-100 -149
q-5 -8 -17 -4q-59 20 -109 56z" />
    <glyph glyph-name="uni06A5.medi" unicode="&#x6a5;" horiz-adv-x="775" 
d="M579 776q12 0 20 -4q49 -30 63 -112q27 -157 -35 -293q-30 -66 -74 -131q127 -47 222 -51q19 -1 23 -51q12 -131 -23 -134q-168 -17 -423 118q-74 -36 -194.5 -76.5t-157.5 -41.5q-25 -1 -36 44.5t-1 91t37 49.5q116 17 217 52q-15 91 24 195q63 170 231 296
q64 48 107 48zM487 560q-97 8 -178 -105q-23 -29 22 -90t105 -61t135 78q5 158 -84 178zM463 -691q-5 -8 -17 -4q-81 28 -145 85q-9 8 -3 18l98 155q6 9 20.5 -3t143.5 -90q8 -5 3 -12zM322 -478q-5 -8 -17 -4q-81 28 -145 85q-9 8 -3 18l98 155q6 9 20 -3q12 -10 101 -64
l72 114q6 9 20.5 -3t143.5 -90q8 -5 3 -12l-100 -149q-5 -8 -17 -4q-59 20 -109 56z" />
    <glyph glyph-name="uni06A6.init" unicode="&#x6a6;" horiz-adv-x="605" arabic-form="initial" 
d="M236 838q27 0 66 -34q183 -161 173 -405q-5 -129 -63 -205q-150 -194 -412 -194q-26 -1 -38 46.5t-1.5 92t39.5 46.5q256 17 385 146q-5 61 -19 81t-23 18t-12 -9q-35 -89 -106 -105q-225 -48 -206 174q9 109 81 229t136 119zM168 616q-47 -2 -56 -79q-1 -11 3 -12
q40 -12 83 -6t55 25q-47 74 -85 72zM56 1509q5 8 17 4q68 -23 124 -67l74 110q5 8 17 4q81 -28 145 -85q9 -8 3 -18l-93 -147q65 -27 119 -75q9 -8 3 -18l-98 -155q-6 -9 -20 3q-13 11 -116 73l-77 -122q-6 -9 -20.5 3t-143.5 90q-8 5 -3 12l99 148q-33 22 -127 79
q-8 5 -3 12zM227 1207l73 109l1 1q-28 19 -100 62l-72 -115q53 -22 98 -57z" />
    <glyph glyph-name="uni06A6.medi" unicode="&#x6a6;" horiz-adv-x="775" arabic-form="medial" 
d="M579 776q12 0 20 -4q49 -30 63 -112q27 -157 -35 -293q-30 -66 -74 -131q127 -47 222 -51q19 -1 23 -51q12 -131 -23 -134q-168 -17 -423 118q-74 -36 -194.5 -76.5t-157.5 -41.5q-25 -1 -36 44.5t-1 91t37 49.5q116 17 217 52q-15 91 24 195q63 170 231 296
q64 48 107 48zM487 560q-97 8 -178 -105q-23 -29 22 -90t105 -61t135 78q5 158 -84 178zM236 1559q5 8 17 4q68 -23 124 -67l74 110q5 8 17 4q81 -28 145 -85q9 -8 3 -18l-93 -147q65 -27 119 -75q9 -8 3 -18l-98 -155q-6 -9 -20 3q-13 11 -116 73l-77 -122q-6 -9 -20.5 3
t-143.5 90q-8 5 -3 12l99 148q-33 22 -127 79q-8 5 -3 12zM407 1257l73 109l1 1q-28 19 -100 62l-72 -115q53 -22 98 -57z" />
    <glyph glyph-name="uni06A7.init" unicode="&#x6a7;" horiz-adv-x="605" 
d="M236 838q27 0 66 -34q183 -161 173 -405q-5 -129 -63 -205q-150 -194 -412 -194q-26 -1 -38 46.5t-1.5 92t39.5 46.5q256 17 385 146q-5 61 -19 81t-23 18t-12 -9q-35 -89 -106 -105q-225 -48 -206 174q9 109 81 229t136 119zM168 616q-47 -2 -56 -79q-1 -11 3 -12
q40 -12 83 -6t55 25q-47 74 -85 72zM127 1270q5 8 17 4q81 -28 145 -85q9 -8 3 -18l-98 -155q-6 -9 -20.5 3t-143.5 90q-8 5 -3 12z" />
    <glyph glyph-name="uni06A7.medi" unicode="&#x6a7;" horiz-adv-x="775" 
d="M579 776q12 0 20 -4q49 -30 63 -112q27 -157 -35 -293q-30 -66 -74 -131q127 -47 222 -51q19 -1 23 -51q12 -131 -23 -134q-168 -17 -423 118q-74 -36 -194.5 -76.5t-157.5 -41.5q-25 -1 -36 44.5t-1 91t37 49.5q116 17 217 52q-15 91 24 195q63 170 231 296
q64 48 107 48zM487 560q-97 8 -178 -105q-23 -29 22 -90t105 -61t135 78q5 158 -84 178zM452 1320q5 8 17 4q81 -28 145 -85q9 -8 3 -18l-98 -155q-6 -9 -20.5 3t-143.5 90q-8 5 -3 12z" />
    <glyph glyph-name="uni06A8.init" unicode="&#x6a8;" horiz-adv-x="605" 
d="M236 838q27 0 66 -34q183 -161 173 -405q-5 -129 -63 -205q-150 -194 -412 -194q-26 -1 -38 46.5t-1.5 92t39.5 46.5q256 17 385 146q-5 61 -19 81t-23 18t-12 -9q-35 -89 -106 -105q-225 -48 -206 174q9 109 81 229t136 119zM168 616q-47 -2 -56 -79q-1 -11 3 -12
q40 -12 83 -6t55 25q-47 74 -85 72zM151 1529q5 8 17 4q81 -28 145 -85q9 -8 3 -18l-98 -155q-6 -9 -20.5 3t-143.5 90q-8 5 -3 12zM292 1316q5 8 17 4q81 -28 145 -85q9 -8 3 -18l-98 -155q-6 -9 -20 3q-12 10 -101 64l-72 -114q-6 -9 -20.5 3t-143.5 90q-8 5 -3 12
l100 149q5 8 17 4q59 -20 109 -56z" />
    <glyph glyph-name="uni06A8.medi" unicode="&#x6a8;" horiz-adv-x="775" 
d="M579 776q12 0 20 -4q49 -30 63 -112q27 -157 -35 -293q-30 -66 -74 -131q127 -47 222 -51q19 -1 23 -51q12 -131 -23 -134q-168 -17 -423 118q-74 -36 -194.5 -76.5t-157.5 -41.5q-25 -1 -36 44.5t-1 91t37 49.5q116 17 217 52q-15 91 24 195q63 170 231 296
q64 48 107 48zM487 560q-97 8 -178 -105q-23 -29 22 -90t105 -61t135 78q5 158 -84 178zM331 1579q5 8 17 4q81 -28 145 -85q9 -8 3 -18l-98 -155q-6 -9 -20.5 3t-143.5 90q-8 5 -3 12zM472 1366q5 8 17 4q81 -28 145 -85q9 -8 3 -18l-98 -155q-6 -9 -20 3q-12 10 -101 64
l-72 -114q-6 -9 -20.5 3t-143.5 90q-8 5 -3 12l100 149q5 8 17 4q59 -20 109 -56z" />
    <glyph glyph-name="uni06A9.init" unicode="&#x6a9;" horiz-adv-x="1350" arabic-form="initial" 
d="M0 185q336 -48 526 142q6 6 4 14q-126 204 -428 356q-34 17 -37 127q-5 155 62 215q291 260 1063 501q16 5 24 5q12 0 12 -14q0 -3 -3 -14l-40 -144q-8 -30 -27 -36q-881 -315 -1022 -456q-8 -8 4 -14q431 -258 434 -515q1 -143 -60 -226q-62 -84 -152 -106
q-213 -53 -377 -23q-27 5 -33 53q-6 50 -6 72q0 71 56 63z" />
    <glyph glyph-name="uni06A9.medi" unicode="&#x6a9;" horiz-adv-x="1206" arabic-form="medial" 
d="M-11 186q5 0 44 -5t129.5 -5t196.5 40.5t175 120.5q-48 185 -423 361q-42 28 -52 135q-9 120 21 162q237 337 1034 665q17 7 28 7q19 0 18 -21q0 -9 -2 -18l-30 -130q-6 -25 -32 -38q-712 -350 -957 -586q418 -212 715 -482q214 -195 350 -208q49 -5 49 -62
q0 -33 -14.5 -78.5t-34.5 -44.5q-141 0 -428 284q-95 94 -196 169q6 -82 -4 -153q-46 -312 -479 -312q-71 0 -112 9.5t-41 125.5q0 64 45 64z" />
    <glyph glyph-name="uni06AA.init" unicode="&#x6aa;" horiz-adv-x="3346" 
d="M0 185q633 -52 1485 10q398 29 1582 153q21 2 8 25q-74 137 -194 149q-175 18 -593 -22t-922.5 -76.5t-927.5 -0.5q-226 18 -267 103q-14 30 1 62q54 115 119 182q337 342 945 517q34 8 29 -18l-30 -146q-5 -19 -27 -25q-275 -78 -518.5 -195t-375.5 -239q-13 -12 -3 -19
q107 -75 720 -72q419 2 1019 62.5t842 57.5q139 -2 227 -82.5t97 -204.5q4 -38 -65.5 -141t-120.5 -106l-840 -73q-692 -65 -774 -70q-937 -62 -1416 -17q-37 1 -52.5 47t0 93t52.5 46z" />
    <glyph glyph-name="uni06AA.medi" unicode="&#x6aa;" horiz-adv-x="3320" 
d="M0 185q640 -37 1478 44q780 75 1578 189q21 3 8 25q-77 135 -198 145q-176 14 -591 -35.5t-917 -97.5q-492 -47 -932 -22q-227 13 -269 97q-15 30 0 62q51 116 114 184q329 350 933 539q35 9 30 -18l-27 -146q-5 -19 -26 -26q-273 -84 -514 -206q-224 -114 -370 -248
q-13 -12 -3 -19q109 -73 722 -56q420 12 1018 86q610 75 839 77q139 1 229 -77.5t102 -202.5q6 -49 -86 -175q-27 -103 83 -113q44 -4 119 -6q39 -1 47 -47t-7 -92t-40 -46q-152 0 -206 13q-155 37 -90 215q-762 -102 -1611 -180q-847 -79 -1413 -48q-38 2 -56 49t1 92.5
t55 43.5z" />
    <glyph glyph-name="uni06AB.init" unicode="&#x6ab;" horiz-adv-x="1350" 
d="M0 185q336 -48 526 142q6 6 4 14q-126 204 -428 356q-34 17 -37 127q-5 155 62 215q291 260 1063 501q16 5 24 5q12 0 12 -14q0 -3 -3 -14l-40 -144q-8 -30 -27 -36q-881 -315 -1022 -456q-8 -8 4 -14q431 -258 434 -515q1 -143 -60 -226q-62 -84 -152 -106
q-213 -53 -377 -23q-27 5 -33 53q-6 50 -6 72q0 71 56 63zM763 1070q1 -52 -7 -84q-28 -103 -156 -98q-122 4 -109 143q14 139 80 189t138 -13q52 -44 54 -137zM722 1019q-28 122 -102 125q-46 2 -68.5 -30t-15.5 -77.5t73.5 -51.5t104.5 22q8 6 8 12z" />
    <glyph glyph-name="uni06AB.medi" unicode="&#x6ab;" horiz-adv-x="1206" 
d="M-11 186q5 0 44 -5t129.5 -5t196.5 40.5t175 120.5q-48 185 -423 361q-42 28 -52 135q-9 120 21 162q237 337 1034 665q17 7 28 7q19 0 18 -21q0 -9 -2 -18l-30 -130q-6 -25 -32 -38q-712 -350 -957 -586q418 -212 715 -482q214 -195 350 -208q49 -5 49 -62
q0 -33 -14.5 -78.5t-34.5 -44.5q-141 0 -428 284q-95 94 -196 169q6 -82 -4 -153q-46 -312 -479 -312q-71 0 -112 9.5t-41 125.5q0 64 45 64zM794 1177q1 -52 -7 -84q-28 -103 -156 -98q-122 4 -109 143q14 139 80 189t138 -13q52 -44 54 -137zM753 1126q-28 122 -102 125
q-46 2 -68.5 -30t-15.5 -77.5t73.5 -51.5t104.5 22q8 6 8 12z" />
    <glyph glyph-name="uni06AC.init" unicode="&#x6ac;" horiz-adv-x="1350" 
d="M0 185q336 -48 526 142q6 6 4 14q-126 204 -428 356q-34 17 -37 127q-5 155 62 215q291 260 1063 501q16 5 24 5q12 0 12 -14q0 -3 -3 -14l-40 -144q-8 -30 -27 -36q-881 -315 -1022 -456q-8 -8 4 -14q431 -258 434 -515q1 -143 -60 -226q-62 -84 -152 -106
q-213 -53 -377 -23q-27 5 -33 53q-6 50 -6 72q0 71 56 63zM249 1546q5 8 17 4q81 -28 145 -85q9 -8 3 -18l-98 -155q-6 -9 -20.5 3t-143.5 90q-8 5 -3 12z" />
    <glyph glyph-name="uni06AC.medi" unicode="&#x6ac;" horiz-adv-x="1206" 
d="M-11 186q5 0 44 -5t129.5 -5t196.5 40.5t175 120.5q-48 185 -423 361q-42 28 -52 135q-9 120 21 162q237 337 1034 665q17 7 28 7q19 0 18 -21q0 -9 -2 -18l-30 -130q-6 -25 -32 -38q-712 -350 -957 -586q418 -212 715 -482q214 -195 350 -208q49 -5 49 -62
q0 -33 -14.5 -78.5t-34.5 -44.5q-141 0 -428 284q-95 94 -196 169q6 -82 -4 -153q-46 -312 -479 -312q-71 0 -112 9.5t-41 125.5q0 64 45 64zM182 1570q5 8 17 4q81 -28 145 -85q9 -8 3 -18l-98 -155q-6 -9 -20.5 3t-143.5 90q-8 5 -3 12z" />
    <glyph glyph-name="uni06AD.init" unicode="&#x6ad;" horiz-adv-x="1350" arabic-form="initial" 
d="M0 185q336 -48 526 142q6 6 4 14q-126 204 -428 356q-34 17 -37 127q-5 155 62 215q291 260 1063 501q16 5 24 5q12 0 12 -14q0 -3 -3 -14l-40 -144q-8 -30 -27 -36q-881 -315 -1022 -456q-8 -8 4 -14q431 -258 434 -515q1 -143 -60 -226q-62 -84 -152 -106
q-213 -53 -377 -23q-27 5 -33 53q-6 50 -6 72q0 71 56 63zM203 1805q5 8 17 4q81 -28 145 -85q9 -8 3 -18l-98 -155q-6 -9 -20.5 3t-143.5 90q-8 5 -3 12zM344 1592q5 8 17 4q81 -28 145 -85q9 -8 3 -18l-98 -155q-6 -9 -20 3q-12 10 -101 64l-72 -114q-6 -9 -20.5 3
t-143.5 90q-8 5 -3 12l100 149q5 8 17 4q59 -20 109 -56z" />
    <glyph glyph-name="uni06AD.medi" unicode="&#x6ad;" horiz-adv-x="1206" arabic-form="medial" 
d="M-11 186q5 0 44 -5t129.5 -5t196.5 40.5t175 120.5q-48 185 -423 361q-42 28 -52 135q-9 120 21 162q237 337 1034 665q17 7 28 7q19 0 18 -21q0 -9 -2 -18l-30 -130q-6 -25 -32 -38q-712 -350 -957 -586q418 -212 715 -482q214 -195 350 -208q49 -5 49 -62
q0 -33 -14.5 -78.5t-34.5 -44.5q-141 0 -428 284q-95 94 -196 169q6 -82 -4 -153q-46 -312 -479 -312q-71 0 -112 9.5t-41 125.5q0 64 45 64zM136 1829q5 8 17 4q81 -28 145 -85q9 -8 3 -18l-98 -155q-6 -9 -20.5 3t-143.5 90q-8 5 -3 12zM277 1616q5 8 17 4q81 -28 145 -85
q9 -8 3 -18l-98 -155q-6 -9 -20 3q-12 10 -101 64l-72 -114q-6 -9 -20.5 3t-143.5 90q-8 5 -3 12l100 149q5 8 17 4q59 -20 109 -56z" />
    <glyph glyph-name="uni06AE.init" unicode="&#x6ae;" horiz-adv-x="1350" 
d="M0 185q336 -48 526 142q6 6 4 14q-126 204 -428 356q-34 17 -37 127q-5 155 62 215q291 260 1063 501q16 5 24 5q12 0 12 -14q0 -3 -3 -14l-40 -144q-8 -30 -27 -36q-881 -315 -1022 -456q-8 -8 4 -14q431 -258 434 -515q1 -143 -60 -226q-62 -84 -152 -106
q-213 -53 -377 -23q-27 5 -33 53q-6 50 -6 72q0 71 56 63zM353 -555q-5 -8 -17 -4q-81 28 -145 85q-9 8 -3 18l98 155q6 9 20.5 -3t143.5 -90q8 -5 3 -12zM212 -342q-5 -8 -17 -4q-81 28 -145 85q-9 8 -3 18l98 155q6 9 20 -3q12 -10 101 -64l72 114q6 9 20.5 -3t143.5 -90
q8 -5 3 -12l-100 -149q-5 -8 -17 -4q-59 20 -109 56z" />
    <glyph glyph-name="uni06AE.medi" unicode="&#x6ae;" horiz-adv-x="1206" 
d="M-11 186q5 0 44 -5t129.5 -5t196.5 40.5t175 120.5q-48 185 -423 361q-42 28 -52 135q-9 120 21 162q237 337 1034 665q17 7 28 7q19 0 18 -21q0 -9 -2 -18l-30 -130q-6 -25 -32 -38q-712 -350 -957 -586q418 -212 715 -482q214 -195 350 -208q49 -5 49 -62
q0 -33 -14.5 -78.5t-34.5 -44.5q-141 0 -428 284q-95 94 -196 169q6 -82 -4 -153q-46 -312 -479 -312q-71 0 -112 9.5t-41 125.5q0 64 45 64zM842 -591q-5 -8 -17 -4q-81 28 -145 85q-9 8 -3 18l98 155q6 9 20.5 -3t143.5 -90q8 -5 3 -12zM701 -378q-5 -8 -17 -4
q-81 28 -145 85q-9 8 -3 18l98 155q6 9 20 -3q12 -10 101 -64l72 114q6 9 20.5 -3t143.5 -90q8 -5 3 -12l-100 -149q-5 -8 -17 -4q-59 20 -109 56z" />
    <glyph glyph-name="afii57509.init" unicode="&#x6af;" horiz-adv-x="1350" arabic-form="initial" 
d="M0 185q336 -48 526 142q6 6 4 14q-126 204 -428 356q-34 17 -37 127q-5 155 62 215q291 260 1063 501q16 5 24 5q12 0 12 -14q0 -3 -3 -14l-40 -144q-8 -30 -27 -36q-881 -315 -1022 -456q-8 -8 4 -14q431 -258 434 -515q1 -143 -60 -226q-62 -84 -152 -106
q-213 -53 -377 -23q-27 5 -33 53q-6 50 -6 72q0 71 56 63zM219 1312q-30 -13 -7 23t52 63.5t47 35.5q344 164 908 329q12 4 11 -7t-43.5 -61.5t-75.5 -59.5q-368 -98 -892 -323z" />
    <glyph glyph-name="afii57509.medi" unicode="&#x6af;" horiz-adv-x="1206" arabic-form="medial" 
d="M-11 186q5 0 44 -5t129.5 -5t196.5 40.5t175 120.5q-48 185 -423 361q-42 28 -52 135q-9 120 21 162q237 337 1034 665q17 7 28 7q19 0 18 -21q0 -9 -2 -18l-30 -130q-6 -25 -32 -38q-712 -350 -957 -586q418 -212 715 -482q214 -195 350 -208q49 -5 49 -62
q0 -33 -14.5 -78.5t-34.5 -44.5q-141 0 -428 284q-95 94 -196 169q6 -82 -4 -153q-46 -312 -479 -312q-71 0 -112 9.5t-41 125.5q0 64 45 64zM222 1388q-28 -16 -9 22.5t45 69t43 40.5q324 200 867 424q12 5 12 -6t-37 -65.5t-69 -67.5q-355 -137 -852 -417z" />
    <glyph glyph-name="uni06B0.init" unicode="&#x6b0;" horiz-adv-x="1350" 
d="M0 185q336 -48 526 142q6 6 4 14q-126 204 -428 356q-34 17 -37 127q-5 155 62 215q291 260 1063 501q16 5 24 5q12 0 12 -14q0 -3 -3 -14l-40 -144q-8 -30 -27 -36q-881 -315 -1022 -456q-8 -8 4 -14q431 -258 434 -515q1 -143 -60 -226q-62 -84 -152 -106
q-213 -53 -377 -23q-27 5 -33 53q-6 50 -6 72q0 71 56 63zM219 1312q-30 -13 -7 23t52 63.5t47 35.5q344 164 908 329q12 4 11 -7t-43.5 -61.5t-75.5 -59.5q-368 -98 -892 -323zM763 1070q1 -52 -7 -84q-28 -103 -156 -98q-122 4 -109 143q14 139 80 189t138 -13
q52 -44 54 -137zM722 1019q-28 122 -102 125q-46 2 -68.5 -30t-15.5 -77.5t73.5 -51.5t104.5 22q8 6 8 12z" />
    <glyph glyph-name="uni06B0.medi" unicode="&#x6b0;" horiz-adv-x="1206" 
d="M-11 186q5 0 44 -5t129.5 -5t196.5 40.5t175 120.5q-48 185 -423 361q-42 28 -52 135q-9 120 21 162q237 337 1034 665q17 7 28 7q19 0 18 -21q0 -9 -2 -18l-30 -130q-6 -25 -32 -38q-712 -350 -957 -586q418 -212 715 -482q214 -195 350 -208q49 -5 49 -62
q0 -33 -14.5 -78.5t-34.5 -44.5q-141 0 -428 284q-95 94 -196 169q6 -82 -4 -153q-46 -312 -479 -312q-71 0 -112 9.5t-41 125.5q0 64 45 64zM794 1177q1 -52 -7 -84q-28 -103 -156 -98q-122 4 -109 143q14 139 80 189t138 -13q52 -44 54 -137zM753 1126q-28 122 -102 125
q-46 2 -68.5 -30t-15.5 -77.5t73.5 -51.5t104.5 22q8 6 8 12zM222 1388q-28 -16 -9 22.5t45 69t43 40.5q324 200 867 424q12 5 12 -6t-37 -65.5t-69 -67.5q-355 -137 -852 -417z" />
    <glyph glyph-name="uni06B1.init" unicode="&#x6b1;" horiz-adv-x="1350" arabic-form="initial" 
d="M0 185q336 -48 526 142q6 6 4 14q-126 204 -428 356q-34 17 -37 127q-5 155 62 215q291 260 1063 501q16 5 24 5q12 0 12 -14q0 -3 -3 -14l-40 -144q-8 -30 -27 -36q-881 -315 -1022 -456q-8 -8 4 -14q431 -258 434 -515q1 -143 -60 -226q-62 -84 -152 -106
q-213 -53 -377 -23q-27 5 -33 53q-6 50 -6 72q0 71 56 63zM166 1592q5 8 17 4q81 -28 145 -85q9 -8 3 -18l-98 -155q-6 -9 -20 3q-13 11 -116 73l-77 -122q-6 -9 -20.5 3t-143.5 90q-8 5 -3 12l100 149q5 8 17 4q67 -23 123 -67zM319 1352q-30 -13 -7 23t52 63.5t47 35.5
q344 164 908 329q12 4 11 -7t-43.5 -61.5t-75.5 -59.5q-368 -98 -892 -323z" />
    <glyph glyph-name="uni06B1.medi" unicode="&#x6b1;" horiz-adv-x="1206" arabic-form="medial" 
d="M-11 186q5 0 44 -5t129.5 -5t196.5 40.5t175 120.5q-48 185 -423 361q-42 28 -52 135q-9 120 21 162q237 337 1034 665q17 7 28 7q19 0 18 -21q0 -9 -2 -18l-30 -130q-6 -25 -32 -38q-712 -350 -957 -586q418 -212 715 -482q214 -195 350 -208q49 -5 49 -62
q0 -33 -14.5 -78.5t-34.5 -44.5q-141 0 -428 284q-95 94 -196 169q6 -82 -4 -153q-46 -312 -479 -312q-71 0 -112 9.5t-41 125.5q0 64 45 64zM166 1616q5 8 17 4q81 -28 145 -85q9 -8 3 -18l-98 -155q-6 -9 -20 3q-13 11 -116 73l-77 -122q-6 -9 -20.5 3t-143.5 90
q-8 5 -3 12l100 149q5 8 17 4q67 -23 123 -67zM332 1437q-28 -16 -9 22.5t45 69t43 40.5q324 200 867 424q12 5 12 -6t-37 -65.5t-69 -67.5q-355 -137 -852 -417z" />
    <glyph glyph-name="uni06B2.init" unicode="&#x6b2;" horiz-adv-x="1350" 
d="M0 185q336 -48 526 142q6 6 4 14q-126 204 -428 356q-34 17 -37 127q-5 155 62 215q291 260 1063 501q16 5 24 5q12 0 12 -14q0 -3 -3 -14l-40 -144q-8 -30 -27 -36q-881 -315 -1022 -456q-8 -8 4 -14q431 -258 434 -515q1 -143 -60 -226q-62 -84 -152 -106
q-213 -53 -377 -23q-27 5 -33 53q-6 50 -6 72q0 71 56 63zM219 1312q-30 -13 -7 23t52 63.5t47 35.5q344 164 908 329q12 4 11 -7t-43.5 -61.5t-75.5 -59.5q-368 -98 -892 -323zM344 -45q5 8 17 4q81 -28 145 -85q9 -8 3 -18l-98 -155q-6 -9 -20 3q-13 11 -116 73l-77 -122
q-6 -9 -20.5 3t-143.5 90q-8 5 -3 12l100 149q5 8 17 4q67 -23 123 -67z" />
    <glyph glyph-name="uni06B2.medi" unicode="&#x6b2;" horiz-adv-x="1206" 
d="M-11 186q5 0 44 -5t129.5 -5t196.5 40.5t175 120.5q-48 185 -423 361q-42 28 -52 135q-9 120 21 162q237 337 1034 665q17 7 28 7q19 0 18 -21q0 -9 -2 -18l-30 -130q-6 -25 -32 -38q-712 -350 -957 -586q418 -212 715 -482q214 -195 350 -208q49 -5 49 -62
q0 -33 -14.5 -78.5t-34.5 -44.5q-141 0 -428 284q-95 94 -196 169q6 -82 -4 -153q-46 -312 -479 -312q-71 0 -112 9.5t-41 125.5q0 64 45 64zM833 -81q5 8 17 4q81 -28 145 -85q9 -8 3 -18l-98 -155q-6 -9 -20 3q-13 11 -116 73l-77 -122q-6 -9 -20.5 3t-143.5 90
q-8 5 -3 12l100 149q5 8 17 4q67 -23 123 -67zM222 1388q-28 -16 -9 22.5t45 69t43 40.5q324 200 867 424q12 5 12 -6t-37 -65.5t-69 -67.5q-355 -137 -852 -417z" />
    <glyph glyph-name="uni06B3.init" unicode="&#x6b3;" horiz-adv-x="1350" arabic-form="initial" 
d="M0 185q336 -48 526 142q6 6 4 14q-126 204 -428 356q-34 17 -37 127q-5 155 62 215q291 260 1063 501q16 5 24 5q12 0 12 -14q0 -3 -3 -14l-40 -144q-8 -30 -27 -36q-881 -315 -1022 -456q-8 -8 4 -14q431 -258 434 -515q1 -143 -60 -226q-62 -84 -152 -106
q-213 -53 -377 -23q-27 5 -33 53q-6 50 -6 72q0 71 56 63zM219 1312q-30 -13 -7 23t52 63.5t47 35.5q344 164 908 329q12 4 11 -7t-43.5 -61.5t-75.5 -59.5q-368 -98 -892 -323zM237 -44q5 8 17 4q81 -28 145 -85q9 -8 3 -18l-66 -104q56 -26 103 -68q9 -8 3 -18l-98 -155
q-6 -9 -20.5 3t-143.5 90q-8 5 -3 12l74 110l-111 68q-8 5 -3 12z" />
    <glyph glyph-name="uni06B3.medi" unicode="&#x6b3;" horiz-adv-x="1206" arabic-form="medial" 
d="M-11 186q5 0 44 -5t129.5 -5t196.5 40.5t175 120.5q-48 185 -423 361q-42 28 -52 135q-9 120 21 162q237 337 1034 665q17 7 28 7q19 0 18 -21q0 -9 -2 -18l-30 -130q-6 -25 -32 -38q-712 -350 -957 -586q418 -212 715 -482q214 -195 350 -208q49 -5 49 -62
q0 -33 -14.5 -78.5t-34.5 -44.5q-141 0 -428 284q-95 94 -196 169q6 -82 -4 -153q-46 -312 -479 -312q-71 0 -112 9.5t-41 125.5q0 64 45 64zM726 -80q5 8 17 4q81 -28 145 -85q9 -8 3 -18l-66 -104q56 -26 103 -68q9 -8 3 -18l-98 -155q-6 -9 -20.5 3t-143.5 90q-8 5 -3 12
l74 110l-111 68q-8 5 -3 12zM222 1388q-28 -16 -9 22.5t45 69t43 40.5q324 200 867 424q12 5 12 -6t-37 -65.5t-69 -67.5q-355 -137 -852 -417z" />
    <glyph glyph-name="uni06B4.init" unicode="&#x6b4;" horiz-adv-x="1350" 
d="M0 185q336 -48 526 142q6 6 4 14q-126 204 -428 356q-34 17 -37 127q-5 155 62 215q291 260 1063 501q16 5 24 5q12 0 12 -14q0 -3 -3 -14l-40 -144q-8 -30 -27 -36q-881 -315 -1022 -456q-8 -8 4 -14q431 -258 434 -515q1 -143 -60 -226q-62 -84 -152 -106
q-213 -53 -377 -23q-27 5 -33 53q-6 50 -6 72q0 71 56 63zM319 1352q-30 -13 -7 23t52 63.5t47 35.5q344 164 908 329q12 4 11 -7t-43.5 -61.5t-75.5 -59.5q-368 -98 -892 -323zM22 1805q5 8 17 4q81 -28 145 -85q9 -8 3 -18l-98 -155q-6 -9 -20.5 3t-143.5 90q-8 5 -3 12z
M163 1592q5 8 17 4q81 -28 145 -85q9 -8 3 -18l-98 -155q-6 -9 -20 3q-12 10 -101 64l-72 -114q-6 -9 -20.5 3t-143.5 90q-8 5 -3 12l100 149q5 8 17 4q59 -20 109 -56z" />
    <glyph glyph-name="uni06B4.medi" unicode="&#x6b4;" horiz-adv-x="1206" 
d="M-11 186q5 0 44 -5t129.5 -5t196.5 40.5t175 120.5q-48 185 -423 361q-42 28 -52 135q-9 120 21 162q237 337 1034 665q17 7 28 7q19 0 18 -21q0 -9 -2 -18l-30 -130q-6 -25 -32 -38q-712 -350 -957 -586q418 -212 715 -482q214 -195 350 -208q49 -5 49 -62
q0 -33 -14.5 -78.5t-34.5 -44.5q-141 0 -428 284q-95 94 -196 169q6 -82 -4 -153q-46 -312 -479 -312q-71 0 -112 9.5t-41 125.5q0 64 45 64zM22 1829q5 8 17 4q81 -28 145 -85q9 -8 3 -18l-98 -155q-6 -9 -20.5 3t-143.5 90q-8 5 -3 12zM163 1616q5 8 17 4q81 -28 145 -85
q9 -8 3 -18l-98 -155q-6 -9 -20 3q-12 10 -101 64l-72 -114q-6 -9 -20.5 3t-143.5 90q-8 5 -3 12l100 149q5 8 17 4q59 -20 109 -56zM332 1437q-28 -16 -9 22.5t45 69t43 40.5q324 200 867 424q12 5 12 -6t-37 -65.5t-69 -67.5q-355 -137 -852 -417z" />
    <glyph glyph-name="uni06B5.init" unicode="&#x6b5;" horiz-adv-x="360" 
d="M32 1352q31 75 37 92.5t21 17.5t22 -21q31 -91 89 -149q20 -20 -3 -47l-45 -63q13 -115 26 -214q69 -506 47 -618q-64 -324 -226 -350q-36 -5 -31 135q1 47 31 50q111 13 155 92q-6 161 -50.5 503t-53.5 419l-20 115q-4 24 1 38zM222 1924l38 -56q7 -11 7 -19
q0 -10 -7 -19q-100 -166 -135 -287l-19 -14q-4 -3 -9 -3q-8 0 -16 10q-117 144 -183 308q-6 14 -6 24q0 18 19 24q25 8 38 -26q28 -75 106 -206q42 152 130 259q12 14 22 14q9 0 15 -9z" />
    <glyph glyph-name="uni06B5.medi" unicode="&#x6b5;" horiz-adv-x="405" 
d="M405 185q27 -6 26 -60q-3 -127 -26 -125q-116 14 -203 236q-18 45 -25 -7q-35 -227 -177 -229q-15 0 -23 23q-50 141 23 162q71 21 108 73q32 44 30 115l-36 927q-1 26 9 36l59 69q21 25 23 -11q9 -99 15 -270q21 -624 40 -707q48 -208 157 -232zM272 1887l38 -56
q7 -11 7 -19q0 -10 -7 -19q-100 -166 -135 -287l-19 -14q-4 -3 -9 -3q-8 0 -16 10q-117 144 -183 308q-6 14 -6 24q0 18 19 24q25 8 38 -26q28 -75 106 -206q42 152 130 259q12 14 22 14q9 0 15 -9z" />
    <glyph glyph-name="uni06B6.init" unicode="&#x6b6;" horiz-adv-x="360" 
d="M32 1352q31 75 37 92.5t21 17.5t22 -21q31 -91 89 -149q20 -20 -3 -47l-45 -63q13 -115 26 -214q69 -506 47 -618q-64 -324 -226 -350q-36 -5 -31 135q1 47 31 50q111 13 155 92q-6 161 -50.5 503t-53.5 419l-20 115q-4 24 1 38zM47 1787q5 8 17 4q81 -28 145 -85
q9 -8 3 -18l-98 -155q-6 -9 -20.5 3t-143.5 90q-8 5 -3 12z" />
    <glyph glyph-name="uni06B6.medi" unicode="&#x6b6;" horiz-adv-x="405" 
d="M405 185q27 -6 26 -60q-3 -127 -26 -125q-116 14 -203 236q-18 45 -25 -7q-35 -227 -177 -229q-15 0 -23 23q-50 141 23 162q71 21 108 73q32 44 30 115l-36 927q-1 26 9 36l59 69q21 25 23 -11q9 -99 15 -270q21 -624 40 -707q48 -208 157 -232zM97 1750q5 8 17 4
q81 -28 145 -85q9 -8 3 -18l-98 -155q-6 -9 -20.5 3t-143.5 90q-8 5 -3 12z" />
    <glyph glyph-name="uni06B7.init" unicode="&#x6b7;" horiz-adv-x="360" 
d="M32 1352q31 75 37 92.5t21 17.5t22 -21q31 -91 89 -149q20 -20 -3 -47l-45 -63q13 -115 26 -214q69 -506 47 -618q-64 -324 -226 -350q-36 -5 -31 135q1 47 31 50q111 13 155 92q-6 161 -50.5 503t-53.5 419l-20 115q-4 24 1 38zM-9 2046q5 8 17 4q81 -28 145 -85
q9 -8 3 -18l-98 -155q-6 -9 -20.5 3t-143.5 90q-8 5 -3 12zM132 1833q5 8 17 4q81 -28 145 -85q9 -8 3 -18l-98 -155q-6 -9 -20 3q-12 10 -101 64l-72 -114q-6 -9 -20.5 3t-143.5 90q-8 5 -3 12l100 149q5 8 17 4q59 -20 109 -56z" />
    <glyph glyph-name="uni06B7.medi" unicode="&#x6b7;" horiz-adv-x="405" 
d="M405 185q27 -6 26 -60q-3 -127 -26 -125q-116 14 -203 236q-18 45 -25 -7q-35 -227 -177 -229q-15 0 -23 23q-50 141 23 162q71 21 108 73q32 44 30 115l-36 927q-1 26 9 36l59 69q21 25 23 -11q9 -99 15 -270q21 -624 40 -707q48 -208 157 -232zM41 2009q5 8 17 4
q81 -28 145 -85q9 -8 3 -18l-98 -155q-6 -9 -20.5 3t-143.5 90q-8 5 -3 12zM182 1796q5 8 17 4q81 -28 145 -85q9 -8 3 -18l-98 -155q-6 -9 -20 3q-12 10 -101 64l-72 -114q-6 -9 -20.5 3t-143.5 90q-8 5 -3 12l100 149q5 8 17 4q59 -20 109 -56z" />
    <glyph glyph-name="uni06B8.init" unicode="&#x6b8;" horiz-adv-x="360" 
d="M32 1352q31 75 37 92.5t21 17.5t22 -21q31 -91 89 -149q20 -20 -3 -47l-45 -63q13 -115 26 -214q69 -506 47 -618q-64 -324 -226 -350q-36 -5 -31 135q1 47 31 50q111 13 155 92q-6 161 -50.5 503t-53.5 419l-20 115q-4 24 1 38zM273 -491q-5 -8 -17 -4q-81 28 -145 85
q-9 8 -3 18l98 155q6 9 20.5 -3t143.5 -90q8 -5 3 -12zM132 -278q-5 -8 -17 -4q-81 28 -145 85q-9 8 -3 18l98 155q6 9 20 -3q12 -10 101 -64l72 114q6 9 20.5 -3t143.5 -90q8 -5 3 -12l-100 -149q-5 -8 -17 -4q-59 20 -109 56z" />
    <glyph glyph-name="uni06B8.medi" unicode="&#x6b8;" horiz-adv-x="405" 
d="M405 185q27 -6 26 -60q-3 -127 -26 -125q-116 14 -203 236q-18 45 -25 -7q-35 -227 -177 -229q-15 0 -23 23q-50 141 23 162q71 21 108 73q32 44 30 115l-36 927q-1 26 9 36l59 69q21 25 23 -11q9 -99 15 -270q21 -624 40 -707q48 -208 157 -232zM293 -541q-5 -8 -17 -4
q-81 28 -145 85q-9 8 -3 18l98 155q6 9 20.5 -3t143.5 -90q8 -5 3 -12zM152 -328q-5 -8 -17 -4q-81 28 -145 85q-9 8 -3 18l98 155q6 9 20 -3q12 -10 101 -64l72 114q6 9 20.5 -3t143.5 -90q8 -5 3 -12l-100 -149q-5 -8 -17 -4q-59 20 -109 56z" />
    <glyph glyph-name="uni06B9.init" unicode="&#x6b9;" horiz-adv-x="390" 
d="M122 433l58 127q18 39 38 1q81 -149 30 -360q-49 -201 -248 -201q-22 0 -43 104q-16 83 43 81q121 -5 182 65q3 4 1 14q-12 59 -55 119q-18 25 -6 50zM137 -230q5 8 17 4q81 -28 145 -85q9 -8 3 -18l-98 -155q-6 -9 -20.5 3t-143.5 90q-8 5 -3 12zM142 1020q5 8 17 4
q81 -28 145 -85q9 -8 3 -18l-98 -155q-6 -9 -20.5 3t-143.5 90q-8 5 -3 12z" />
    <glyph glyph-name="uni06B9.medi" unicode="&#x6b9;" horiz-adv-x="500" 
d="M500 185q34 -8 38 -24t0 -48q-15 -113 -38 -113q-110 -1 -222 124q-91 -111 -278 -124q-19 -1 -26 31l-18 85q-5 21 8.5 44t35.5 25q228 17 304 134q11 17 28 17t18.5 -19t4.5 -25q67 -92 145 -107zM217 990q5 8 17 4q81 -28 145 -85q9 -8 3 -18l-98 -155q-6 -9 -20.5 3
t-143.5 90q-8 5 -3 12zM227 -230q5 8 17 4q81 -28 145 -85q9 -8 3 -18l-98 -155q-6 -9 -20.5 3t-143.5 90q-8 5 -3 12z" />
    <glyph glyph-name="afii57514.init" unicode="&#x6ba;" horiz-adv-x="390" 
d="M122 433l58 127q18 39 38 1q81 -149 30 -360q-49 -201 -248 -201q-22 0 -43 104q-16 83 43 81q121 -5 182 65q3 4 1 14q-12 59 -55 119q-18 25 -6 50zM142 1020q5 8 17 4q81 -28 145 -85q9 -8 3 -18l-98 -155q-6 -9 -20.5 3t-143.5 90q-8 5 -3 12z" />
    <glyph glyph-name="afii57514.medi" unicode="&#x6ba;" horiz-adv-x="500" 
d="M500 185q34 -8 38 -24t0 -48q-15 -113 -38 -113q-110 -1 -222 124q-91 -111 -278 -124q-19 -1 -26 31l-18 85q-5 21 8.5 44t35.5 25q228 17 304 134q11 17 28 17t18.5 -19t4.5 -25q67 -92 145 -107zM217 990q5 8 17 4q81 -28 145 -85q9 -8 3 -18l-98 -155q-6 -9 -20.5 3
t-143.5 90q-8 5 -3 12z" />
    <glyph glyph-name="uni06BB.init" unicode="&#x6bb;" horiz-adv-x="390" arabic-form="initial" 
d="M122 433l58 127q18 39 38 1q81 -149 30 -360q-49 -201 -248 -201q-22 0 -43 104q-16 83 43 81q121 -5 182 65q3 4 1 14q-12 59 -55 119q-18 25 -6 50zM108 1316q16 8 20 -24q41 -294 21 -413q63 68 124 113t107 27q46 -17 68.5 -72t-53.5 -151q-16 -20 -130.5 -55
t-237.5 -41q-53 9 -87.5 39t-41.5 45.5t4 13.5q76 -8 156 -1l54 53q7 145 -34 401q-1 5 10 33t20 32zM272 926q-38 -14 -156 -124q138 19 270 84q-34 69 -114 40z" />
    <glyph glyph-name="uni06BB.medi" unicode="&#x6bb;" horiz-adv-x="500" arabic-form="medial" 
d="M500 185q34 -8 38 -24t0 -48q-15 -113 -38 -113q-110 -1 -222 124q-91 -111 -278 -124q-19 -1 -26 31l-18 85q-5 21 8.5 44t35.5 25q228 17 304 134q11 17 28 17t18.5 -19t4.5 -25q67 -92 145 -107zM183 1286q16 8 20 -24q41 -294 21 -413q63 68 124 113t107 27
q46 -17 68.5 -72t-53.5 -151q-16 -20 -130.5 -55t-237.5 -41q-53 9 -87.5 39t-41.5 45.5t4 13.5q76 -8 156 -1l54 53q7 145 -34 401q-1 5 10 33t20 32zM347 896q-38 -14 -156 -124q138 19 270 84q-34 69 -114 40z" />
    <glyph glyph-name="uni06BC.init" unicode="&#x6bc;" horiz-adv-x="390" 
d="M122 433l58 127q18 39 38 1q81 -149 30 -360q-49 -201 -248 -201q-22 0 -43 104q-16 83 43 81q121 -5 182 65q3 4 1 14q-12 59 -55 119q-18 25 -6 50zM142 1020q5 8 17 4q81 -28 145 -85q9 -8 3 -18l-98 -155q-6 -9 -20.5 3t-143.5 90q-8 5 -3 12zM363 -16q1 -52 -7 -84
q-28 -103 -156 -98q-122 4 -109 143q14 139 80 189t138 -13q52 -44 54 -137zM322 -67q-28 122 -102 125q-46 2 -68.5 -30t-15.5 -77.5t73.5 -51.5t104.5 22q8 6 8 12z" />
    <glyph glyph-name="uni06BC.medi" unicode="&#x6bc;" horiz-adv-x="500" 
d="M500 185q34 -8 38 -24t0 -48q-15 -113 -38 -113q-110 -1 -222 124q-91 -111 -278 -124q-19 -1 -26 31l-18 85q-5 21 8.5 44t35.5 25q228 17 304 134q11 17 28 17t18.5 -19t4.5 -25q67 -92 145 -107zM217 990q5 8 17 4q81 -28 145 -85q9 -8 3 -18l-98 -155q-6 -9 -20.5 3
t-143.5 90q-8 5 -3 12zM393 -46q1 -52 -7 -84q-28 -103 -156 -98q-122 4 -109 143q14 139 80 189t138 -13q52 -44 54 -137zM352 -97q-28 122 -102 125q-46 2 -68.5 -30t-15.5 -77.5t73.5 -51.5t104.5 22q8 6 8 12z" />
    <glyph glyph-name="uni06BD.init" unicode="&#x6bd;" horiz-adv-x="390" 
d="M122 433l58 127q18 39 38 1q81 -149 30 -360q-49 -201 -248 -201q-22 0 -43 104q-16 83 43 81q121 -5 182 65q3 4 1 14q-12 59 -55 119q-18 25 -6 50zM153 -231q5 8 17 4q81 -28 145 -85q9 -8 3 -18l-98 -155q-6 -9 -20.5 3t-143.5 90q-8 5 -3 12zM294 -444q5 8 17 4
q81 -28 145 -85q9 -8 3 -18l-98 -155q-6 -9 -20 3q-12 10 -101 64l-72 -114q-6 -9 -20.5 3t-143.5 90q-8 5 -3 12l100 149q5 8 17 4q59 -20 109 -56z" />
    <glyph glyph-name="uni06BD.medi" unicode="&#x6bd;" horiz-adv-x="500" 
d="M500 185q34 -8 38 -24t0 -48q-15 -113 -38 -113q-110 -1 -222 124q-91 -111 -278 -124q-19 -1 -26 31l-18 85q-5 21 8.5 44t35.5 25q228 17 304 134q11 17 28 17t18.5 -19t4.5 -25q67 -92 145 -107zM193 -131q5 8 17 4q81 -28 145 -85q9 -8 3 -18l-98 -155q-6 -9 -20.5 3
t-143.5 90q-8 5 -3 12zM334 -344q5 8 17 4q81 -28 145 -85q9 -8 3 -18l-98 -155q-6 -9 -20 3q-12 10 -101 64l-72 -114q-6 -9 -20.5 3t-143.5 90q-8 5 -3 12l100 149q5 8 17 4q59 -20 109 -56z" />
    <glyph glyph-name="uni06BE.init" unicode="&#x6be;" horiz-adv-x="926" arabic-form="initial" 
d="M112 212q-12 75 10 162.5t116 192.5t166 142t105 -96q6 -23 29 -34q192 -93 259 -165q20 -22 26 -77t-14 -127.5t-63 -114.5q-44 -44 -219 -36.5t-298 45.5q-106 -70 -229 -104q-23 -6 -35 35q-43 143 32 149.5t115 27.5zM339 533q-31 0 -88 -50t-93 -121q-3 -7 -2 -14
q14 -60 130 -85q97 41 120.5 76t0.5 114.5t-68 79.5zM489 433q-16 -107 -89 -192q114 -21 291 -18q26 1 34.5 18.5t-1.5 29.5q-61 75 -235 162z" />
    <glyph glyph-name="uni06BE.medi" unicode="&#x6be;" horiz-adv-x="800" arabic-form="medial" 
d="M581 717q44 -19 48 -85q21 -308 -195 -497q110 -10 366 50q17 4 28 -22q25 -58 -1 -129q-11 -30 -27 -34q-105 -23 -194 -18q68 -72 55 -241q-6 -73 -57 -142t-122 -70q-221 -3 -266 416l-59 8l1 98q-101 -51 -158 -51q-40 0 -57 138q-5 44 57 47q114 5 240 49
q82 221 240 405q76 89 101 78zM483 479q-17 0 -28 -6q-125 -71 -164 -226q195 77 255 164q12 16 3 32q-21 37 -66 36zM299 -65q36 -163 132 -205q78 -33 158 15q23 14 7 39q-76 110 -297 151z" />
    <glyph glyph-name="uni06BF.init" unicode="&#x6bf;" horiz-adv-x="1343" 
d="M12 447q16 63 83 128t144 66t357 -116q102 -43 259.5 -72.5t323.5 -18.5q45 3 27 -36l-57 -126q-11 -24 -44 -19q-233 39 -438 -21q-253 -84 -404 -159q-147 -73 -263 -73q-13 0 -21 20q-24 63 -10.5 113t31.5 52q294 21 543 148q-272 156 -498 85q-16 -5 -26.5 4.5
t-6.5 24.5zM577 1070q5 8 17 4q81 -28 145 -85q9 -8 3 -18l-98 -155q-6 -9 -20.5 3t-143.5 90q-8 5 -3 12zM692 -593q-5 -8 -17 -4q-81 28 -145 85q-9 8 -3 18l98 155q6 9 20.5 -3t143.5 -90q8 -5 3 -12zM551 -380q-5 -8 -17 -4q-81 28 -145 85q-9 8 -3 18l98 155q6 9 20 -3
q12 -10 101 -64l72 114q6 9 20.5 -3t143.5 -90q8 -5 3 -12l-100 -149q-5 -8 -17 -4q-59 20 -109 56z" />
    <glyph glyph-name="uni06BF.medi" unicode="&#x6bf;" horiz-adv-x="1250" 
d="M284 639q47 3 298 -98q129 -52 304 -78t333 -4q29 4 21 -30q-21 -90 -44 -145q-6 -15 -24 -13q-103 8 -178 10q-31 -60 49.5 -83.5t206.5 -12.5q83 7 39 -139q-13 -43 -39 -46q-156 -20 -256 14q-137 48 -86 226q8 28 10 37q-188 -11 -392 -72q-84 -25 -264 -115
t-262 -90q-28 0 -44 40t-6 88q11 51 50 57q176 31 282 78q134 62 194 79q20 6 18 16q0 8 -16 15q-154 66 -244.5 74t-167.5 -35q-18 -10 -33.5 -5.5t-8.5 29.5q53 190 260 203zM617 1070q5 8 17 4q81 -28 145 -85q9 -8 3 -18l-98 -155q-6 -9 -20.5 3t-143.5 90q-8 5 -3 12z
M682 -581q-5 -8 -17 -4q-81 28 -145 85q-9 8 -3 18l98 155q6 9 20.5 -3t143.5 -90q8 -5 3 -12zM541 -368q-5 -8 -17 -4q-81 28 -145 85q-9 8 -3 18l98 155q6 9 20 -3q12 -10 101 -64l72 114q6 9 20.5 -3t143.5 -90q8 -5 3 -12l-100 -149q-5 -8 -17 -4q-59 20 -109 56z" />
    <glyph glyph-name="uni06C1.init" unicode="&#x6c1;" horiz-adv-x="926" arabic-form="initial" 
d="M176 659q48 185 135.5 181t275.5 -183t206 -287q23 -134 -64 -238q-44 -52 -107 -46q-162 17 -350 89q-196 -175 -272 -175q-19 -1 -33 33q-60 138 33 151q76 10 142 58q-57 47 -32 125q43 132 151 227q-21 33 -67 39q-24 3 -18 26zM325 337q68 34 68 55q-8 107 -64 118
q-83 17 -153 -71q-20 -25 15 -48t134 -54zM479 485q-8 6 -7 -3q9 -66 -71 -170q239 -75 281 -50q13 7 10 17q-39 96 -213 206z" />
    <glyph glyph-name="uni06C1.medi" unicode="&#x6c1;" horiz-adv-x="800" arabic-form="medial" 
d="M581 717q44 -19 48 -85q21 -308 -195 -497q110 -10 366 50q17 4 28 -22q25 -58 -1 -129q-11 -30 -27 -34q-105 -23 -194 -18q68 -72 55 -241q-6 -73 -57 -142t-122 -70q-221 -3 -266 416l-59 8l1 98q-101 -51 -158 -51q-40 0 -57 138q-5 44 57 47q114 5 240 49
q82 221 240 405q76 89 101 78zM483 479q-17 0 -28 -6q-125 -71 -164 -226q195 77 255 164q12 16 3 32q-21 37 -66 36zM299 -65q36 -163 132 -205q78 -33 158 15q23 14 7 39q-76 110 -297 151z" />
    <glyph glyph-name="uni06CC.init" unicode="&#x6cc;" horiz-adv-x="390" arabic-form="initial" 
d="M122 433l58 127q18 39 38 1q81 -149 30 -360q-49 -201 -248 -201q-22 0 -43 104q-16 83 43 81q121 -5 182 65q3 4 1 14q-12 59 -55 119q-18 25 -6 50zM304 -231q5 8 17 4q81 -28 145 -85q9 -8 3 -18l-98 -155q-6 -9 -20 3q-13 11 -116 73l-77 -122q-6 -9 -20.5 3
t-143.5 90q-8 5 -3 12l100 149q5 8 17 4q67 -23 123 -67z" />
    <glyph glyph-name="uni06CC.medi" unicode="&#x6cc;" horiz-adv-x="500" arabic-form="medial" 
d="M500 185q34 -8 38 -24t0 -48q-15 -113 -38 -113q-110 -1 -222 124q-91 -111 -278 -124q-19 -1 -26 31l-18 85q-5 21 8.5 44t35.5 25q228 17 304 134q11 17 28 17t18.5 -19t4.5 -25q67 -92 145 -107zM344 -131q5 8 17 4q81 -28 145 -85q9 -8 3 -18l-98 -155q-6 -9 -20 3
q-13 11 -116 73l-77 -122q-6 -9 -20.5 3t-143.5 90q-8 5 -3 12l100 149q5 8 17 4q67 -23 123 -67z" />
    <glyph glyph-name="uni06CE.init" unicode="&#x6ce;" horiz-adv-x="390" 
d="M122 433l58 127q18 39 38 1q81 -149 30 -360q-49 -201 -248 -201q-22 0 -43 104q-16 83 43 81q121 -5 182 65q3 4 1 14q-12 59 -55 119q-18 25 -6 50zM317 1157l38 -56q7 -11 7 -19q0 -10 -7 -19q-100 -166 -135 -287l-19 -14q-4 -3 -9 -3q-8 0 -16 10q-117 144 -183 308
q-6 14 -6 24q0 18 19 24q25 8 38 -26q28 -75 106 -206q42 152 130 259q12 14 22 14q9 0 15 -9zM304 -231q5 8 17 4q81 -28 145 -85q9 -8 3 -18l-98 -155q-6 -9 -20 3q-13 11 -116 73l-77 -122q-6 -9 -20.5 3t-143.5 90q-8 5 -3 12l100 149q5 8 17 4q67 -23 123 -67z" />
    <glyph glyph-name="uni06CE.medi" unicode="&#x6ce;" horiz-adv-x="500" 
d="M500 185q34 -8 38 -24t0 -48q-15 -113 -38 -113q-110 -1 -222 124q-91 -111 -278 -124q-19 -1 -26 31l-18 85q-5 21 8.5 44t35.5 25q228 17 304 134q11 17 28 17t18.5 -19t4.5 -25q67 -92 145 -107zM344 -131q5 8 17 4q81 -28 145 -85q9 -8 3 -18l-98 -155q-6 -9 -20 3
q-13 11 -116 73l-77 -122q-6 -9 -20.5 3t-143.5 90q-8 5 -3 12l100 149q5 8 17 4q67 -23 123 -67zM392 1097l38 -56q7 -11 7 -19q0 -10 -7 -19q-100 -166 -135 -287l-19 -14q-4 -3 -9 -3q-8 0 -16 10q-117 144 -183 308q-6 14 -6 24q0 18 19 24q25 8 38 -26q28 -75 106 -206
q42 152 130 259q12 14 22 14q9 0 15 -9z" />
    <glyph glyph-name="uni06D0.init" unicode="&#x6d0;" horiz-adv-x="390" arabic-form="initial" 
d="M122 433l58 127q18 39 38 1q81 -149 30 -360q-49 -201 -248 -201q-22 0 -43 104q-16 83 43 81q121 -5 182 65q3 4 1 14q-12 59 -55 119q-18 25 -6 50zM137 -230q5 8 17 4q81 -28 145 -85q9 -8 3 -18l-66 -104q56 -26 103 -68q9 -8 3 -18l-98 -155q-6 -9 -20.5 3
t-143.5 90q-8 5 -3 12l74 110l-111 68q-8 5 -3 12z" />
    <glyph glyph-name="uni06D0.medi" unicode="&#x6d0;" horiz-adv-x="500" arabic-form="medial" 
d="M500 185q34 -8 38 -24t0 -48q-15 -113 -38 -113q-110 -1 -222 124q-91 -111 -278 -124q-19 -1 -26 31l-18 85q-5 21 8.5 44t35.5 25q228 17 304 134q11 17 28 17t18.5 -19t4.5 -25q67 -92 145 -107zM227 -230q5 8 17 4q81 -28 145 -85q9 -8 3 -18l-66 -104
q56 -26 103 -68q9 -8 3 -18l-98 -155q-6 -9 -20.5 3t-143.5 90q-8 5 -3 12l74 110l-111 68q-8 5 -3 12z" />
    <glyph glyph-name="uni06D1.init" unicode="&#x6d1;" horiz-adv-x="390" 
d="M122 433l58 127q18 39 38 1q81 -149 30 -360q-49 -201 -248 -201q-22 0 -43 104q-16 83 43 81q121 -5 182 65q3 4 1 14q-12 59 -55 119q-18 25 -6 50zM313 -741q-5 -8 -17 -4q-81 28 -145 85q-9 8 -3 18l98 155q6 9 20.5 -3t143.5 -90q8 -5 3 -12zM172 -528q-5 -8 -17 -4
q-81 28 -145 85q-9 8 -3 18l98 155q6 9 20 -3q12 -10 101 -64l72 114q6 9 20.5 -3t143.5 -90q8 -5 3 -12l-100 -149q-5 -8 -17 -4q-59 20 -109 56z" />
    <glyph glyph-name="uni06D1.medi" unicode="&#x6d1;" horiz-adv-x="500" 
d="M500 185q34 -8 38 -24t0 -48q-15 -113 -38 -113q-110 -1 -222 124q-91 -111 -278 -124q-19 -1 -26 31l-18 85q-5 21 8.5 44t35.5 25q228 17 304 134q11 17 28 17t18.5 -19t4.5 -25q67 -92 145 -107zM353 -641q-5 -8 -17 -4q-81 28 -145 85q-9 8 -3 18l98 155q6 9 20.5 -3
t143.5 -90q8 -5 3 -12zM212 -428q-5 -8 -17 -4q-81 28 -145 85q-9 8 -3 18l98 155q6 9 20 -3q12 -10 101 -64l72 114q6 9 20.5 -3t143.5 -90q8 -5 3 -12l-100 -149q-5 -8 -17 -4q-59 20 -109 56z" />
    <glyph glyph-name="uni06FA.init" unicode="&#x6fa;" horiz-adv-x="1164" 
d="M994 584q8 12 22 -12t18 -102.5t-14 -155.5q-42 -166 -107 -168q-150 -6 -255 103q-72 -169 -198 -202t-256 106q-108 -153 -204 -153q-21 -1 -36.5 89.5t36.5 95.5q198 20 307 207q5 11 15 10q10 0 16 -8q11 -15 -30 -90q34 -62 166 -64q158 -2 242 277q4 11 14 12.5
t17 -7t5 -20.5l-21 -87q43 -45 125.5 -69t95.5 5.5t-18 120.5q-4 10 60 112zM570 1279q5 8 17 4q81 -28 145 -85q9 -8 3 -18l-98 -155q-6 -9 -20.5 3t-143.5 90q-8 5 -3 12zM711 1066q5 8 17 4q81 -28 145 -85q9 -8 3 -18l-98 -155q-6 -9 -20 3q-12 10 -101 64l-72 -114
q-6 -9 -20.5 3t-143.5 90q-8 5 -3 12l100 149q5 8 17 4q59 -20 109 -56zM617 -80q5 8 17 4q81 -28 145 -85q9 -8 3 -18l-98 -155q-6 -9 -20.5 3t-143.5 90q-8 5 -3 12z" />
    <glyph glyph-name="uni06FA.medi" unicode="&#x6fa;" horiz-adv-x="1165" 
d="M263 331q12 26 28 31.5t28.5 -10.5t-2 -46.5t-33.5 -64.5q248 -102 347 133q11 26 27 31.5t27.5 -9t3.5 -39.5q-24 -69 -21 -93q5 -46 75.5 -62.5t106 20t65.5 165.5q4 17 25.5 17t28.5 -17q74 -189 196 -202q25 -3 35 -59q10 -50 -1.5 -88t-33.5 -38q-168 0 -245 203
q-5 14 -10 -1q-36 -124 -71 -169t-80 -47q-145 -6 -218 109q-79 -95 -196.5 -95t-175.5 80q-81 -80 -169 -80q-39 0 -48 138q-3 42 48 47q204 16 263 146zM515 1156q5 8 17 4q81 -28 145 -85q9 -8 3 -18l-98 -155q-6 -9 -20.5 3t-143.5 90q-8 5 -3 12zM656 943q5 8 17 4
q81 -28 145 -85q9 -8 3 -18l-98 -155q-6 -9 -20 3q-12 10 -101 64l-72 -114q-6 -9 -20.5 3t-143.5 90q-8 5 -3 12l100 149q5 8 17 4q59 -20 109 -56zM517 -280q5 8 17 4q81 -28 145 -85q9 -8 3 -18l-98 -155q-6 -9 -20.5 3t-143.5 90q-8 5 -3 12z" />
    <glyph glyph-name="uni06FB.init" unicode="&#x6fb;" horiz-adv-x="1430" 
d="M1072 584q58 0 150 -67t79 -136t-66 -164.5t-75 -111.5q-188 -137 -493 -137q-121 1 -226 30q-16 -20 -56 -167q-7 -30 -40 -18.5t-29 44.5q11 73 51 169q-107 46 -168 119q-22 27 -34.5 27t-24.5 -29q-59 -143 -140 -143q-12 0 -23 23q-32 74 -17 115t40 47
q106 26 178 157q15 28 44 27.5t48 -32.5q63 -101 217 -146q88 98 172 172q253 219 413 221zM1161 272q-117 106 -262 95q-57 -5 -171.5 -80t-155.5 -117q118 -18 331.5 6t256.5 76q13 9 1 20zM601 1014q5 8 17 4q81 -28 145 -85q9 -8 3 -18l-98 -155q-6 -9 -20.5 3
t-143.5 90q-8 5 -3 12zM767 -280q5 8 17 4q81 -28 145 -85q9 -8 3 -18l-98 -155q-6 -9 -20.5 3t-143.5 90q-8 5 -3 12z" />
    <glyph glyph-name="uni06FB.medi" unicode="&#x6fb;" horiz-adv-x="1480" 
d="M1226 394q-154 154 -423 -24q-134 -89 -202 -190q155 -6 371 60q139 43 255 131q13 10 -1 23zM480 22q-32 -91 -38.5 -132.5t-27 -51.5t-37.5 3q-32 25 31 205q-64 19 -106 48.5t-83 82.5q-109 -167 -219 -177q-24 -2 -35 34q-24 75 3 127q14 27 32 24q94 -16 219 136
q15 18 29 12.5t35 -28.5q93 -103 224 -113q118 178 296.5 319.5t294.5 168.5q81 17 173.5 -39.5t110.5 -131.5q-36 -169 -117 -276q122 -44 214 -48q19 -1 23 -51q12 -131 -23 -134q-159 -16 -396 104q-299 -150 -603 -82zM679 1107q5 8 17 4q81 -28 145 -85q9 -8 3 -18
l-98 -155q-6 -9 -20.5 3t-143.5 90q-8 5 -3 12zM767 -280q5 8 17 4q81 -28 145 -85q9 -8 3 -18l-98 -155q-6 -9 -20.5 3t-143.5 90q-8 5 -3 12z" />
    <glyph glyph-name="uni06FC.init" unicode="&#x6fc;" horiz-adv-x="978" 
d="M848 515l-42 -164q-5 -18 -35 -29q-121 -44 -300 -118l-471 -204q-45 0 -61.5 75.5t61.5 109.5l142 59q-94 81 -73 187q53 269 324 382q50 21 133.5 -22t144.5 -113q21 -24 6.5 -43t-41.5 -8q-120 49 -267 15t-183 -120q-14 -33 45 -85.5t115 -61.5q164 -25 380 113
q44 28 78 46q57 33 44 -19zM267 1220q5 8 17 4q81 -28 145 -85q9 -8 3 -18l-98 -155q-6 -9 -20.5 3t-143.5 90q-8 5 -3 12zM457 -80q5 8 17 4q81 -28 145 -85q9 -8 3 -18l-98 -155q-6 -9 -20.5 3t-143.5 90q-8 5 -3 12z" />
    <glyph glyph-name="uni06FC.medi" unicode="&#x6fc;" horiz-adv-x="750" 
d="M750 185q72 0 62 -73q-16 -109 -62 -112q-188 -13 -379 210q-254 -212 -371 -210q-49 1 -63 78q-18 104 63 107q127 5 242 84q-66 65 -186 82q-14 2 -10 22q10 64 106 146q176 142 395 9q104 -63 99 -123t-144 -147q73 -73 248 -73zM227 1120q5 8 17 4q81 -28 145 -85
q9 -8 3 -18l-98 -155q-6 -9 -20.5 3t-143.5 90q-8 5 -3 12zM287 -80q5 8 17 4q81 -28 145 -85q9 -8 3 -18l-98 -155q-6 -9 -20.5 3t-143.5 90q-8 5 -3 12z" />
    <glyph glyph-name="uni06FF.init" unicode="&#x6ff;" horiz-adv-x="926" 
d="M562 931q-5 -10 -14 -10q-10 -2 -23 11q-99 97 -157 244q-63 -138 -83 -216q-9 -35 -35 -30q-20 4 -22 22q0 9 4 24q48 170 149 326q7 11 15 12q5 1 9 -2l20 -12q48 -117 165 -271q8 -8 9 -18q1 -8 -5 -20zM112 212q-12 75 10 162.5t116 192.5t166 142t105 -96
q6 -23 29 -34q192 -93 259 -165q20 -22 26 -77t-14 -127.5t-63 -114.5q-44 -44 -219 -36.5t-298 45.5q-106 -70 -229 -104q-23 -6 -35 35q-43 143 32 149.5t115 27.5zM339 533q-31 0 -88 -50t-93 -121q-3 -7 -2 -14q14 -60 130 -85q97 41 120.5 76t0.5 114.5t-68 79.5z
M489 433q-16 -107 -89 -192q114 -21 291 -18q26 1 34.5 18.5t-1.5 29.5q-61 75 -235 162z" />
    <glyph glyph-name="uni06FF.medi" unicode="&#x6ff;" horiz-adv-x="800" 
d="M581 717q44 -19 48 -85q21 -308 -195 -497q110 -10 366 50q17 4 28 -22q25 -58 -1 -129q-11 -30 -27 -34q-105 -23 -194 -18q68 -72 55 -241q-6 -73 -57 -142t-122 -70q-221 -3 -266 416l-59 8l1 98q-101 -51 -158 -51q-40 0 -57 138q-5 44 57 47q114 5 240 49
q82 221 240 405q76 89 101 78zM483 479q-17 0 -28 -6q-125 -71 -164 -226q195 77 255 164q12 16 3 32q-21 37 -66 36zM299 -65q36 -163 132 -205q78 -33 158 15q23 14 7 39q-76 110 -297 151zM662 931q-5 -10 -14 -10q-10 -2 -23 11q-99 97 -157 244q-63 -138 -83 -216
q-9 -35 -35 -30q-20 4 -22 22q0 9 4 24q48 170 149 326q7 11 15 12q5 1 9 -2l20 -12q48 -117 165 -271q8 -8 9 -18q1 -8 -5 -20z" />
    <glyph glyph-name="uniFDFA" unicode="&#xfdfa;" horiz-adv-x="2161" arabic-form="isolated" 
d="M948 763h-1q7 45 13 50q41 37 64.5 114.5t10.5 179.5l-26 199l-31 221q-2 17 29 146q2 9 12 8t11 -7q72 -493 130 -591t166 -93q123 6 205 87q8 14 23.5 14.5t27.5 -16.5q36 -56 122 -83q48 54 97 97q144 124 231 124q32 0 80.5 -35t48.5 -69t-33 -94t-46 -71
q-106 -76 -278 -76q-67 1 -126 16l-31 -93q-3 -10 -14 -13q-23 0 -25 23v4q6 40 29 95q-59 25 -82.5 53t-30 28t-22.5 -16q-85 -83 -209.5 -79.5t-203.5 157.5q-6 -99 -70 -214q110 -17 142.5 -42.5t33.5 -33.5q9 -100 -60 -156q-166 -131 -331 -131t-238 82
q-128 143 57 452q3 6 12 8q18 -2 10 -20q-61 -105 -69 -146q-18 -89 23 -167q55 -105 234.5 -93t315.5 130q-40 23 -201 51zM2083 1038q-60 54 -117.5 54.5t-124 -43t-89.5 -68.5q67 -10 193 4t141 48q0 2 -3 5zM845 893q-5 -8 -11 -8t-6 19q0 158 -8 219q-10 80 -24 219
l-25 225q-2 18 5 39l26 59q8 21 13.5 21t7.5 -19l27 -291q44 -388 -5 -483zM416 1652q5 14 15.5 13.5t10.5 -14.5q1 -41 28.5 -41t32 32.5t17.5 32.5q10 -2 10 -33t-17 -73t-48 -43.5t-51 21.5q-25 -43 -62 -43q-54 0 -54 54q0 43 9.5 71.5t19.5 29.5t10 -15l-1 -20
q0 -14 10.5 -32t31.5 -6.5t38 66.5zM452 1065q-47 223 -52 270.5t3 60.5l33 53q12 18 18 -7q1 1 25 -162.5t51 -204.5q48 -76 121 -54q-1 29 -35.5 175t-36.5 168t5 33l28 48q9 16 18 -11l59 -270q18 -92 13 -140q-14 -137 -79 -138q-51 0 -83 29.5t-62 88.5
q-44 -120 -142 -117.5t-116 116.5q-37 -54 -64 -60q-92 -20 -147 18q-17 14 -2 61.5t70 95.5q56 47 123 63l-1 56v1q1 32 43 94q13 18 15 -3q0 -29 2 -134q5 -186 86 -187t107 57zM204 1126q-23 -5 -64 -25t-55 -43q20 -15 64.5 -12t59.5 16q-2 15 -5 64zM197 676l-4 71
q-1 24 11 36l24 23q15 14 18 -12q-1 -8 11 -131q28 -310 408 -310q335 0 474 115q92 -121 161.5 -76t88.5 115q-52 256 -65 685q0 15 9 33l44 81q2 3 8 6q3 -1 4 -12q26 -482 45 -617q37 -282 232 -300q-38 51 -38.5 128.5t66.5 142.5q146 144 285 -11q12 -13 4 -26
q-9 -12 -24 -7q-110 38 -219 0q-55 -20 -55.5 -49t40 -92t100.5 -62q98 2 222 76q70 41 52 2l-32 -77q-6 -18 -54 -45q-169 -92 -357.5 -87.5t-245.5 171.5q-9 -23 -31 -57q-86 -133 -162 -114q-52 14 -108 72q-155 -99 -443 -99q-348 0 -429 228q-32 -61 -68.5 -75.5
t-82.5 -6.5q-84 15 -86 59q1 23 23 64.5t33 54.5q50 57 141 103zM74 523q5 -20 68.5 -18.5t80.5 16.5q-8 31 -18 85q-114 -32 -131 -83zM1019 206q2 4 29 -6q25 -9 62 -40q3 -5 2 -10l-55 -87q-3 -4 -11 2q-7 6 -65 41l-44 -69q0 4 -12 2q-28 -2 -80 51q-2 2 -2 6l56 83
q3 4 26 -3q22 -7 54 -31zM1664 -232q1 7 28 4.5t67.5 -2.5t90 11.5t141 92t109.5 135.5q-6 47 -15 52q-29 -45 -57 -44q-93 0 -94 86q0 38 20 93q39 110 94 111q32 0 66 -53.5t34 -115.5q0 -190 -120 -327q-75 -86 -126.5 -90.5t-144.5 11.5t-93 33v3zM2057 153
q-33 54 -71 6q28 -32 71 -6zM1789 44q34 2 11 77q-1 30 19 49.5t28 5t8.5 -61t-7.5 -82.5q-23 -91 -61 -94h-8q-77 0 -134 57q-49 -115 -138 -117q-58 1 -118 63q-155 -85 -426 -85q-465 1 -528 316q-6 -97 -47 -148q52 -21 74.5 -63t-24.5 -138q-12 -20 -45 -20h-1
q-72 1 -123 39q-23 -70 -62 -91q-89 -46 -191 -38q-15 1 -16 13q1 7 12 12q228 91 227 151v19q0 80 43 110q24 17 47 20q82 58 82 195v16l-35 374v1q0 10 7 24l24 49q7 13 14 12.5t20.5 -142.5t22.5 -205q22 -170 83 -259q104 -145 430 -144t472 108q16 12 21 2
q8 -13 -22 -43q34 -41 94 -37q54 6 130 157q2 7 14 7q12 -1 11 -16l-11 -49q41 -42 103 -44zM427 -107q-39 75 -116 75q-26 0 -40 -21q73 -52 156 -54zM1686 1671q40 14 21 -17l-21 -34q-10 -16 -222 -86l-282 -97q-34 -12 -9 23l15 21q14 20 35 28zM2131 1556q40 14 21 -17
l-21 -34q-9 -16 -221 -86l-283 -97q-34 -12 -9 23l15 21q15 21 35 28z" />
    <glyph glyph-name=".notdef" horiz-adv-x="748" 
d="M68 0v1365h544v-1365h-544zM136 68h408v1229h-408v-1229z" />
    <glyph glyph-name="glyph1" horiz-adv-x="0" 
 />
    <glyph glyph-name="glyph2" horiz-adv-x="682" 
 />
    <glyph glyph-name="uni00A0" unicode="&#xa0;" horiz-adv-x="600" 
 />
    <glyph glyph-name="uni00A0" unicode=" " horiz-adv-x="600" 
 />
    <glyph glyph-name="exclam" unicode="!" horiz-adv-x="482" 
d="M130 90q0 45 33.5 76.5t78.5 31.5t76.5 -31.5t31.5 -76.5t-31.5 -78.5t-76.5 -33.5t-78.5 33.5t-33.5 78.5zM250 1364q44 0 66 -36t22 -80q0 -214 -70 -904q-12 -24 -32 -26q-19 8 -26 22q-60 690 -60 908q0 44 28 80t72 36z" />
    <glyph glyph-name="quotedbl" unicode="&#x22;" horiz-adv-x="560" 
d="M422 1398q31 0 52 -26q0 -44 -9.5 -177.5t-18.5 -210.5q-12 -24 -40 -38q-12 0 -18 12q-70 240 -70 300q0 47 30 93.5t74 46.5zM182 1398q31 0 52 -26q0 -44 -9.5 -177.5t-18.5 -210.5q-12 -24 -40 -38q-12 0 -18 12q-70 240 -70 300q0 47 30 93.5t74 46.5z" />
    <glyph glyph-name="numbersign" unicode="#" horiz-adv-x="960" 
d="M651 454h134q13 0 14.5 -22t-7.5 -46t-21 -30h-136l-32 -202q-2 -8 -15 -17t-33 -9q-9 0 -14.5 2t-6.5 4l-1 2l35 220h-256l-33 -202q-2 -8 -14 -17t-32 -9q-9 0 -14.5 2t-6.5 4l-1 2l35 220h-133q-11 3 -11.5 23.5t9.5 45.5t22 29h129l45 284h-138q-11 0 -11.5 23
t8.5 47t21 28h136l32 200q3 10 4 12t5.5 7t12.5 6t22 1q17 0 26 -6l-36 -220h256l32 200q3 10 4 12t5.5 7t12.5 6t22 1q17 0 26 -6l-35 -220h127q13 0 15 -22t-6.5 -46t-20.5 -30h-131zM584 454l45 284h-255l-46 -284h256z" />
    <glyph glyph-name="dollar" unicode="$" horiz-adv-x="996" 
d="M584 1366q70 0 70 -14l-14 -87q23 -5 75 -19t89 -22q8 -35 13.5 -80.5t7 -72t2.5 -71.5t1 -48q-13 -8 -36 -8q-18 0 -28 10q-7 55 -44.5 118.5t-94.5 101.5l-77 -463q2 -1 7 -4t7 -5q15 -10 50 -31l56 -34t54.5 -36.5t54.5 -42.5t46 -46.5t39 -53.5t24 -58.5t10 -67.5
q0 -102 -58 -184t-149 -125t-195 -43q-33 0 -66 3l-14 -87q-21 0 -45.5 4.5t-24.5 13.5l13 78q-20 3 -209 44q-16 78 -31 176.5t-15 117.5q6 6 22.5 11t27.5 5q17 0 22 -10q6 -27 15.5 -54.5t30.5 -71t60 -80.5t90 -58l82 496l-74 44.5t-70 47.5t-68 57t-52 62t-38 75.5
t-12 85.5q0 98 54 177t139.5 120t182.5 41q21 0 55 -2zM519 530l-79 -478q24 -4 58 -4q95 0 162.5 62t67.5 170q0 23 -4 44t-8.5 37t-17.5 33.5t-19.5 27.5t-26.5 25.5l-28 21.5t-34 21.5t-33.5 19.5zM482 751l75 454q-25 7 -55 7q-60 0 -103 -19.5t-65.5 -52.5t-32 -67.5
t-9.5 -72.5q0 -44 14.5 -80.5t44.5 -67.5t58 -52t73 -49z" />
    <glyph glyph-name="percent" unicode="%" horiz-adv-x="1334" 
d="M372 1242q-56 0 -94.5 -39t-54 -93.5t-15.5 -117.5q0 -107 55.5 -199.5t128.5 -92.5q41 0 72 22.5t47 60.5t23.5 80t7.5 89q0 69 -20 134.5t-60 110.5t-90 45zM380 1290q128 0 211 -94.5t83 -227.5q0 -81 -34.5 -153t-103.5 -118.5t-156 -46.5q-125 0 -212.5 93
t-87.5 225q0 136 84.5 229t215.5 93zM950 578q-56 0 -95 -39t-55 -93.5t-16 -117.5q0 -107 56.5 -199.5t129.5 -92.5q41 0 71.5 22.5t46.5 60.5t23 80t7 89q0 69 -19.5 134.5t-59 110.5t-89.5 45zM958 626q128 0 210 -94t82 -228q0 -127 -81 -222.5t-213 -95.5
q-125 0 -212.5 93t-87.5 225q0 136 85 229t217 93zM1196 1248l-966 -1248q-6 -8 -27.5 -16t-38.5 -8q-25 0 -36 22l964 1250q20 24 40 24q21 0 32 -1.5t14.5 -3t8.5 -8.5t9 -11z" />
    <glyph glyph-name="ampersand" unicode="&#x26;" horiz-adv-x="1366" 
d="M812 190q-58 59 -140 168.5t-135 189.5l-53 80l-64.5 -45t-53.5 -44.5t-48 -54.5t-27.5 -61.5t-12.5 -78.5q0 -132 82 -198t202 -66q62 0 132.5 30t117.5 80zM626 1240q-66 0 -112 -43t-46 -111q0 -128 104 -316q69 40 108 73.5t64.5 88t25.5 128.5q0 72 -40 126t-104 54
zM616 1312q134 0 212 -58.5t78 -165.5q0 -65 -23.5 -121t-70 -103.5t-92 -82t-112.5 -75.5q117 -197 296 -398q50 76 82 145.5t32 88.5q0 18 -18 25.5t-44.5 9t-27.5 1.5q-5 9 -4.5 24.5t6.5 21.5h158q31 0 64 1.5t77.5 4.5t78.5 4q4 -3 3.5 -29.5t-5.5 -26.5q-26 0 -74 -12
t-64 -22q-3 -2 -29 -45.5t-76 -117t-103 -135.5l64 -66.5t47.5 -45t48.5 -35.5t36 -9q28 0 61 33.5t43 58.5q16 0 31 -12.5t15 -23.5q-5 -12 -11 -23t-25 -35.5t-41 -42t-60 -31.5t-81 -14q-33 0 -69 15t-63.5 36t-50.5 42t-35 36l-12 15q-76 -67 -172.5 -108.5
t-191.5 -41.5q-177 0 -282.5 86t-105.5 236q0 69 26.5 127.5t78 105.5t103 80.5t124.5 70.5q-37 64 -57 102.5t-39.5 105t-19.5 130.5q0 115 84.5 194.5t209.5 79.5z" />
    <glyph glyph-name="quotesingle" unicode="'" horiz-adv-x="320" 
d="M182 1398q31 0 52 -26q0 -44 -9.5 -177.5t-18.5 -210.5q-12 -24 -40 -38q-12 0 -18 12q-70 240 -70 300q0 47 30 93.5t74 46.5z" />
    <glyph glyph-name="parenleft" unicode="(" horiz-adv-x="940" 
d="M451 340q0 -366 129 -695q100 -254 269 -401l-29 -35q-317 250 -447 652q-73 226 -73 479q0 539 302 912q98 121 218 217l29 -44q-215 -172 -324 -552q-74 -259 -74 -533z" />
    <glyph glyph-name="parenright" unicode=")" horiz-adv-x="940" 
d="M488 340q0 274 -74 533q-109 380 -324 552l29 44q120 -96 218 -217q302 -373 302 -912q0 -253 -73 -479q-130 -402 -447 -652l-29 35q169 147 269 401q129 329 129 695z" />
    <glyph glyph-name="asterisk" unicode="*" horiz-adv-x="886" 
d="M603 1226q27 30 57.5 37.5t54.5 -13.5q24 -24 20.5 -55t-32.5 -57q-36 -33 -101.5 -67.5t-92.5 -60.5q-1 -2 -3 -5.5t-5 -11t-2 -11.5q3 -13 20 -20q33 -15 100.5 -27t113.5 -33q36 -16 53.5 -43.5t4.5 -54.5q-15 -30 -46 -36t-64 12q-44 24 -97 75.5t-85 68.5l-5 2.5
t-11.5 4t-11.5 -0.5q-4 -2 -6.5 -5.5t-3 -6l-1.5 -7.5t-1 -7q-4 -36 4.5 -104t3.5 -118q-5 -39 -25.5 -63.5t-50.5 -20.5q-33 4 -48.5 31t-7.5 65q9 49 42 116.5t40 103.5q2 18 -6 26q-7 10 -26 6q-34 -7 -96.5 -37t-113.5 -41q-38 -8 -69 4t-35 42q-6 32 16 55.5t60 28.5
q50 6 122.5 -4.5t109.5 -5.5q18 6 22 16q5 13 -4 28q-18 31 -65.5 81.5t-72.5 94.5q-19 32 -16.5 65t28.5 47q30 15 57.5 2t44.5 -48q21 -45 33.5 -117.5t28.5 -106.5q10 -20 20 -22q12 -2 26 12q25 27 57 88t65 98z" />
    <glyph glyph-name="plus" unicode="+" horiz-adv-x="1084" 
d="M484 948q59 22 86 22q9 0 15.5 -3t8.5 -6l2 -3v-410h408q7 0 12.5 -6.5t5.5 -17.5q0 -24 -9.5 -49.5t-22.5 -38.5h-394v-404q-29 -22 -86 -22q-10 0 -18 6t-8 12v408h-410q-12 0 -12 20q0 13 8.5 47.5t21.5 44.5h392v400z" />
    <glyph glyph-name="comma" unicode="," horiz-adv-x="402" 
d="M212 246q28 0 52 -14q36 -62 36 -140q0 -84 -79 -205.5t-157 -164.5q-10 0 -20 16t-10 26q23 17 38 30.5t39 42t36.5 66.5t12.5 83q0 32 -33 77t-33 85q0 35 33.5 66.5t84.5 31.5z" />
    <glyph glyph-name="hyphen" unicode="-" horiz-adv-x="754" 
d="M142 522q416 22 482 24q14 0 14 -18q0 -53 -26 -108q-41 -3 -482 -22q-14 0 -14 22q0 46 26 102z" />
    <glyph glyph-name="period" unicode="." horiz-adv-x="414" 
d="M96 90q0 45 33.5 76.5t78.5 31.5t76.5 -31.5t31.5 -76.5t-31.5 -78.5t-76.5 -33.5t-78.5 33.5t-33.5 78.5z" />
    <glyph glyph-name="slash" unicode="/" horiz-adv-x="706" 
d="M618 1438q20 0 26 -18l-499 -1755q-4 -13 -27 -31q-21 -16 -51 -15q-13 0 -22 3.5t-11 7.5l-3 3l507 1775q1 4 10.5 10.5t28.5 13t41 6.5z" />
    <glyph glyph-name="zero" unicode="0" horiz-adv-x="1090" 
d="M556 1208q-82 0 -144.5 -77t-95 -205t-32.5 -286q0 -156 31.5 -286.5t90 -208t130.5 -77.5q86 0 148 81t91 210.5t29 290.5q0 156 -31 283t-88 201t-129 74zM544 1282q135 0 236 -89t150.5 -233.5t49.5 -321.5q0 -176 -50.5 -321t-151 -234t-234.5 -89q-132 0 -232.5 89
t-152 234t-51.5 321t50.5 321t151 234t234.5 89z" />
    <glyph glyph-name="one" unicode="1" horiz-adv-x="1090" 
d="M494 232v808q0 42 -10 59t-32 17q-33 0 -140 -40q-20 16 -20 34q0 11 4 12l157.5 73l138.5 65.5t52 23.5h4q14 0 20 -32q-16 -72 -16 -194v-826q0 -116 10 -148q4 -14 51.5 -23t76.5 -9q6 -8 6.5 -29t-6.5 -29q-205 10 -222 10q-9 0 -214 -10q-7 8 -6.5 29t6.5 29
q29 0 76.5 9t51.5 23q12 38 12 148z" />
    <glyph glyph-name="two" unicode="2" horiz-adv-x="1090" 
d="M956 300q-44 -107 -108 -300h-692q-6 3 -13 12.5t-7 15.5q317 351 476 584q57 84 76.5 151t19.5 149q0 104 -62 173t-158 69q-56 0 -107.5 -20.5t-87.5 -51.5t-57.5 -55.5t-33.5 -44.5q-11 0 -24.5 12.5t-13.5 19.5q6 23 35 64t74.5 89t115.5 82.5t143 34.5
q141 0 243.5 -102t102.5 -232q0 -162 -114 -302q-154 -188 -436 -502h396q58 0 96.5 37t71.5 117q5 12 24 12q24 0 40 -12z" />
    <glyph glyph-name="three" unicode="3" horiz-adv-x="1090" 
d="M564 1284q40 0 84.5 -17.5t84.5 -48.5t66.5 -81.5t26.5 -108.5q0 -46 -18.5 -90.5t-49 -78.5t-59.5 -58.5t-59 -42.5q45 -6 92 -30t90 -63t70.5 -99t27.5 -130q0 -99 -44 -184.5t-116 -142t-163 -88t-185 -31.5q-112 0 -204 46q-12 8 -26 31.5t-14 44.5q0 42 25 69t59 27
q25 0 44 -13t40 -40.5t28 -34.5q50 -50 148 -50q42 0 82 17t75.5 51.5t57 97t21.5 144.5q0 119 -77 200.5t-179 81.5q-19 0 -41.5 -4.5t-49 -12.5t-29.5 -9q-12 15 -12 40q0 14 4 20q64 14 117 37.5t98.5 59t71 86.5t25.5 113q0 80 -55.5 133t-140.5 53q-43 0 -85.5 -19.5
t-66.5 -40.5t-47 -46t-25 -26q-9 0 -16.5 15t-7.5 29q55 81 140 137.5t192 56.5z" />
    <glyph glyph-name="four" unicode="4" horiz-adv-x="1090" 
d="M812 1288q14 0 22 -11t8 -25v-790h118q9 0 18.5 -26t9.5 -56q0 -20 -8 -32h-138v-350q-8 -10 -86 -10q-72 0 -72 16v344h-564q-20 11 -20 38l652 852q12 16 30.5 33t29.5 17zM684 1048l-448 -586h448v586z" />
    <glyph glyph-name="five" unicode="5" horiz-adv-x="1090" 
d="M544 790q85 0 157.5 -31.5t119.5 -82t73 -113.5t26 -127q0 -99 -44 -184.5t-116 -142t-163 -88t-185 -31.5q-112 0 -204 46q-12 8 -26 31.5t-14 44.5q0 42 25 69t59 27q25 0 44 -13t40 -40.5t28 -34.5q50 -50 148 -50q42 0 82 16.5t75.5 51t57 97t21.5 145.5
q0 39 -10.5 79t-35.5 79.5t-61 70.5t-91 50t-122 19q-34 0 -89.5 -9.5t-78.5 -20.5q-6 0 -11 9t-5 19l116 594h296q36 0 82 4q46 6 74 10l28 4l8.5 -5.5l8 -5t5 -4.5t2.5 -7q0 -15 -18.5 -65t-41.5 -77q-112 -12 -232 -12h-168l-22.5 -115l-26.5 -135l-23 -110
q40 16 104.5 27t107.5 11z" />
    <glyph glyph-name="six" unicode="6" horiz-adv-x="1090" 
d="M326 612q-8 -56 -8 -136q0 -70 15 -142t42.5 -136t74.5 -104t104 -40q95 0 157.5 89.5t62.5 224.5q0 89 -24.5 160t-83 117.5t-144.5 46.5q-123 0 -196 -80zM578 790q80 0 145 -26.5t105 -67t67 -93t38 -102t11 -95.5q0 -170 -118.5 -294t-287.5 -124q-87 0 -162.5 40
t-124.5 105t-77 145t-28 162q0 154 49 290.5t143 239.5q102 112 252.5 200.5t283.5 123.5q12 0 18 -21.5t6 -36.5q-457 -147 -556 -536q50 42 116 66t120 24z" />
    <glyph glyph-name="seven" unicode="7" horiz-adv-x="1090" 
d="M816 1266q31 0 83 3t53 3q12 0 12 -18q0 -9 -5.5 -25t-12 -30l-19 -39.5l-19.5 -39.5l-528 -1124q-6 -6 -20 -6q-25 0 -56.5 11.5t-31.5 24.5q92 139 234 412.5t238 477.5l96 204h-508q-58 0 -89.5 -35.5t-54.5 -118.5q-2 -12 -24 -12q-24 0 -40 12q60 191 84 300h608z
" />
    <glyph glyph-name="eight" unicode="8" horiz-adv-x="1090" 
d="M544 54q99 0 157.5 60t58.5 162q0 47 -25 95.5t-56 82t-74 67t-63 46.5t-38 23q-8 4 -12 4q-6 0 -8 -2q-83 -53 -120.5 -118t-37.5 -160q0 -117 66.5 -188.5t151.5 -71.5zM544 1216q-72 0 -122 -65t-50 -155q0 -52 18.5 -95.5t54 -76.5t61.5 -50.5t65 -40.5q6 -3 9 -5
q8 -4 12 -4q6 0 12 4q136 90 136 244q0 93 -55 168.5t-141 75.5zM556 1286q139 0 233.5 -79.5t94.5 -214.5q0 -55 -20.5 -103.5t-59 -87t-69 -62t-75.5 -51.5q-13 -3 0 -12q105 -59 183.5 -151t78.5 -191q0 -147 -114.5 -249.5t-267.5 -102.5q-165 0 -268.5 90.5
t-103.5 235.5q0 26 6 51t13 45.5t23 43l26.5 37.5t33 35l33 29.5t35.5 27l32 22.5t32 21t26 16q10 7 0 12q-78 47 -141 129.5t-63 182.5q0 128 100 227t232 99z" />
    <glyph glyph-name="nine" unicode="9" horiz-adv-x="1090" 
d="M764 670q8 56 8 136q0 70 -15 142t-42.5 136t-74.5 104t-104 40q-94 0 -156 -89.5t-62 -224.5q0 -90 24 -160.5t82 -117t144 -46.5q123 0 196 80zM192 46q457 147 556 536q-50 -42 -116 -66t-120 -24q-80 0 -145 26.5t-104.5 67t-66.5 93.5t-37.5 101.5t-10.5 95.5
q0 170 117.5 294t286.5 124q87 0 162.5 -40t124.5 -105t77 -145t28 -162q0 -154 -49 -290.5t-143 -239.5q-102 -112 -252.5 -200.5t-283.5 -123.5q-12 0 -18 21.5t-6 36.5z" />
    <glyph glyph-name="colon" unicode=":" horiz-adv-x="452" 
d="M116 90q0 45 33.5 76.5t78.5 31.5t76.5 -31.5t31.5 -76.5t-31.5 -78.5t-76.5 -33.5t-78.5 33.5t-33.5 78.5zM116 754q0 45 33.5 76.5t78.5 31.5t76.5 -31.5t31.5 -76.5t-31.5 -78.5t-76.5 -33.5t-78.5 33.5t-33.5 78.5z" />
    <glyph glyph-name="semicolon" unicode=";" horiz-adv-x="464" 
d="M254 246q28 0 52 -14q36 -62 36 -140q0 -84 -79 -205.5t-157 -164.5q-10 0 -20 16t-10 26q23 17 38 30.5t39 42t36.5 66.5t12.5 83q0 32 -33 77t-33 85q0 35 33.5 66.5t84.5 31.5zM122 754q0 45 33.5 76.5t78.5 31.5t76.5 -31.5t31.5 -76.5t-31.5 -78.5t-76.5 -33.5
t-78.5 33.5t-33.5 78.5z" />
    <glyph glyph-name="less" unicode="&#x3c;" horiz-adv-x="984" 
d="M888 70q0 -14 -12 -57t-20 -43q-2 0 -10 4l-750 380q-36 19 -36 80q0 30 36 48l738 374q8 4 10 4q16 0 34 -94q1 -5 -0.5 -9.5t-3.5 -6.5l-2 -2l-652 -330l662 -336q6 -2 6 -12z" />
    <glyph glyph-name="equal" unicode="=" horiz-adv-x="1130" 
d="M957 240h-812q-10 4 -8.5 26.5t14.5 50.5t26 33h806q12 -4 11.5 -25.5t-12.5 -49.5t-25 -35zM957 528h-812q-10 4 -8.5 26.5t14.5 50.5t26 33h806q12 -4 11.5 -25.5t-12.5 -49.5t-25 -35z" />
    <glyph glyph-name="greater" unicode="&#x3e;" horiz-adv-x="986" 
d="M96 70q0 4 2 7q0 3 2 4l2 1l662 336l-650 330q-6 2 -6 16q0 25 12.5 60.5t19.5 35.5q2 0 10 -4l740 -374q34 -17 34 -48q0 -62 -34 -80l-750 -380q-8 -4 -10 -4q-8 0 -21 42.5t-13 57.5z" />
    <glyph glyph-name="question" unicode="?" horiz-adv-x="712" 
d="M126 90q0 45 33.5 76.5t78.5 31.5t76.5 -31.5t31.5 -76.5t-31.5 -78.5t-76.5 -33.5t-78.5 33.5t-33.5 78.5zM200 1096q-27 0 -57.5 28t-30.5 72q0 49 18 74q28 14 96 14q41 0 92 -15.5t104 -47.5t97.5 -75t72.5 -104t28 -128q0 -103 -45.5 -172.5t-156.5 -133.5
q-42 -25 -94.5 -66.5t-61.5 -57.5q-6 -11 -9 -30.5t-3.5 -33t0 -41.5t0.5 -35q-12 -24 -32 -26q-19 8 -26 22q-16 67 -16 182q0 40 10.5 74.5t23 56.5t37.5 45t40.5 34t44.5 29q10 6 14 9l57.5 37t45 33.5t40 39t21.5 41.5t10 53q0 75 -44 119.5t-104 44.5t-106.5 -21
t-65.5 -21z" />
    <glyph glyph-name="at" unicode="@" horiz-adv-x="1496" 
d="M836 1156q114 0 211 -34t165.5 -93t117 -137.5t71.5 -167.5t23 -184q0 -151 -53.5 -278t-148.5 -201.5t-210 -74.5q-77 0 -121.5 42t-44.5 130q0 55 14 92q-17 -32 -45 -72.5t-66 -84.5t-84 -73.5t-87 -29.5q-89 0 -139.5 79t-50.5 191q0 107 51.5 218t131.5 197
t184.5 140.5t204.5 54.5q75 0 146 -26l-122 -632q-6 -24 -6 -50q0 -46 26.5 -68t69.5 -22q47 0 95.5 37.5t87 99t63 148t24.5 177.5q0 83 -19 160.5t-60 147t-99.5 121.5t-143.5 82.5t-186 30.5q-119 0 -225 -43t-183.5 -116t-135 -167.5t-86 -199.5t-28.5 -210
q0 -167 75.5 -298t190.5 -198q76 -44 150 -56q0 -11 -26.5 -23.5t-45.5 -12.5q-47 0 -78 12q-144 53 -245 212.5t-101 363.5q0 118 31.5 235t95 221.5t150.5 185t206.5 127.5t254.5 47zM876 778q-56 0 -117.5 -42.5t-110.5 -109t-80.5 -153.5t-31.5 -171q0 -196 102 -196
q48 0 107.5 70.5t106.5 173t66 198.5l40 204q-23 26 -82 26z" />
    <glyph glyph-name="A" unicode="A" horiz-adv-x="1254" 
d="M190 278l386 990q8 15 35.5 36.5t40.5 21.5q3 0 6.5 -2.5t5.5 -3.5l407 -1068q50 -129 51 -132q13 -31 62.5 -49.5t73.5 -18.5q6 -9 6 -29.5t-2 -28.5q-200 10 -220 10q-41 0 -76.5 -1.5t-79.5 -4.5t-76 -4q-7 8 -6.5 29t8.5 29q23 0 61.5 7.5t50.5 18.5q8 8 8 28
q0 27 -34 124.5t-68 181.5l-34 84q-6 8 -12 8q-26 2 -198 2q-126 0 -216 -6l-10 -6l-90 -244q-28 -82 -28 -142q0 -17 18.5 -29t45 -17.5t45.5 -7.5t29 -2q4 -4 5.5 -26.5t-1.5 -31.5q-29 1 -63 4t-63 4.5t-68 1.5q-41 0 -72.5 -1.5t-69.5 -4.5t-72 -4q-4 4 -4 26t4 32
q25 0 66 10.5t54 27.5q42 55 94 188zM582 1084l-184 -488q0 -8 4 -8q104 -4 182 -4q75 0 168 6q2 0 4 2q2 4 2 6v2z" />
    <glyph glyph-name="B" unicode="B" horiz-adv-x="1192" 
d="M413 664v-434q-1 -29 4 -78t14 -58q21 -22 57.5 -29t100.5 -7q318 0 318 294q0 312 -372 312h-122zM413 740h167q125 0 188 69t63 165q0 132 -83.5 206t-224.5 74q-91 0 -100 -20q-12 -29 -10 -150v-344zM611 1318q58 0 112 -9t108 -30.5t93.5 -54.5t64 -85.5
t24.5 -118.5q0 -103 -67.5 -184t-134.5 -106q-9 -4 0 -10q39 -2 88 -25t95.5 -62.5t78.5 -102t32 -132.5q0 -183 -135 -296q-125 -104 -419 -108h-460q-7 8 -6.5 29t6.5 29q30 0 82 9t56 23q10 32 10 148v854q0 116 -10 148q-4 14 -56 23t-82 9q-6 8 -6.5 29t6.5 29
q205 -10 236 -10q34 0 127 2t157 2z" />
    <glyph glyph-name="C" unicode="C" horiz-adv-x="1348" 
d="M772 1334q230 0 424 -42q46 -276 46 -296q1 -9 -14 -17.5t-30 -8.5t-24 6q-57 292 -392 292q-142 0 -256 -88t-173 -220t-59 -274q0 -95 20.5 -185.5t63 -171.5t103 -142t146.5 -97t187 -36q155 0 264 96q90 81 122 232q35 3 64 -16q0 -38 -25.5 -155t-44.5 -133
q-160 -90 -430 -90q-145 0 -271 53t-212 142t-135.5 209t-49.5 252q0 139 51 265.5t139 220t215 149t271 55.5z" />
    <glyph glyph-name="D" unicode="D" horiz-adv-x="1420" 
d="M415 1082v-852q0 -130 12 -144q20 -28 164 -28q109 0 203 34.5t168 102.5t116.5 178.5t42.5 252.5q0 132 -30.5 238.5t-82.5 177.5t-124 119t-152 69.5t-169 21.5q-131 0 -138 -22q-12 -38 -10 -148zM617 1316q161 0 294 -49.5t222 -136t137.5 -205.5t48.5 -257
q0 -107 -21 -201t-73.5 -182.5t-133 -151.5t-208.5 -101t-292 -38h-500q-7 8 -6.5 29t6.5 29q30 0 82 9t56 23q10 32 10 148v854q0 116 -10 148q-4 14 -56 23t-82 9q-6 8 -6.5 29t6.5 29q205 -10 236 -10q38 0 141.5 1t148.5 1z" />
    <glyph glyph-name="E" unicode="E" horiz-adv-x="1174" 
d="M327 1314q90 0 310.5 7t333.5 7q8 -58 30.5 -153t27.5 -119q-10 -10 -36 -10q-25 0 -28 14q-31 111 -86.5 149.5t-145.5 38.5h-172q-131 0 -138 -22q-12 -38 -10 -142v-374q-1 -7 23 -9.5t63 -2.5h106q50 0 78 1t52.5 6t35.5 13t21 22.5t15.5 34.5l13.5 50q2 11 4 17
q3 14 30 14q24 0 34 -10v-378q-8 -8 -32 -8q-26 0 -32 16q-21 79 -31 100.5t-25 31.5q-25 16 -212 16h-31t-31 -0.5t-32 -1.5t-25 -3t-19 -5.5t-6 -7.5v-380q-1 -35 1.5 -83t10.5 -55q18 -14 44.5 -17t97.5 -3h96q72 0 141.5 14.5t110.5 39.5q43 26 69 72.5t57 129.5
q3 12 28 12q38 0 50 -12l-30 -83l-33.5 -92.5t-26 -80.5t-18.5 -76q-103 0 -323 4t-359 4q-49 0 -125 -3t-113 -3q-7 8 -6.5 29t6.5 29q30 0 82 9t56 23q10 32 10 148v854q0 116 -10 148q-4 14 -56 23t-82 9q-6 8 -6.5 29t6.5 29q205 -10 236 -10z" />
    <glyph glyph-name="F" unicode="F" horiz-adv-x="1070" 
d="M327 1314q90 0 310.5 7t333.5 7q8 -58 30.5 -153t27.5 -119q-10 -10 -36 -10q-25 0 -28 14q-31 111 -86.5 149.5t-145.5 38.5h-172q-131 0 -138 -22q-10 -32 -10 -142v-374q-1 -7 23 -9.5t63 -2.5h106q50 0 78 1t52.5 6t35.5 13t21 22.5t15.5 34.5l13.5 50q2 11 4 17
q3 14 30 14q24 0 34 -10v-378q-8 -8 -32 -8q-26 0 -32 16q-21 79 -31 100.5t-25 31.5q-25 16 -212 16q-144 0 -144 -18v-374q0 -116 10 -148q4 -14 64.5 -23t93.5 -9q6 -8 6.5 -29t-6.5 -29q-205 10 -254 10t-124 -5t-112 -5q-7 8 -6.5 29t6.5 29q30 0 82 9t56 23
q10 32 10 148v854q0 116 -10 148q-4 14 -56 23t-82 9q-6 8 -6.5 29t6.5 29q205 -10 236 -10z" />
    <glyph glyph-name="G" unicode="G" horiz-adv-x="1440" 
d="M1070 350q0 116 -10 148q-4 14 -55 23t-81 9q-6 8 -6.5 29t6.5 29q205 -10 234 -10q19 0 224 10q7 -8 6.5 -29t-6.5 -29q-29 0 -77.5 -9t-52.5 -23q-10 -32 -10 -148v-142q0 -24 10 -48.5t10 -31.5q0 -9 -7.5 -16t-32.5 -20q-60 -32 -100.5 -49.5t-138 -36t-219.5 -18.5
q-145 0 -271 53t-212 142t-135.5 209t-49.5 252q0 139 51 265.5t139 220t215 149t271 55.5q230 0 424 -42q46 -276 46 -296q1 -9 -14 -17.5t-30 -8.5t-24 6q-57 292 -392 292q-142 0 -256 -88t-173 -220t-59 -274q0 -95 20 -185.5t62.5 -171.5t103 -142t146.5 -97t188 -36
q114 0 242 64q14 7 14 30v202z" />
    <glyph glyph-name="H" unicode="H" horiz-adv-x="1452" 
d="M327 1314q29 0 234 10q7 -8 6.5 -32t-6.5 -32q-30 0 -82 -9t-56 -23q-10 -32 -10 -148v-350l4 -6q294 -6 314 -6q36 0 306 6q4 4 4 8v348q0 116 -10 148q-4 14 -56 23t-82 9q-6 8 -6.5 32t6.5 32q205 -10 236 -10q29 0 234 10q7 -8 6.5 -32t-6.5 -32q-30 0 -82 -9
t-56 -23q-10 -32 -10 -148v-842q0 -116 10 -148q4 -14 56 -23t82 -9q6 -8 6.5 -32t-6.5 -32q-205 10 -234 10q-31 0 -236 -10q-7 8 -6.5 32t6.5 32q30 0 82 9t56 23q10 32 10 148v396l-4 8q-24 1 -135.5 4.5t-170.5 3.5q-292 0 -316 -12l-2 -4v-396q0 -116 10 -148
q4 -14 56 -23t82 -9q6 -8 6.5 -32t-6.5 -32q-205 10 -234 10q-31 0 -236 -10q-7 8 -6.5 32t6.5 32q30 0 82 9t56 23q10 32 10 148v842q0 116 -10 148q-4 14 -56 23t-82 9q-6 8 -6.5 32t6.5 32q205 -10 236 -10z" />
    <glyph glyph-name="I" unicode="I" horiz-adv-x="648" 
d="M327 1314q29 0 234 10q7 -8 6.5 -29t-6.5 -29q-30 0 -82 -9t-56 -23q-10 -32 -10 -148v-854q0 -116 10 -148q4 -14 56 -23t82 -9q6 -8 6.5 -29t-6.5 -29q-205 10 -234 10q-31 0 -236 -10q-7 8 -6.5 29t6.5 29q30 0 82 9t56 23q10 32 10 148v854q0 116 -10 148
q-4 14 -56 23t-82 9q-6 8 -6.5 29t6.5 29q205 -10 236 -10z" />
    <glyph glyph-name="J" unicode="J" horiz-adv-x="626" 
d="M316 1314q29 0 234 10q7 -8 6.5 -29t-6.5 -29q-30 0 -82 -9t-56 -23q-10 -32 -10 -148v-844q0 -183 -34.5 -319t-98.5 -217.5t-147.5 -120.5t-187.5 -39q-24 0 -66.5 11.5t-59.5 24.5q-16 16 -16 46q0 49 25 80.5t71 31.5q7 0 14.5 -1.5t15.5 -6l13.5 -7.5t14.5 -10
t12.5 -10l13.5 -12t12 -11q46 -42 90 -42q34 0 60 25.5t48 88t34 183t12 295.5v854q0 116 -10 148q-4 14 -56 23t-82 9q-6 8 -6.5 29t6.5 29q205 -10 236 -10z" />
    <glyph glyph-name="K" unicode="K" horiz-adv-x="1314" 
d="M327 1314q29 0 234 10q7 -8 6.5 -32t-6.5 -32q-30 0 -82 -9t-56 -23q-12 -38 -10 -148v-398q52 32 226 202q116 115 162 164t92 108q28 37 28 62q0 8 -3 14.5t-9 11t-13 8t-16 5.5t-16.5 3t-17.5 1.5t-15.5 0.5h-13h-8.5q-5 9 -5 28.5t5 33.5q23 -1 71.5 -4.5t87 -5.5
t71.5 -2q52 0 125 5.5t91 6.5q4 -9 3.5 -35.5t-7.5 -26.5l-16 -1q-16 -1 -29 -2.5t-35 -6.5t-40.5 -12.5t-40 -20.5t-37.5 -31l-124 -130.5l-103 -103.5l-117.5 -113l-118.5 -113q-5 -8 0 -16l56 -65.5l57 -66.5l52.5 -60.5l54.5 -63l50 -57l52.5 -58.5l47.5 -51.5l50 -53
l45.5 -46l47.5 -46.5q43 -40 92.5 -63t125.5 -29q6 -11 3.5 -31.5t-5.5 -26.5q-221 0 -284 22q-78 28 -136 86q-55 54 -450 506q-4 6 -18 6q-10 0 -18 -4v-372q0 -116 10 -148q4 -14 56 -23t82 -9q6 -8 6.5 -32t-6.5 -32q-205 10 -234 10q-31 0 -236 -10q-7 8 -6.5 32
t6.5 32q30 0 82 9t56 23q10 32 10 148v842q0 116 -10 148q-4 14 -56 23t-82 9q-6 8 -6.5 32t6.5 32q205 -10 236 -10z" />
    <glyph glyph-name="L" unicode="L" horiz-adv-x="1128" 
d="M413 232q0 -134 12 -144q18 -14 44.5 -17t97.5 -3h114q63 0 129 13.5t105 40.5q82 56 126 202q3 12 28 12q38 0 50 -12l-30 -83l-33.5 -92.5t-26 -80.5t-18.5 -76q-103 0 -323 4t-359 4q-49 0 -125 -3t-113 -3q-7 8 -6.5 29t6.5 29q30 0 82 9t56 23q10 32 10 148v854
q0 116 -10 148q-4 14 -56 23t-82 9q-6 8 -6.5 29t6.5 29q205 -10 236 -10q29 0 234 10q7 -8 6.5 -29t-6.5 -29q-30 0 -82 -9t-56 -23q-12 -38 -10 -148v-854z" />
    <glyph glyph-name="M" unicode="M" horiz-adv-x="1814" 
d="M325 1314q52 0 162 10q17 -54 90.5 -230l175.5 -418.5l158 -383.5q2 -4 8 -4q7 0 10 8l306 788l88 240q128 -8 158 -8q124 0 224 8l6 -58q-28 0 -81.5 -11.5t-60.5 -24.5q-10 -22 -10 -76q2 -61 5.5 -215.5l8 -362l6.5 -296.5q4 -140 24 -194q6 -18 57.5 -26t82.5 -8
q7 -12 7 -31t-3 -27q-200 10 -238 10q-41 0 -78 -1.5t-84 -4.5t-78 -4q-4 4 -4.5 24.5t4.5 33.5q24 0 69 6.5t61 15.5q18 10 18 84q0 14 -2 57.5t-2 58.5q-17 616 -26 856q0 11 -4.5 25.5t-13.5 14.5q-4 0 -10 -14l-422 -1058q-10 -22 -36 -60.5t-40 -41.5q-3 -1 -18 4
l-488 1168q-4 -192 -10.5 -442.5l-11 -411t-4.5 -164.5q0 -41 8 -62q8 -19 66 -27.5t92 -8.5q7 -8 7 -29t-3 -29q-27 1 -67 4t-73 4.5t-72 1.5q-41 0 -76.5 -1.5t-80.5 -4.5t-77 -4q-4 4 -4.5 24.5t4.5 33.5q33 0 91.5 9.5t70.5 26.5q21 30 24 100q28 747 28 956q0 58 -8 80
q-5 16 -59.5 29t-80.5 13q-3 0 -3 27.5t3 30.5q35 -2 70.5 -4.5t65 -4t70.5 -1.5z" />
    <glyph glyph-name="N" unicode="N" horiz-adv-x="1552" 
d="M286 1320q96 0 152 4q50 -78 360 -455.5t424 -536.5v116v642q0 62 -3 89t-17 49q-8 14 -65.5 27t-86.5 13q-7 10 -7.5 30t3.5 28q200 -10 230 -10q41 0 72.5 1.5t69.5 4.5t72 4q15 -25 0 -58q-28 0 -87.5 -12t-68.5 -28q-13 -21 -16.5 -48t-3.5 -88v-814q0 -172 4 -276
q-2 -12 -26 -12q-11 0 -31.5 11t-38.5 35l-872 1102v-908q0 -62 3 -89t17 -49q8 -14 64.5 -27t85.5 -13q7 -10 7.5 -30t-3.5 -28q-200 10 -228 10q-41 0 -72.5 -1.5t-69.5 -4.5t-72 -4q-15 25 0 58q28 0 87.5 12t68.5 28q13 21 16.5 48t3.5 88v868q0 61 -3.5 88t-16.5 48
q-9 16 -68.5 28t-87.5 12q-15 33 0 58q32 -1 99 -5.5t105 -4.5z" />
    <glyph glyph-name="O" unicode="O" horiz-adv-x="1496" 
d="M716 1266q-87 0 -158.5 -33.5t-119 -88.5t-80.5 -129t-47.5 -153t-14.5 -162q0 -118 32.5 -233t91.5 -209t152.5 -152t205.5 -58q87 0 159 33.5t119.5 89t81 130t48 154.5t14.5 163q0 118 -33 232.5t-92.5 207.5t-153 150.5t-205.5 57.5zM746 1334q131 0 250 -50.5
t208 -138.5t141.5 -215.5t52.5 -273.5q0 -137 -52.5 -262.5t-141 -216t-208.5 -144t-250 -53.5q-131 0 -249.5 50.5t-206.5 138.5t-140 215t-52 272q0 138 52 263.5t139.5 216t207 144.5t249.5 54z" />
    <glyph glyph-name="P" unicode="P" horiz-adv-x="1096" 
d="M1036 958q0 -182 -121.5 -292t-318.5 -110q-54 0 -86 16q-28 19 -28 44q0 2 1 4.5t3 4.5t6 1q51 -14 76 -14q124 0 204 83t80 229q0 153 -84 241.5t-246 88.5q-91 0 -100 -20q-10 -24 -10 -150v-852q0 -116 10 -148q4 -14 56 -23t82 -9q6 -8 6.5 -29t-6.5 -29
q-205 10 -234 10q-31 0 -236 -10q-7 8 -6.5 29t6.5 29q30 0 82 9t56 23q10 32 10 148v854q0 116 -10 148q-4 14 -56 23t-82 9q-6 8 -6.5 29t6.5 29q205 -10 236 -10q34 0 127 2t157 2q109 0 204.5 -40.5t158.5 -124.5t63 -195z" />
    <glyph glyph-name="Q" unicode="Q" horiz-adv-x="1494" 
d="M716 1266q-87 0 -158.5 -33.5t-119 -88.5t-80.5 -129t-47.5 -153t-14.5 -162q0 -118 32.5 -233t91.5 -209t152.5 -152t205.5 -58q87 0 159 33.5t119.5 89t81 130t48 154.5t14.5 163q0 118 -33 232.5t-92.5 207.5t-153 150.5t-205.5 57.5zM746 1334q131 0 250 -50.5
t208 -138.5t141.5 -215.5t52.5 -273.5q0 -226 -131.5 -405t-334.5 -243q55 -26 118.5 -64l97.5 -57t91.5 -34t130.5 -15q100 0 142 12q27 0 36 -14q2 -4 2 -6q-96 -51 -172 -76.5t-160 -25.5q-60 0 -121.5 21.5t-119.5 55.5l-116 70t-131 71.5t-144 53.5q-214 54 -351 232.5
t-137 423.5q0 138 52 263.5t139.5 216t207 144.5t249.5 54z" />
    <glyph glyph-name="R" unicode="R" horiz-adv-x="1242" 
d="M610 1318q70 0 140.5 -22.5t131 -64.5t98 -109.5t37.5 -149.5q0 -103 -83.5 -198.5t-189.5 -131.5q129 -215 323 -470q45 -59 95.5 -86.5t130.5 -33.5q6 -11 3.5 -31.5t-5.5 -26.5q-195 0 -264 24q-64 23 -98 54q-17 15 -32 34q-26 35 -128.5 187l-189.5 287
q-16 24 -60 24h-106v-372q0 -116 10 -148q4 -14 56 -23t82 -9q6 -8 6.5 -29t-6.5 -29q-205 10 -234 10q-31 0 -236 -10q-7 8 -6.5 29t6.5 29q30 0 82 9t56 23q8 25 10 148l-1 854q0 116 -10 148q-4 14 -56 23t-82 9q-6 8 -6.5 29t6.5 29q205 -10 236 -10q34 0 127 2t157 2z
M830 954q0 139 -74.5 219.5t-233.5 80.5q-91 0 -100 -20q-10 -24 -10 -150l1 -418h107q123 0 216.5 80.5t93.5 207.5z" />
    <glyph glyph-name="S" unicode="S" horiz-adv-x="1004" 
d="M522 1332q44 0 82.5 -5t63.5 -11.5l72 -19t84 -20.5q13 -87 28 -284q1 -9 -14 -15.5t-28 -6.5q-14 0 -22 8q-4 31 -17 68t-38 76t-56.5 70.5t-75.5 51.5t-93 20q-58 0 -102.5 -20.5t-68.5 -54.5t-35.5 -71t-11.5 -76q0 -29 7 -56t17.5 -48t30 -42.5t35.5 -36.5t44 -34.5
t46 -31l50.5 -31t49.5 -30.5l52 -32l58.5 -36t57 -38.5t56.5 -44t48 -48t41 -55.5t25 -61.5t10 -70.5q0 -80 -35 -149.5t-93.5 -116.5t-134 -73.5t-155.5 -26.5q-47 0 -101.5 7t-90.5 14t-91.5 20t-76.5 17q-16 79 -29 182.5t-13 127.5q24 24 52 24q19 0 22 -18
q6 -29 17.5 -61.5t37.5 -78.5t60.5 -81t91.5 -60t125 -25q102 0 171 65.5t69 178.5q0 30 -6 57t-15.5 47t-27 39.5t-32.5 32.5t-40.5 29.5t-44 27l-50 27.5l-50.5 28l-53.5 31.5t-51.5 31.5t-54.5 36.5l-48 37.5t-47.5 43.5l-36 45.5t-31.5 53t-17.5 56.5t-8 64.5
q0 102 56.5 184t145.5 125t190 43z" />
    <glyph glyph-name="T" unicode="T" horiz-adv-x="1252" 
d="M1016 1322q23 0 62 10t58 20q23 12 38 4q24 -209 52 -344q-16 -16 -38 -14q-21 0 -28 10q-22 111 -71 177.5t-121 66.5h-254v-1020q0 -116 10 -148q4 -14 56 -23t82 -9q6 -8 6.5 -29t-6.5 -29q-205 10 -234 10q-31 0 -236 -10q-7 8 -6.5 29t6.5 29q30 0 82 9t56 23
q10 32 10 148v1020h-258q-72 0 -121 -66.5t-71 -177.5q-7 -10 -28 -10q-22 -2 -38 14q28 135 52 344q17 8 46 -6q19 -10 54 -19t58 -9h782z" />
    <glyph glyph-name="U" unicode="U" horiz-adv-x="1446" 
d="M295 1314q29 0 234 10q7 -8 6.5 -29t-6.5 -29q-30 0 -82 -9t-56 -23q-10 -32 -10 -148v-494q0 -246 98 -368q94 -116 274 -116q380 0 388 440v542q0 62 -3 89t-17 49q-8 14 -61.5 27t-82.5 13q-7 10 -7.5 30t3.5 28q200 -10 222 -10q41 0 72.5 1.5t69.5 4.5t72 4
q15 -25 0 -58q-28 0 -87.5 -12t-68.5 -28q-13 -21 -16.5 -48t-3.5 -88v-540q0 -288 -138 -424t-384 -136q-219 0 -357 132q-147 139 -147 378v584q0 116 -10 148q-4 14 -56 23t-82 9q-6 8 -6.5 29t6.5 29q205 -10 236 -10z" />
    <glyph glyph-name="V" unicode="V" horiz-adv-x="1276" 
d="M219 1314q48 0 248 10q3 -9 2.5 -33t-6.5 -25q-9 0 -26 -2.5t-39.5 -9t-38.5 -21t-16 -33.5q0 -41 35 -136l298 -806q7 14 59 141.5l128.5 316.5l131.5 330q36 92 36 140q0 22 -16.5 39t-41 24.5t-43.5 11t-31 3.5q-7 3 -7 26.5t7 31.5q148 -8 208 -8q41 0 70.5 1.5
t63 4.5t62.5 4q4 -8 2.5 -33t-6.5 -25q-22 0 -64 -13t-64 -39q-38 -44 -100 -202l-388 -948q-28 -68 -76 -68q-3 0 -7 6t-8 16l-5 10l-166.5 441l-213.5 559q-48 125 -92 192q-14 21 -58 33.5t-70 12.5q-3 0 -3 27.5t3 30.5q32 -1 76 -4t79.5 -4.5t76.5 -1.5z" />
    <glyph glyph-name="W" unicode="W" horiz-adv-x="1800" 
d="M235 1314q39 0 73 1.5t75.5 4.5t67.5 4q3 -9 2.5 -33t-6.5 -25q-9 0 -26 -2.5t-39.5 -9t-38.5 -21t-16 -33.5t30 -130q25 -91 111 -371.5l122 -402.5l162.5 519.5l139.5 442.5q8 27 31 46.5t41 19.5q9 0 24 -32q263 -828 318 -990l71.5 252l73.5 258l64 236q24 96 24 140
q0 22 -17.5 39t-42 24.5t-44.5 11t-32 3.5q-7 3 -7 26.5t7 31.5q185 -10 216 -10q41 0 69 1.5t60 4.5t61 4q4 -8 2.5 -33t-6.5 -25q-17 0 -59 -15t-68 -37q-37 -31 -72 -152l-137.5 -479.5l-149.5 -518.5q-7 -26 -31.5 -47t-44.5 -21q-5 0 -11.5 12t-8.5 20l-71.5 212.5
l-87 263l-81.5 247.5l-63 192.5t-24 72.5l-149.5 -471.5t-151.5 -480.5q-7 -26 -31.5 -47t-44.5 -21q-5 0 -11.5 12t-8.5 20l-174.5 563.5l-145.5 472.5q-2 8 -9 31.5l-9 30t-8 24t-9.5 24l-9.5 18t-12.5 19t-14.5 15.5q-19 18 -56.5 29t-59.5 11q-3 0 -3 27.5t3 30.5
q230 -10 244 -10z" />
    <glyph glyph-name="X" unicode="X" horiz-adv-x="1336" 
d="M319 1314q56 0 256 10q4 -9 3.5 -33.5t-7.5 -24.5q-19 0 -44 -4.5t-50.5 -20t-25.5 -39.5q0 -26 24 -60l232 -356l87 115.5l86.5 114l65.5 89t52 75.5q9 14 9 32q0 11 -9.5 21.5t-41.5 20.5t-84 10q-6 1 -7.5 24.5t3.5 33.5q133 -10 207 -10q100 0 220 10q5 -7 4.5 -28.5
t-8.5 -29.5q-15 0 -40.5 -4.5t-68 -24.5t-69.5 -51q-182 -216 -368 -464l394 -588q26 -40 82.5 -60t113.5 -20q5 -9 4.5 -31t-2.5 -27q-27 1 -66.5 4t-71 4.5t-68.5 1.5q-50 0 -95 -1.5t-102 -4.5t-95 -4q-7 8 -7 33t7 25q27 0 71.5 15.5t44.5 40.5q0 4 -10 24l-305 470
l-203 -279t-128 -191q-10 -30 -10 -32q0 -13 14.5 -23.5t50.5 -17.5t89 -7q6 -8 6.5 -31t-2.5 -27q-185 10 -226 10q-46 0 -246 -10q-4 10 -2 31.5t6 26.5q34 0 106 21t108 67l130 170.5l137 185l125 168.5l-282 432q-36 56 -63.5 85.5t-68.5 52.5q-24 14 -58 23t-54 9
q-7 0 -7 25t7 33q34 -1 82 -4t86 -4.5t82 -1.5z" />
    <glyph glyph-name="Y" unicode="Y" horiz-adv-x="1196" 
d="M522 232v302q0 28 -14 56l-146.5 262l-137.5 244q-31 54 -59.5 83.5t-72.5 54.5q-24 14 -58 23t-54 9q-8 0 -8 25t8 33q34 -1 82 -4t86 -4.5t82 -1.5q56 0 256 10q4 -9 3.5 -33.5t-7.5 -24.5q-19 0 -44 -4.5t-50.5 -20t-25.5 -39.5q0 -21 24 -60l278 -480
q68 122 151.5 289.5t108.5 228.5q6 14 6 30q0 12 -10.5 23t-44 21t-85.5 10q-4 0 -5.5 27t1.5 31q185 -10 200 -10q47 0 81.5 1.5t73.5 4.5t65 4q3 -9 1.5 -33.5t-5.5 -24.5q-14 0 -29.5 -1.5t-46.5 -8t-58.5 -24.5t-43.5 -46l-316 -582q-10 -18 -10 -62l-2 -308
q0 -116 10 -148q4 -14 56 -23t82 -9q6 -8 6.5 -29t-6.5 -29q-205 10 -234 10q-31 0 -236 -10q-7 8 -6.5 29t6.5 29q30 0 82 9t56 23q10 32 10 148z" />
    <glyph glyph-name="Z" unicode="Z" horiz-adv-x="1266" 
d="M432 1252q-100 0 -169 -68.5t-103 -193.5q-5 -8 -22 -8q-13 0 -30 5.5t-22 10.5q47 128 66 340q112 -16 164 -16h388q140 0 420 20q7 -2 21.5 -17.5t14.5 -26.5q-2 -7 -214 -314l-422 -610l-210 -304h522q117 0 186 71q10 11 20 23.5t17 23t16 27t13 24.5t12 27l10 24
l10 26t8 22q3 6 28 6q30 0 48 -18l-31.5 -101.5l-26 -85l-19.5 -66t-19 -73.5h-1002q-17 0 -29.5 9.5t-6.5 18.5l850 1224h-488z" />
    <glyph glyph-name="bracketleft" unicode="[" horiz-adv-x="740" 
d="M338 1454l306 12l5 -11q1 -4 1 -7q0 -22 -17 -31q-2 -1 -3 -1q-76 -26 -234 -46v-2064l134 -21q65 -13 100 -25q20 -11 20 -32q0 -6 -2 -10l-2 -6l-2 -2l-180 10q-66 2 -126 2q-33 4 -38 46v2140q0 30 19 41q8 5 19 5z" />
    <glyph glyph-name="backslash" unicode="\" horiz-adv-x="706" 
d="M88 1438q22 0 41 -6.5t28.5 -13t10.5 -10.5l507 -1775l-3 -3q-2 -4 -11 -7.5t-22 -3.5q-30 -1 -51 15q-23 17 -27 31l-499 1755q6 18 26 18z" />
    <glyph glyph-name="bracketright" unicode="]" horiz-adv-x="740" 
d="M402 1454q11 0 19 -5q19 -11 19 -41v-2140q-5 -42 -38 -46q-60 0 -126 -2l-180 -10l-2 2l-2 6q-2 4 -2 10q0 21 20 32q35 12 100 25l134 21v2064q-158 20 -234 46q-1 0 -3 1q-17 9 -17 31q0 3 1 7l5 11z" />
    <glyph glyph-name="asciicircum" unicode="^" horiz-adv-x="780" 
d="M372 1290q19 0 32 -26q36 -71 68 -128l78 -135l72 -123q0 -14 -10 -23t-20 -9l-96 108q-56 64 -90 107l-34 43q-126 -162 -218 -258q-10 0 -21 9t-11 23l73 124l77.5 132.5t69.5 129.5q13 26 30 26z" />
    <glyph glyph-name="underscore" unicode="_" horiz-adv-x="1010" 
d="M28 -66q10 92 30 92h898q8 0 8 -10q0 -17 -20 -90q-2 -5 -5 -8.5t-5 -3.5h-2h-890q-14 0 -14 20z" />
    <glyph glyph-name="grave" unicode="`" horiz-adv-x="684" 
d="M304 1368q13 0 26 -3.5t19.5 -7t8.5 -5.5q48 -60 121 -164.5t73 -113.5q0 -26 -18 -26q-11 0 -85 51.5t-145.5 116.5t-71.5 94q0 10 2.5 20.5t20 24t49.5 13.5z" />
    <glyph glyph-name="a" unicode="a" horiz-adv-x="862" 
d="M374 92q49 0 111.5 32.5t62.5 49.5v272q-155 -46 -186 -58q-57 -22 -89.5 -61.5t-32.5 -94.5q0 -56 39 -98t95 -42zM482 872q87 0 152.5 -80t65.5 -194v-412q0 -94 62 -94q9 0 17.5 1.5t14.5 4t12.5 6t10 6t7 5.5t4.5 3q8 0 8 -16q0 -21 -10 -38q-23 -21 -72.5 -48.5
t-77.5 -27.5q-42 0 -77 40.5t-45 89.5q-29 -29 -114.5 -81.5t-131.5 -52.5q-99 0 -166.5 66.5t-67.5 163.5q0 57 31.5 101.5t68.5 58.5l120 42l145.5 51t84.5 33q15 6 19.5 15t4.5 35v54q0 71 -50.5 131.5t-121.5 60.5q-50 0 -74.5 -30.5t-35.5 -93.5q-17 -96 -94 -96
q-30 0 -49 26t-19 58q0 8 4.5 24.5t9.5 23.5q62 58 164.5 111t199.5 53z" />
    <glyph glyph-name="b" unicode="b" horiz-adv-x="996" 
d="M423 -14q-43 0 -148 30q-5 1 -21 6t-22.5 6.5t-20.5 4t-22.5 2.5t-20.5 -1.5t-23 -5.5q-7 0 -16.5 17.5t-9.5 26.5q24 53 24 148v896q0 80 -10 104q-15 36 -122 36q-1 0 -2 12.5t-0.5 25.5t4.5 14q138 14 284 80q7 0 14.5 -10.5t7.5 -21.5q-22 -64 -22 -174v-394v-9
t1.5 -8.5t3.5 -5t7 2.5q41 30 117 69t125 39q86 0 157.5 -38t116 -99t68.5 -132t24 -141q0 -97 -37.5 -185.5t-102.5 -153t-157.5 -103t-196.5 -38.5zM455 758q-36 0 -84 -19t-64 -35q-10 -10 -10 -22v-486q0 -61 58 -101.5t128 -40.5t132 49.5t98 127t36 157.5
q0 173 -79.5 271.5t-214.5 98.5z" />
    <glyph glyph-name="c" unicode="c" horiz-adv-x="846" 
d="M764 772q0 -49 -23 -72.5t-53 -23.5q-20 0 -40 13t-42.5 33.5t-33.5 27.5q-34 23 -55.5 30.5t-58.5 7.5q-86 0 -155 -92.5t-69 -241.5q0 -168 90.5 -253t233.5 -85q72 0 126.5 33t85.5 69q1 0 5 -3.5t7.5 -10.5t3.5 -14q0 -16 -12 -36q-16 -26 -40 -52t-60 -54t-86.5 -46
t-105.5 -18q-117 0 -211 58t-143.5 149.5t-49.5 196.5q0 84 30.5 162t81 136t113.5 101.5t130.5 66t130.5 22.5q108 0 180 -48q7 -7 13.5 -24.5t6.5 -31.5z" />
    <glyph glyph-name="d" unicode="d" horiz-adv-x="1030" 
d="M554 876q30 0 76 -7t62 -13q10 0 10 42v218q0 80 -10 104q-15 36 -122 36q-1 0 -2 12.5t-0.5 25.5t4.5 14q138 14 284 80q7 0 14.5 -10.5t7.5 -21.5q-22 -64 -22 -174v-856q0 -163 14 -196q6 -12 25 -20t38 -10.5t36.5 -4t18.5 -1.5q6 -3 6 -24q0 -6 -5 -18t-11 -12
q-29 -2 -66.5 -8t-70 -14t-60.5 -16l-45 -13l-18 -5q-16 0 -16 38v70q-2 13 -6 12q-30 -32 -116 -76t-150 -44q-140 0 -246 124.5t-106 303.5q0 93 49 182t121.5 149t155 96.5t150.5 36.5zM490 792q-109 0 -176.5 -99.5t-67.5 -232.5q0 -148 75.5 -250t206.5 -102
q64 0 119 27t55 53v506q0 35 -65 66.5t-147 31.5z" />
    <glyph glyph-name="e" unicode="e" horiz-adv-x="860" 
d="M232 570h326q43 0 46 46q1 20 -8 50t-27 62t-52 54t-77 22q-47 0 -86 -24t-61.5 -58.5t-37 -69t-20 -58.5t-3.5 -24zM222 496q-4 -183 90.5 -283.5t235.5 -100.5q72 0 130.5 35t89.5 71q1 0 5 -3.5t7.5 -10.5t3.5 -14q0 -16 -12 -36q-16 -26 -40 -52t-60 -54t-86.5 -46
t-105.5 -18q-175 0 -287.5 118.5t-112.5 297.5q0 97 37 187t94 152t127 99.5t136 37.5q68 0 123 -21t87 -51.5t53 -69.5t29 -71t8 -59q0 -46 -10.5 -69.5t-37.5 -24.5q-41 -3 -259.5 -8.5t-244.5 -5.5z" />
    <glyph glyph-name="f" unicode="f" horiz-adv-x="616" 
d="M539 1394q43 0 56.5 -4t37.5 -20q7 -7 13.5 -24.5t6.5 -31.5q0 -25 -8.5 -42.5t-22.5 -25t-25.5 -10t-23.5 -2.5q-18 0 -58 22q-33 18 -58 18q-49 0 -80 -49.5t-30 -138.5v-248h236q10 0 10 -22q0 -32 -28 -60h-218v-524q0 -116 10 -148q4 -14 54 -23t80 -9q6 -8 6.5 -29
t-6.5 -29q-205 10 -222 10q-35 0 -67.5 -1.5t-74.5 -4.5t-70 -4q-7 8 -6.5 29t6.5 29q29 0 75.5 9t50.5 23q10 32 10 148v524h-116q-10 0 -10 18q0 5 22 30.5t30 33.5h74v38q0 103 37 202.5t90.5 166.5t113 108t105.5 41z" />
    <glyph glyph-name="g" unicode="g" horiz-adv-x="932" 
d="M430 818q-81 0 -128.5 -71t-47.5 -163q0 -98 52.5 -174t139.5 -76q78 0 124 69.5t46 158.5q0 102 -49.5 179t-136.5 77zM510 -8q-168 0 -186 -10q-44 -25 -82 -62t-38 -72q0 -100 71.5 -162t196.5 -62q68 0 138.5 30t117 80.5t46.5 103.5q0 23 -15 48.5t-45 50t-83.5 40
t-120.5 15.5zM602 134q120 0 215 -63.5t95 -146.5q0 -61 -43 -128t-112.5 -122t-167 -91t-197.5 -37q-85 -1 -162 25t-130.5 83.5t-53.5 135.5q0 31 22.5 64t59 61t68 47.5t62.5 35.5q-63 20 -113.5 69t-50.5 117q23 27 80.5 71t91.5 65q-74 41 -120 112t-46 144
q0 121 98.5 211.5t239.5 90.5q24 0 47 -2.5t45 -9.5l34 -10q10 -2 33 -12l23 -10q26 -10 46 -14l214 30q20 -6 20 -20q0 -13 -16 -43.5t-30 -38.5l-132 8q-8 0 -8 -6q14 -14 35 -68.5t21 -113.5q0 -110 -99.5 -202t-238.5 -92q-25 0 -61 6t-51 12q-30 -17 -52 -41.5
t-22 -46.5q0 -20 33.5 -45t86.5 -25h236z" />
    <glyph glyph-name="h" unicode="h" horiz-adv-x="1032" 
d="M615 876q65 0 110 -17t74 -48t45.5 -85t22.5 -118t6 -156v-220q0 -116 10 -148q4 -14 50.5 -23t75.5 -9q6 -8 6.5 -29t-6.5 -29q-205 10 -214 10q-35 0 -67.5 -1.5t-74.5 -4.5t-70 -4q-7 8 -6.5 29t6.5 29q29 0 75.5 9t50.5 23q10 32 10 148v200q0 189 -40.5 258.5
t-155.5 69.5q-34 0 -80.5 -24t-78 -50t-31.5 -36v-418q0 -116 10 -148q4 -14 50.5 -23t75.5 -9q6 -8 6.5 -29t-6.5 -29q-205 10 -214 10q-35 0 -67.5 -1.5t-74.5 -4.5t-70 -4q-7 8 -6.5 29t6.5 29q29 0 75.5 9t50.5 23q10 32 10 148v884q0 80 -10 104q-15 36 -122 36
q-1 0 -2 12.5t-0.5 25.5t4.5 14q138 14 284 80q7 0 14.5 -10.5t7.5 -21.5q-22 -64 -22 -174v-452q0 -4 6 -4q2 0 6 4q40 44 123 95t147 51z" />
    <glyph glyph-name="i" unicode="i" horiz-adv-x="540" 
d="M171 1186q0 42 29 71t71 29t71 -29t29 -71t-29 -71t-71 -29t-71 29t-29 71zM363 650v-418q0 -116 10 -148q4 -14 50.5 -23t75.5 -9q6 -8 6.5 -29t-6.5 -29q-205 10 -214 10q-35 0 -67.5 -1.5t-74.5 -4.5t-70 -4q-7 8 -6.5 29t6.5 29q29 0 75.5 9t50.5 23q8 25 10 148v372
q0 80 -10 104q-6 15 -38 24t-53.5 10.5t-38.5 1.5q-4 4 -4.5 24t4.5 28q171 23 286 84q7 0 14.5 -12t7.5 -20q-14 -98 -14 -132v-66z" />
    <glyph glyph-name="j" unicode="j" horiz-adv-x="478" 
d="M132 1186q0 42 29 71t71 29t71 -29t29 -71t-29 -71t-71 -29t-71 29t-29 71zM184 90v514q0 80 -10 104q-6 15 -38 24t-53.5 10.5t-38.5 1.5q-4 4 -4.5 24t4.5 28q171 23 286 84q7 0 14.5 -12t7.5 -20q-14 -98 -14 -132v-68v-512q0 -110 -23.5 -204t-58.5 -156.5
t-83.5 -113t-91.5 -78t-89 -46.5q-18 11 -26 30q-2 3 -2 7.5t2 6.5q41 29 67.5 52.5t58 66t49.5 91.5t30.5 125.5t12.5 172.5z" />
    <glyph glyph-name="k" unicode="k" horiz-adv-x="1036" 
d="M333 232q0 -116 10 -148q4 -14 50.5 -23t75.5 -9q6 -8 6.5 -29t-6.5 -29q-205 10 -214 10q-35 0 -67.5 -1.5t-74.5 -4.5t-70 -4q-7 8 -6.5 29t6.5 29q29 0 75.5 9t50.5 23q10 32 10 148v884q0 80 -10 104q-15 36 -122 36q-1 0 -2 12.5t-0.5 25.5t4.5 14q138 14 284 80
q7 0 14.5 -10.5t7.5 -21.5q-22 -64 -22 -174v-712q36 13 164 122l58 48.5l52.5 43t38 32t27 26.5t8.5 16t-4 11t-12 8.5t-16 6t-18.5 4t-18 2t-16.5 1.5t-11 1q-7 11 -5.5 33t9.5 25q97 -10 192 -10q103 0 176 10q6 -9 5.5 -30.5t-5.5 -27.5q-27 0 -76.5 -13t-77.5 -33
q-221 -161 -324 -248l143.5 -158.5l141 -156.5t75.5 -77q36 -29 87.5 -42.5t96.5 -11.5q3 -5 4.5 -22.5t-2.5 -25.5q-28 -12 -130 -12q-80 0 -149 29t-97 59l-286 310q-3 4 -11 8q-8 6 -14 8l-5 2v-176z" />
    <glyph glyph-name="l" unicode="l" horiz-adv-x="510" 
d="M179 1116q0 80 -10 104q-15 36 -122 36q-1 0 -2 12.5t-0.5 25.5t4.5 14q138 14 284 80q7 0 14.5 -10.5t7.5 -21.5q-22 -64 -22 -174v-950q0 -116 10 -148q4 -14 50.5 -23t75.5 -9q6 -8 6.5 -29t-6.5 -29q-205 10 -214 10q-35 0 -67.5 -1.5t-74.5 -4.5t-70 -4
q-7 8 -6.5 29t6.5 29q29 0 75.5 9t50.5 23q10 32 10 148v884z" />
    <glyph glyph-name="m" unicode="m" horiz-adv-x="1580" 
d="M639 876q91 0 148 -39t80 -127q183 166 294 166q65 0 110 -17t74 -48t45.5 -85t22.5 -118t6 -156v-220q0 -116 10 -148q4 -14 50.5 -23t75.5 -9q6 -8 6.5 -29t-6.5 -29q-205 10 -214 10q-35 0 -67.5 -1.5t-74.5 -4.5t-70 -4q-7 8 -6.5 29t6.5 29q29 0 75.5 9t50.5 23
q10 32 10 148v214q0 64 -4 109t-15.5 86.5t-32 65.5t-54.5 38.5t-82 14.5q-44 0 -92.5 -26t-76 -52.5t-27.5 -35.5q0 -1 1 -12.5t1 -13.5q8 -51 8 -142v-246q0 -116 10 -148q4 -14 50.5 -23t75.5 -9q6 -8 6.5 -29t-6.5 -29q-205 10 -214 10q-35 0 -67.5 -1.5t-74.5 -4.5
t-70 -4q-7 8 -6.5 29t6.5 29q29 0 75.5 9t50.5 23q10 32 10 148v204q0 184 -40 254t-148 70q-61 0 -123.5 -43t-62.5 -67v-418q0 -116 10 -148q4 -14 50.5 -23t75.5 -9q6 -8 6.5 -29t-6.5 -29q-205 10 -214 10q-35 0 -67.5 -1.5t-74.5 -4.5t-70 -4q-7 8 -6.5 29t6.5 29
q29 0 75.5 9t50.5 23q10 32 10 148v364q0 88 -10 112q-6 15 -38 24t-53.5 10.5t-38.5 1.5q-4 4 -4.5 24t4.5 28q171 23 286 84q7 0 14.5 -12t7.5 -20q-12 -84 -12 -104q0 -8 4 -8q2 0 6 4q93 78 152 107q60 29 112 29z" />
    <glyph glyph-name="n" unicode="n" horiz-adv-x="1064" 
d="M645 876q65 0 110 -17t74 -48t45.5 -85t22.5 -118t6 -156v-220q0 -116 10 -148q4 -14 50.5 -23t75.5 -9q6 -8 6.5 -29t-6.5 -29q-205 10 -214 10q-35 0 -67.5 -1.5t-74.5 -4.5t-70 -4q-7 8 -6.5 29t6.5 29q29 0 75.5 9t50.5 23q10 32 10 148v200q0 189 -40.5 258.5
t-155.5 69.5q-34 0 -80.5 -24t-78 -50t-31.5 -36v-418q0 -116 10 -148q4 -14 50.5 -23t75.5 -9q6 -8 6.5 -29t-6.5 -29q-205 10 -214 10q-35 0 -67.5 -1.5t-74.5 -4.5t-70 -4q-7 8 -6.5 29t6.5 29q29 0 75.5 9t50.5 23q10 32 10 148v364q0 88 -10 112q-6 15 -38 24
t-53.5 10.5t-38.5 1.5q-4 4 -4.5 24t4.5 28q171 23 286 84q7 0 14.5 -12t7.5 -20q-12 -84 -12 -114q0 -8 4 -8q2 0 6 4q40 44 123 95t147 51z" />
    <glyph glyph-name="o" unicode="o" horiz-adv-x="1018" 
d="M486 812q-81 0 -135 -52t-75.5 -127t-21.5 -167q0 -101 31 -193.5t96 -156.5t151 -64q81 0 135 52t75.5 126.5t21.5 165.5q0 100 -31.5 193.5t-96.5 158t-150 64.5zM508 878q195 0 311.5 -122.5t116.5 -313.5q0 -194 -121.5 -325t-302.5 -131q-195 0 -312.5 124.5
t-117.5 315.5q0 193 122 322.5t304 129.5z" />
    <glyph glyph-name="p" unicode="p" horiz-adv-x="1020" 
d="M581 876q88 0 160 -39.5t114.5 -102.5t65 -133t22.5 -137q0 -94 -41.5 -183.5t-107.5 -154t-150.5 -103.5t-168.5 -39q-70 0 -140 22q-8 -10 -8 -26v-194q0 -116 10 -148q4 -14 50.5 -23t75.5 -9q6 -8 6.5 -29t-6.5 -29q-205 10 -214 10q-35 0 -67.5 -1.5t-74.5 -4.5
t-70 -4q-7 8 -6.5 29t6.5 29q29 0 75.5 9t50.5 23q8 25 10 148v818q0 80 -10 104q-6 15 -38 24t-53.5 10.5t-38.5 1.5q-4 4 -4.5 24t4.5 28q171 23 286 84q7 0 14.5 -12t7.5 -20q0 -1 -7 -36.5t-7 -45.5q0 -8 4 -8q2 0 6 4q47 40 118.5 77t125.5 37zM495 758
q-58 0 -113 -27.5t-55 -50.5v-480q0 -70 60.5 -108t125.5 -38q79 0 140.5 51t91.5 126.5t30 158.5q0 172 -80.5 270t-199.5 98z" />
    <glyph glyph-name="q" unicode="q" horiz-adv-x="994" 
d="M512 804q-67 0 -120.5 -34.5t-83.5 -87.5t-46 -108t-16 -104q0 -172 81.5 -268t210.5 -96q57 0 108.5 28t51.5 52v478q0 61 -57.5 100.5t-128.5 39.5zM572 876q29 0 116.5 -25t121.5 -25q22 0 40 6q8 0 17 -17.5t9 -26.5q-24 -53 -24 -148v-856q0 -116 10 -148
q4 -14 50.5 -23t75.5 -9q6 -8 6.5 -29t-6.5 -29q-205 10 -214 10q-35 0 -67.5 -1.5t-74.5 -4.5t-70 -4q-7 8 -6.5 29t6.5 29q29 0 75.5 9t50.5 23q10 32 10 148v296q0 10 -3.5 17.5t-10.5 2.5q-35 -31 -114.5 -72.5t-135.5 -41.5q-66 0 -125 25.5t-100 68t-71.5 96.5
t-45 111t-14.5 111q0 79 30.5 154.5t82 132.5t115 101t133 67t133.5 23z" />
    <glyph glyph-name="r" unicode="r" horiz-adv-x="766" 
d="M607 874q39 0 73.5 -17t48.5 -41q8 -24 8 -54q0 -49 -23 -76.5t-43 -27.5q-13 0 -24.5 5.5t-29 18t-20.5 14.5q-36 24 -74 24q-58 0 -109 -68.5t-51 -111.5v-308q0 -116 10 -148q4 -14 70.5 -23t101.5 -9q6 -8 6.5 -29t-6.5 -29q-205 10 -248 10q-19 0 -224 -10
q-7 8 -6.5 29t6.5 29q29 0 75.5 9t50.5 23q8 25 10 148v372q0 80 -10 104q-6 15 -38 24t-53.5 10.5t-38.5 1.5q-4 4 -4.5 24t4.5 28q171 23 286 84q7 0 14.5 -12t7.5 -20q-2 -12 -8 -90.5t-6 -93.5q0 -4 2 -5.5t3.5 -1t2.5 2.5q34 74 104 144t132 70z" />
    <glyph glyph-name="s" unicode="s" horiz-adv-x="738" 
d="M390 874q45 0 111 -11.5t93 -14.5q20 -90 24 -220q0 -10 -20 -10q-22 0 -34 10q-18 67 -64 125.5t-104 58.5q-69 0 -105.5 -35t-36.5 -91q0 -25 7.5 -46.5t16.5 -35.5t30.5 -31t33.5 -25t43 -25.5l43 -24.5l40 -23t45.5 -27.5l42 -28t41.5 -34t30.5 -37t23.5 -45t7 -49.5
q0 -119 -91.5 -197.5t-216.5 -78.5q-41 0 -76.5 5.5t-83 16.5t-74.5 16q-12 31 -23 99.5t-11 108.5q16 12 36 12q12 0 18 -4q20 -71 81 -130.5t135 -59.5q63 0 103.5 38.5t40.5 105.5q0 35 -12.5 63t-41.5 52t-52 38.5t-70 39t-68 37.5q-70 40 -111 90.5t-41 123.5
q0 107 87 175.5t203 68.5z" />
    <glyph glyph-name="t" unicode="t" horiz-adv-x="622" 
d="M320 864h258q10 0 10 -22q0 -32 -28 -60h-240v-524q0 -164 132 -164q66 0 130 46q6 -3 6 -14q0 -22 -8 -30q-20 -22 -44.5 -43.5t-70.5 -44t-91 -22.5q-41 0 -76 10t-66 33t-48.5 67t-17.5 106v580h-116q-10 0 -10 18q0 5 22 30.5t30 33.5h74v126q16 19 46 51.5l52 56.5
t24 26q5 5 12.5 7t13.5 0.5t6 -5.5v-262z" />
    <glyph glyph-name="u" unicode="u" horiz-adv-x="1030" 
d="M699 640q0 78 -16 108q-22 40 -112 40q-5 5 -5.5 24.5t5.5 27.5q164 6 274 40q7 0 14.5 -19.5t7.5 -28.5q-14 -28 -14 -130v-92v-328q0 -87 14 -152q3 -13 22 -21t38.5 -10.5t38 -3.5t19.5 -1q6 -3 6 -22q0 -6 -5 -19t-11 -13q-29 -2 -66.5 -8t-70 -14t-60.5 -16l-46 -13
l-17 -5q-7 0 -11.5 10t-4.5 22v92l-4 10q-46 -49 -129 -90.5t-155 -41.5q-61 0 -107 26t-72.5 65t-43 95t-22 105.5t-5.5 106.5v256q0 78 -16 108q-22 40 -112 40q-5 5 -5.5 24.5t5.5 27.5q164 6 274 40q7 0 14.5 -15.5t7.5 -24.5q-14 -28 -14 -138v-86v-208q0 -160 48 -235
t152 -75q65 0 125 36.5t59 73.5v432z" />
    <glyph glyph-name="v" unicode="v" horiz-adv-x="946" 
d="M205 850q34 0 64.5 1.5t69 4.5t66.5 4q4 -9 1.5 -33.5t-9.5 -24.5q-13 0 -32.5 -2t-42.5 -10.5t-23 -21.5q0 -4 2 -8l220 -540l178 454q12 29 12 64q0 30 -32 47t-84 17q-7 0 -7 25t7 33q21 -1 48 -4t52 -4.5t62 -1.5q34 0 61 1.5t61 4.5t64 4q6 -9 3 -33.5t-9 -24.5
q-26 0 -68.5 -16t-57.5 -52l-300 -722q-4 -11 -23 -22.5t-29 -11.5q-14 0 -18 8l-112 274l-115 282.5t-99 219.5q-19 40 -110 40q-12 29 0 58q29 -1 66 -4t67.5 -4.5t66.5 -1.5z" />
    <glyph glyph-name="w" unicode="w" horiz-adv-x="1442" 
d="M202 850q34 0 64.5 1.5t69 4.5t66.5 4q3 -9 2.5 -32t-6.5 -26q-15 0 -34 -2t-42.5 -13.5t-23.5 -30.5q0 -2 10 -30q21 -55 206 -492l55 139l47 117.5l31.5 80.5t22 59.5t6.5 23.5q0 12 -15 48t-33 62q-26 38 -88 38q-8 4 -8 27t8 31q25 -1 80 -5.5t102 -4.5q8 0 208 10
q4 -10 4 -31t-6 -27q-100 0 -100 -64q0 -4 5 -22l14 -41t26 -69.5l35 -89l49 -124.5l59 -152q149 371 175 448q11 32 11 48q0 20 -10.5 33.5t-34 20t-35.5 8.5t-40 4q-6 5 -6.5 27.5t6.5 30.5q28 -1 77.5 -5.5t96.5 -4.5q34 0 60.5 1.5t60 4.5t63.5 4q3 -3 2.5 -27.5
t-8.5 -30.5q-28 0 -74.5 -17t-61.5 -55l-290 -718q-4 -12 -18.5 -23t-23.5 -11q-20 0 -24 8l-222 578l-216 -548q-2 -7 -19 -22.5t-31 -15.5t-18 8q-167 418 -324 772q-19 44 -108 44q-4 9 -4 29t4 29q30 -1 66 -4t66 -4.5t66 -1.5z" />
    <glyph glyph-name="x" unicode="x" horiz-adv-x="952" 
d="M246 850q92 0 202 10q2 -10 2 -30t-6 -28q-80 0 -80 -34q0 -7 10 -24l132 -210q16 26 57.5 83t63 93t21.5 54q0 14 -16.5 22.5t-34.5 11t-39 3.5t-22 1q-3 2 -3.5 27t3.5 31q29 -1 67 -4t68.5 -4.5t66.5 -1.5q90 0 160 10q2 -8 1.5 -33t-3.5 -25q-125 -7 -154 -44
l-76 -106.5l-83.5 -116.5t-40.5 -55l240 -356q50 -72 154 -72q2 0 2.5 -13t-0.5 -27t-4 -18q-26 1 -62 4t-64.5 4.5t-61.5 1.5q-38 0 -72 -1.5t-77.5 -4.5t-72.5 -4q-4 10 -3.5 34t5.5 24q29 2 56.5 11t27.5 25q0 4 -4 12q-104 170 -158 250l-61.5 -90.5l-82.5 -125.5
q-12 -19 -12 -38q0 -12 8 -20.5t26.5 -13t29 -6t35.5 -3.5q7 -1 11 -1q2 0 3 -12.5t0 -26.5t-5 -19q-28 1 -63 4t-63.5 4.5t-63.5 1.5q-34 0 -62.5 -1.5t-63.5 -4.5t-62 -4q-3 12 -1.5 31.5t5.5 26.5q4 1 24 4l26.5 4t25 4.5t27 7l23.5 9.5t24.5 12.5t20.5 16t19 20.5
l196 282l-232 346q-15 23 -55.5 33.5t-78.5 10.5q-2 0 -2.5 12t0.5 26t4 20q110 -10 198 -10z" />
    <glyph glyph-name="y" unicode="y" horiz-adv-x="938" 
d="M203 850q115 0 200 10q4 -9 1.5 -33.5t-9.5 -24.5q-13 0 -32.5 -2t-42.5 -10.5t-23 -21.5q0 -4 2 -8l212 -540l178 454q12 29 12 64q0 30 -32 47t-84 17q-7 0 -7 25t7 33q75 -10 180 -10q68 0 168 10q6 -9 3 -33.5t-9 -24.5q-26 0 -68.5 -16t-57.5 -52l-300 -722
q-10 -24 -43 -112t-58 -142t-58 -102q-76 -112 -174 -112q-87 0 -87 86q0 29 24 58q80 0 125 19.5t101 94.5q21 28 55.5 104t40.5 98q-200 510 -314 758q-19 40 -110 40q-3 0 -3 27.5t3 30.5q95 -10 200 -10z" />
    <glyph glyph-name="z" unicode="z" horiz-adv-x="894" 
d="M296 862h256q113 0 244 16q6 -10 6 -48q-530 -754 -530 -760h280q85 0 142.5 53.5t77.5 126.5q2 12 14 12t28 -7.5t24 -16.5q-60 -146 -90 -238h-650q-11 3 -20.5 15.5t-9.5 24.5t2 14l514 738l-280 2q-27 0 -50 -8.5t-36.5 -19.5t-26 -29t-18 -30t-12.5 -30.5t-9 -22.5
q-3 -6 -16.5 -12t-27.5 -6q-22 0 -22 6q24 89 32 236q106 -16 178 -16z" />
    <glyph glyph-name="braceleft" unicode="{" horiz-adv-x="814" 
d="M389 -460q-8 -146 131 -300q18 -24 -3 -47q-23 -21 -48 -1q-160 136 -164 396q-2 118 58 276q56 151 65 213q18 137 -138 231v64q157 94 138 231q-9 64 -65 213q-59 159 -58 275q5 261 164 396q25 21 48 -1q21 -24 2 -48q-139 -154 -130 -299q5 -79 64 -176
q100 -169 71 -357q-29 -180 -152 -266q123 -88 152 -266q29 -189 -71 -357q-59 -98 -64 -177z" />
    <glyph glyph-name="bar" unicode="|" horiz-adv-x="410" 
d="M257 -755q0 -19 -84 -33q-6 -1 -8 -1q-10 0 -11 7q0 1 0.5 4.5t0.5 4.5v2207l2 11q4 3 8 5q46 14 74 14q17 -1 16 -12z" />
    <glyph glyph-name="braceright" unicode="}" horiz-adv-x="814" 
d="M425 -460q-5 79 -64 177q-100 168 -71 357q29 178 152 266q-123 86 -152 266q-29 188 71 357q59 97 64 176q9 145 -130 299q-19 24 2 48q23 22 48 1q159 -135 164 -396q1 -116 -58 -275q-56 -149 -65 -213q-19 -137 138 -231v-64q-156 -94 -138 -231q9 -62 65 -213
q60 -158 58 -276q-4 -260 -164 -396q-25 -20 -48 1q-21 23 -3 47q139 154 131 300z" />
    <glyph glyph-name="asciitilde" unicode="~" horiz-adv-x="1140" 
d="M542 554l-73 26t-70.5 17.5t-86.5 8.5q-53 0 -95 -23.5t-87 -64.5q-18 9 -18 34q0 54 89 105t171 51q44 0 91.5 -9.5t70 -17.5l76.5 -27l73.5 -26t71.5 -17.5t89 -8.5q14 0 28 2.5l24.5 4.5t24 9l20.5 10.5t21.5 14t19 14l21.5 17l21 16.5q18 -9 18 -34
q0 -51 -82.5 -103.5t-173.5 -52.5q-46 0 -92 8.5t-75.5 18t-76.5 27.5z" />
    <glyph glyph-name="exclamdown" unicode="&#xa1;" horiz-adv-x="430" 
d="M106 748q0 45 31.5 78.5t76.5 33.5t78.5 -33.5t33.5 -78.5t-33.5 -76.5t-78.5 -31.5t-76.5 31.5t-31.5 76.5zM206 -446q-43 0 -65.5 35.5t-22.5 80.5q0 16 3 56.5l9 116.5t13.5 158.5l19.5 223l23 269.5q12 24 32 26q21 -8 28 -22q60 -690 60 -828q0 -45 -27.5 -80.5
t-72.5 -35.5z" />
    <glyph glyph-name="cent" unicode="&#xa2;" horiz-adv-x="892" 
d="M776 772q0 -49 -23 -72.5t-53 -23.5q-20 0 -40 13t-42.5 33.5t-33.5 27.5q-34 23 -55.5 30.5t-58.5 7.5q-86 0 -155 -92.5t-69 -241.5q0 -168 90.5 -253t233.5 -85q72 0 126.5 33t85.5 69q1 0 5 -3.5t7.5 -10.5t3.5 -14q0 -16 -12 -36q-16 -26 -40 -52t-60 -54t-86.5 -46
t-105.5 -18q-117 0 -211 58t-143.5 149.5t-49.5 196.5q0 84 30.5 162t81 136t113.5 101.5t130.5 66t130.5 22.5q108 0 180 -48q7 -7 13.5 -24.5t6.5 -31.5zM544 944q56 0 56 -12l-166 -1022q-56 0 -56 14z" />
    <glyph glyph-name="sterling" unicode="&#xa3;" horiz-adv-x="954" 
d="M628 1272q48 0 75.5 -10t68.5 -38q7 -7 13.5 -24.5t6.5 -31.5q0 -49 -23 -72.5t-53 -23.5q-15 0 -31.5 8.5t-26 17t-26 25.5l-22.5 23q-22 21 -36 27.5t-34 6.5q-50 0 -81.5 -38t-43 -94t-11.5 -130q0 -78 21 -200q3 -18 6 -34h331q14 -11 10.5 -26.5t-12 -28
t-16.5 -17.5h-303q5 -42 5 -68q0 -98 -60.5 -198t-117.5 -152q32 16 70 16q36 0 71 -14.5t61.5 -32.5t75 -32.5t108.5 -14.5q38 0 74 19t61.5 49.5t40 52t24.5 41.5q1 0 7.5 -4.5t12.5 -12.5t6 -15q0 -12 -6 -30q-9 -27 -33.5 -63.5t-61.5 -76t-89.5 -66t-107.5 -26.5
q-57 0 -111.5 18t-88.5 39t-75 39t-75 18q-28 0 -47.5 -19.5t-36.5 -49.5t-28 -41q-12 0 -22 15t-10 29q0 56 100 156q43 43 75.5 123t32.5 151q0 19 -21 150h-165q-9 9 11.5 40.5t34.5 31.5h108q-13 89 -14 114q-3 99 29.5 188.5t86 151t123 98t139.5 36.5z" />
    <glyph glyph-name="currency" unicode="&#xa4;" horiz-adv-x="1148" 
d="M588 304q89 0 145.5 84t56.5 200q0 137 -70.5 237.5t-165.5 100.5q-89 0 -146.5 -86t-57.5 -202q0 -137 71.5 -235.5t166.5 -98.5zM796 910l118 110q8 8 25 -4.5t33.5 -36.5t23.5 -47l-120 -112q58 -97 58 -206q0 -119 -66 -216l108 -116q8 -8 -4.5 -25t-36.5 -33.5
t-47 -23.5l-104 110q-95 -70 -212 -70q-129 0 -228 80l-106 -100q-8 -8 -25 4.5t-33.5 36.5t-23.5 47l108 102q-60 95 -60 204q0 131 76 232l-104 112q-8 8 4.5 25t36.5 33.5t47 23.5l104 -110q90 62 204 62q126 0 224 -82z" />
    <glyph glyph-name="yen" unicode="&#xa5;" horiz-adv-x="1344" 
d="M602 436h-196q-9 9 8.5 41.5t31.5 32.5h154q-3 18 -12 36l-146.5 262l-137.5 244q-31 54 -59.5 83.5t-72.5 54.5q-24 14 -58 23t-54 9q-8 0 -8 25t8 33q34 -1 82 -4t86 -4.5t82 -1.5q56 0 256 10q4 -9 3.5 -33.5t-7.5 -24.5q-19 0 -44 -4.5t-50.5 -20t-25.5 -39.5
q0 -21 24 -60l278 -476l156 295.5t108 222.5q6 18 6 30q0 8 -13 18.5t-49.5 21t-87.5 10.5q-4 0 -5.5 27t1.5 31q185 -10 206 -10q47 0 81.5 1.5t73.5 4.5t65 4q3 -9 1.5 -33.5t-5.5 -24.5q-14 0 -29.5 -1.5t-46.5 -8t-58.5 -24.5t-43.5 -46l-316 -582q-8 -15 -10 -48h192
q14 -11 10 -27t-13 -29t-17 -18h-172l-1 -86h193q14 -11 10 -27t-13 -29t-17 -18h-174v-44q0 -116 10 -148q4 -14 56 -23t82 -9q6 -8 6.5 -29t-6.5 -29q-205 10 -234 10q-31 0 -236 -10q-7 8 -6.5 29t6.5 29q30 0 82 9t56 23q10 32 10 148v44h-196q-9 9 8.5 41.5t31.5 32.5
h156v86z" />
    <glyph glyph-name="brokenbar" unicode="&#xa6;" horiz-adv-x="410" 
d="M253 510q-1 -10 -41.5 -20t-51.5 -10q-5 0 -7.5 1.5t-3 3t0 6t0.5 5.5v948q-2 12 10 16q34 10 77 10q8 0 12 -3t4 -6v-3v-948zM150 -770v978q-2 12 10 16q34 10 77 10q8 0 12 -3t4 -6v-3v-978q-1 -10 -41.5 -20t-51.5 -10q-5 0 -7.5 1.5t-3 3t0 6t0.5 5.5z" />
    <glyph glyph-name="section" unicode="&#xa7;" horiz-adv-x="882" 
d="M276 -156q164 0 266 84l23 22q64 54 145 169q98 139 98 239q0 61 -20.5 121t-57.5 113t-72.5 92.5t-81.5 81.5q-95 87 -169.5 179t-74.5 153q0 35 28.5 61t64 36.5t69.5 10.5q32 0 64 -16q2 -1 14 -7.5t17.5 -8.5t17 -5t23.5 -3q23 0 47.5 25t24.5 47q0 28 -12 52
q-37 16 -82 16q-164 0 -266 -84l-23 -22q-64 -54 -145 -169q-98 -139 -98 -239q0 -61 20.5 -121t57.5 -113t72.5 -92.5t81.5 -81.5q95 -87 169.5 -179t74.5 -153q0 -35 -28.5 -61t-64 -36.5t-69.5 -10.5q-32 0 -64 16q-2 1 -14 7.5t-17.5 8.5t-17 5t-23.5 3q-23 0 -47.5 -25
t-24.5 -47q0 -28 12 -52q37 -16 82 -16zM642 103q2 16 2 33q0 26 -7 53t-15.5 48t-28 48.5l-30.5 42.5t-39 43.5t-37.5 37.5l-41.5 38t-37 33q-224 207 -224 400q0 25 3.5 46t13 43t15.5 34.5t24 40.5q1 1 2 3q-2 -16 -2 -33q0 -26 7 -53t15.5 -48t28 -48.5l30.5 -42.5
t39 -43.5t37.5 -37.5l41.5 -38t37 -33q224 -207 224 -400q0 -25 -3.5 -46t-13 -43t-15.5 -34.5t-24 -40.5q-1 -1 -2 -3z" />
    <glyph glyph-name="dieresis" unicode="&#xa8;" horiz-adv-x="754" 
d="M562 1126q37 0 64.5 -28t27.5 -66q0 -37 -28 -63.5t-66 -26.5t-66 27.5t-28 64.5t29 64.5t67 27.5zM196 1126q37 0 64.5 -28t27.5 -66q0 -37 -28 -63.5t-66 -26.5t-66 27.5t-28 64.5t29 64.5t67 27.5z" />
    <glyph glyph-name="copyright" unicode="&#xa9;" horiz-adv-x="1318" 
d="M912 552q0 -9 -15.5 -64.5t-24.5 -59.5q-94 -38 -212 -38q-121 0 -203.5 81.5t-82.5 200.5q0 122 80 208t202 86q125 0 224 -38q32 -114 32 -122q0 -7 -10.5 -12.5t-21.5 -5.5q-6 0 -14 4q-3 13 -12.5 28t-29 34t-57 31.5t-87.5 12.5q-80 0 -136 -62t-56 -146
q0 -112 65.5 -174t144.5 -62q103 0 144 38q10 10 17 26.5t9.5 28t3.5 11.5q37 0 40 -6zM178 684q0 -131 64.5 -242.5t175.5 -176.5t242 -65t242.5 65t176.5 176.5t65 242.5t-65 242.5t-176.5 176.5t-242.5 65t-242 -65t-175.5 -176.5t-64.5 -242.5zM112 684q0 226 160 386
t386 160q149 0 275 -73t199.5 -199t73.5 -274t-73.5 -274t-199.5 -199t-275 -73q-226 0 -386 160t-160 386z" />
    <glyph glyph-name="ordfeminine" unicode="&#xaa;" horiz-adv-x="690" 
d="M302 572q33 0 76.5 27.5t43.5 40.5v170l-42.5 -13l-52 -16t-33.5 -11q-86 -34 -86 -100q0 -39 27.5 -68.5t66.5 -29.5zM376 1112q60 0 106 -55t46 -133v-286q0 -66 42 -66q8 0 16.5 2.5t14 5t10.5 6.5l5 4q6 0 6 -10q0 -14 -8 -26q-15 -15 -49.5 -34.5t-54.5 -19.5
q-29 0 -53.5 28t-30.5 62q-19 -19 -79 -55.5t-91 -36.5q-69 0 -115.5 46t-46.5 114q0 39 22 69.5t48 40.5q230 82 242 88q11 5 13.5 10.5t2.5 23.5v38q0 50 -32 87t-86 37q-35 0 -52.5 -18.5t-25.5 -59.5q-11 -66 -64 -66q-21 0 -34.5 18t-13.5 40q0 24 10 34
q41 39 112.5 75.5t139.5 36.5z" />
    <glyph glyph-name="guillemotleft" unicode="&#xab;" horiz-adv-x="850" 
d="M199 340q0 -210 182 -366q17 -14 7 -32q-11 -19 -35 -7q-119 60 -186 169.5t-67 235.5q0 127 67 236q69 112 186 169q25 12 35 -7q10 -18 -7 -32q-182 -145 -182 -366zM557 340q0 -210 182 -366q17 -14 7 -32q-11 -19 -35 -7q-119 60 -186 169.5t-67 235.5q0 127 67 236
q69 112 186 169q25 12 35 -7q10 -18 -7 -32q-182 -145 -182 -366z" />
    <glyph glyph-name="logicalnot" unicode="&#xac;" horiz-adv-x="1174" 
d="M1032 840v-502q-2 -2 -16 -8.5t-37 -14t-41 -7.5q-20 2 -26 14v406h-810q-12 0 -12 20q10 92 30 92h912z" />
    <glyph glyph-name="uni00AD" unicode="&#xad;" horiz-adv-x="756" 
d="M118 420q0 102 24 102h2l482 24h2q12 0 12 -18q0 -44 -6 -71q-8 -27 -14 -32l-6 -5l-482 -22h-4t-6 5.5t-4 16.5z" />
    <glyph glyph-name="registered" unicode="&#xae;" horiz-adv-x="1318" 
d="M646 1105q66 0 123.5 -39.5t57.5 -106.5q0 -44 -33 -83.5t-78 -55.5q60 -98 144 -199q20 -24 40.5 -34.5t54.5 -12.5q3 -4 2 -15.5t-2 -13.5q-108 0 -136 10q-35 12 -55 38q-73 95 -141 202q-6 10 -25 10h-31v-155q0 -49 4 -63q2 -6 24 -9.5t35 -3.5q2 -3 2.5 -14.5
t-2.5 -14.5q-70 4 -107 4q-42 0 -112 -4q-3 3 -2.5 14.5t2.5 14.5q13 0 34.5 3.5t23.5 9.5q5 17 5 63v353q0 45 -5 63q-2 6 -23.5 9.5t-34.5 3.5q-2 3 -2.5 14.5t2.5 14.5q70 -4 114 -4q14 0 54 0.5t67 0.5zM731 939q0 63 -25.5 98t-91.5 35q-40 0 -43 -9q-2 -4 -4 -63v-159
q23 1 38 0q56 0 91 25.5t35 72.5zM178 814q0 -131 64.5 -242.5t175.5 -176.5t242 -65t242.5 65t176.5 176.5t65 242.5t-65 242t-176.5 175.5t-242.5 64.5t-242 -64.5t-175.5 -175.5t-64.5 -242zM112 814q0 226 160 386t386 160q149 0 275 -73t199.5 -199t73.5 -274
q0 -149 -73.5 -275t-199.5 -199.5t-275 -73.5q-148 0 -274 73.5t-199 199.5t-73 275z" />
    <glyph glyph-name="macron" unicode="&#xaf;" horiz-adv-x="676" 
d="M558 1124h-448q-14 7 -8 40.5t20 43.5h448q11 -7 7 -37.5t-19 -46.5z" />
    <glyph glyph-name="degree" unicode="&#xb0;" horiz-adv-x="548" 
d="M150 1072q0 -51 36.5 -87.5t87.5 -36.5t86.5 36.5t35.5 87.5t-35.5 86.5t-86.5 35.5t-87.5 -35.5t-36.5 -86.5zM76 1072q0 81 58.5 138.5t139.5 57.5t138.5 -57.5t57.5 -138.5t-57.5 -139.5t-138.5 -58.5t-139.5 58.5t-58.5 139.5z" />
    <glyph glyph-name="plusminus" unicode="&#xb1;" horiz-adv-x="1096" 
d="M98 124h912q7 0 12.5 -6.5t5.5 -17.5q0 -24 -9.5 -49.5t-22.5 -38.5h-916q-12 0 -12 20q0 13 8.5 47.5t21.5 44.5zM98 722h392v400q59 22 86 22q9 0 15.5 -3t8.5 -6l2 -3v-410h408q7 0 12.5 -6.5t5.5 -17.5q0 -24 -9.5 -49.5t-22.5 -38.5h-394v-404q-29 -22 -86 -22
q-10 0 -18 6t-8 12v408h-410q-12 0 -12 20q0 13 8.5 47.5t21.5 44.5z" />
    <glyph glyph-name="uni00B2" unicode="&#xb2;" horiz-adv-x="716" 
d="M641 720q-8 -21 -33 -98t-41 -114h-464q-9 0 -18 9t-6 15l85.5 88l109 113.5t85.5 102.5q96 129 96 224q0 64 -35 104t-97 40q-42 0 -78 -17t-54 -34.5t-42 -46.5q-6 -6 -21 10t-13 24q36 63 101 108.5t131 45.5q105 0 171.5 -60t66.5 -154q0 -92 -92 -202
q-29 -35 -250 -260h240q23 0 42.5 9t32.5 24t21 28t15.5 29t8.5 18q2 3 10 6q19 0 28 -12z" />
    <glyph glyph-name="uni00B3" unicode="&#xb3;" horiz-adv-x="636" 
d="M324 1292q69 0 121.5 -41t52.5 -113q0 -59 -37 -103t-79 -63q51 0 115.5 -56t64.5 -144q0 -127 -94.5 -200.5t-231.5 -73.5q-36 0 -78 8.5t-56 21.5q-24 22 -24 48q0 29 18.5 47.5t43.5 18.5q15 0 26.5 -8t25.5 -26t20 -24q30 -30 78 -30q65 0 104.5 46.5t39.5 135.5
q0 72 -43.5 122t-100.5 50q-16 0 -33 -3.5t-31.5 -8t-15.5 -4.5q-7 7 -10 22q-3 12 0 20q80 16 133 62.5t53 115.5q0 39 -31.5 70.5t-70.5 31.5q-12 0 -24 -2t-22.5 -6t-20 -8.5t-18.5 -10.5t-15.5 -11t-14 -11.5t-10.5 -9.5l-9 -9l-6 -6q-5 2 -9.5 9.5t-7 14.5t-1.5 8
q80 120 198 120z" />
    <glyph glyph-name="acute" unicode="&#xb4;" horiz-adv-x="520" 
d="M348 1368q32 0 49.5 -13.5t20 -24t2.5 -20.5q0 -29 -71.5 -94t-145.5 -116.5t-85 -51.5q-18 0 -18 26q0 9 73 113.5t121 164.5q2 2 8.5 5.5t19.5 7t26 3.5z" />
    <glyph glyph-name="uni00B5" unicode="&#xb5;" horiz-adv-x="1082" 
d="M288 446q0 -131 26 -224.5t76 -93.5q48 0 93.5 30t81 80t62.5 103.5t47 112.5v142v238q25 40 48 40q18 0 62 -28t44 -46q0 -10 -2 -27.5t-6.5 -46.5l-9 -58l-13 -80l-15.5 -96l-20 -102q0 -112 37 -185t103 -73q55 0 102 60q7 0 18 -18q6 -12 6 -22q-20 -67 -73.5 -113.5
t-112.5 -46.5q-33 1 -59.5 37.5t-40.5 90.5t-21 94t-9 70q-24 -57 -54.5 -107t-69.5 -95.5t-87.5 -72.5t-98.5 -27q-89 0 -126 220q1 -7 0.5 -120t6.5 -252t27 -244q-25 -40 -48 -40q-18 0 -62 28t-44 46q0 63 13.5 359t28.5 429q0 24 -4 94.5t-4 93.5v238q25 40 48 40
q18 0 62 -28t44 -46q0 -93 -46 -308z" />
    <glyph glyph-name="paragraph" unicode="&#xb6;" horiz-adv-x="968" 
d="M644 666v546q-10 10 -58 10q-44 0 -56 -12v-554q18 0 63.5 3t50.5 7zM642 584q-8 -1 -32 -2.5t-45 -3l-35 -2.5v-344q0 -116 6 -148q2 -12 50 -12q50 0 52 12q6 32 6 148zM722 598v-366q0 -116 10 -148q4 -15 54 -26.5t76 -11.5q3 0 3 -25.5t-3 -28.5q-50 2 -124 7
t-144 5q-38 0 -278 -12q-4 8 -3.5 28.5t7.5 25.5q21 0 69.5 12t52.5 26q10 32 10 148v342q-91 0 -167 37t-121.5 93t-70.5 117.5t-25 116.5q0 105 51.5 190.5t129.5 130.5t161 45q59 0 97 -4t97 -4q60 0 121 3t91 5l30 2q7 -8 6.5 -30.5t-8.5 -27.5q-28 0 -67.5 -12
t-46.5 -28q-6 -21 -6 -128v-402q4 -1 29 5.5t47 13.5l22 7q20 0 20 -12q-1 -14 -23.5 -41.5t-34.5 -32.5q-37 -17 -62 -20z" />
    <glyph glyph-name="periodcentered" unicode="&#xb7;" horiz-adv-x="448" 
d="M108 528q0 48 34 82t82 34t82 -34t34 -82t-34 -83t-82 -35t-82 35t-34 83z" />
    <glyph glyph-name="cedilla" unicode="&#xb8;" horiz-adv-x="462" 
d="M224 -54h50q38 0 63 -29t25 -69q0 -69 -54 -110.5t-134 -41.5q-41 0 -68 18q0 2 -3 11.5t-3 16.5q0 10 9.5 19t18.5 9q11 0 34 -13t40 -13q40 0 63 19.5t23 46.5q0 33 -19.5 50.5t-42.5 17.5q-17 0 -52 -14q-4 0 -13.5 10.5t-6.5 15.5l31.5 50l32.5 52h42z" />
    <glyph glyph-name="uni00B9" unicode="&#xb9;" horiz-adv-x="584" 
d="M246 1036q0 63 -9.5 82.5t-28.5 19.5q-21 0 -112 -32q-18 9 -18 34q0 13 6 16q93 39 167 76t103 54.5t30 17.5h4q9 0 24 -46q-18 -84 -18 -162v-416q0 -57 16 -94q4 -9 45.5 -18.5t58.5 -9.5q4 0 4 -23t-4 -29l-86 3.5t-106 2.5t-111 -2.5t-89 -3.5q-8 4 -8 27t8 23
q22 0 65 9.5t47 18.5q12 31 12 92v360z" />
    <glyph glyph-name="ordmasculine" unicode="&#xba;" horiz-adv-x="776" 
d="M374 1060q-80 0 -120 -71t-40 -167q0 -110 51 -195t143 -85q76 0 115 73t39 167q0 69 -19 130t-63 104.5t-106 43.5zM392 1108q130 0 219 -88.5t89 -213.5q0 -126 -89.5 -219t-218.5 -93q-130 0 -223 89.5t-93 214.5q0 128 91.5 219t224.5 91z" />
    <glyph glyph-name="guillemotright" unicode="&#xbb;" horiz-adv-x="850" 
d="M651 340q0 221 -182 366q-17 14 -7 32q10 19 35 7q117 -57 186 -169q67 -109 67 -236q0 -126 -67 -235.5t-186 -169.5q-24 -12 -35 7q-10 18 7 32q182 156 182 366zM293 340q0 221 -182 366q-17 14 -7 32q10 19 35 7q117 -57 186 -169q67 -109 67 -236q0 -126 -67 -235.5
t-186 -169.5q-24 -12 -35 7q-10 18 7 32q182 156 182 366z" />
    <glyph glyph-name="onequarter" unicode="&#xbc;" horiz-adv-x="1398" 
d="M1212 814q8 0 13 -7.5t5 -16.5v-498h70q14 -13 18.5 -35.5t-6.5 -44.5h-76v-212q-6 -6 -60 -6q-52 0 -64 10v208h-330q-17 3 -20 32l410 546q19 24 40 24zM1112 302v308q-42 -53 -113 -152l-115 -156h228zM348 1068v-396q0 -56 14 -98q3 -9 43 -18.5t57 -9.5
q6 -10 5.5 -24.5t-3.5 -19.5q-30 1 -79 3.5t-93 2.5t-100.5 -2.5t-83.5 -3.5q-7 5 -6.5 21.5t6.5 22.5q21 0 58.5 10t41.5 20q16 42 16 92v372q0 29 -9.5 49.5t-24.5 20.5q-10 0 -23 -3.5t-38.5 -13.5t-34.5 -13q-17 8 -26 36q27 17 270 160q11 -3 18.5 -12.5t7.5 -19.5
q-16 -98 -16 -176zM372 -25q-9 2 -15 5.5t-7 7.5l-1 4l700 1281q1 3 9.5 7.5t22 7.5t30.5 0q15 -3 15 -20l-690 -1264q-8 -12 -25 -23t-39 -6z" />
    <glyph glyph-name="onehalf" unicode="&#xbd;" horiz-adv-x="1500" 
d="M1138 784q105 0 171.5 -60t66.5 -154q0 -92 -92 -202q-29 -35 -250 -260h240q23 0 42.5 9t32.5 24t21 28t15.5 29t8.5 18q2 3 10 6q19 0 28 -12q-8 -21 -33 -98t-41 -114h-464q-9 0 -18 9t-6 15q13 15 114.5 118.5t149.5 163.5q112 141 112 246q0 64 -35 104t-97 40
q-42 0 -78 -17t-54 -34.5t-42 -46.5q-6 -6 -21 10t-13 24q36 63 101 108.5t131 45.5zM354 1068v-396q0 -56 14 -98q3 -9 43 -18.5t57 -9.5q6 -10 5.5 -24.5t-3.5 -19.5q-30 1 -79 3.5t-93 2.5t-100.5 -2.5t-83.5 -3.5q-7 5 -6.5 21.5t6.5 22.5q21 0 58.5 10t41.5 20
q16 42 16 92v372q0 29 -9.5 49.5t-24.5 20.5q-10 0 -23 -3.5t-38.5 -13.5t-34.5 -13q-17 8 -26 36q27 17 270 160q11 -3 18.5 -12.5t7.5 -19.5q-16 -98 -16 -176zM1128 1268l-690 -1264q-8 -12 -25 -23t-39 -6q-9 2 -15 5.5t-7 7.5l-1 4l700 1281q1 3 9.5 7.5t22 7.5t30.5 0
q15 -3 15 -20z" />
    <glyph glyph-name="threequarters" unicode="&#xbe;" horiz-adv-x="1400" 
d="M1214 814q8 0 13 -7.5t5 -16.5v-498h70q14 -13 18.5 -35.5t-6.5 -44.5h-76v-212q-6 -6 -60 -6q-52 0 -64 10v208h-330q-17 3 -20 32l410 546q19 24 40 24zM1114 302v308q-42 -53 -113 -152l-115 -156h228zM316 1292q69 0 121.5 -41t52.5 -113q0 -59 -37 -103t-79 -63
q51 0 115.5 -56t64.5 -144q0 -127 -94.5 -200.5t-231.5 -73.5q-36 0 -78 8.5t-56 21.5q-24 22 -24 48q0 29 18.5 47.5t43.5 18.5q15 0 26.5 -8t25.5 -26t20 -24q30 -30 78 -30q65 0 104.5 46.5t39.5 135.5q0 72 -43.5 122t-100.5 50q-16 0 -33 -3.5t-31.5 -8t-15.5 -4.5
q-6 6 -10 24q-2 14 0 18q80 16 133 62.5t53 115.5q0 39 -31.5 70.5t-70.5 31.5q-12 0 -24 -2t-22.5 -6t-20 -8.5t-18.5 -10.5t-15.5 -11t-14 -11.5t-10.5 -9.5l-9 -9l-6 -6q-5 2 -9.5 9.5t-7 14.5t-1.5 8q80 120 198 120zM1138 1268l-690 -1264q-8 -12 -25 -23t-39 -6
q-9 2 -15 5.5t-7 7.5l-1 4l700 1281q1 3 9.5 7.5t22 7.5t30.5 0q15 -3 15 -20z" />
    <glyph glyph-name="questiondown" unicode="&#xbf;" horiz-adv-x="690" 
d="M576 748q0 -45 -33.5 -76.5t-78.5 -31.5t-76.5 31.5t-31.5 76.5t31.5 78.5t76.5 33.5t78.5 -33.5t33.5 -78.5zM510 498q16 -67 16 -182q0 -40 -10.5 -74.5t-23 -56.5t-37.5 -45t-40.5 -34t-44.5 -29q-10 -6 -14 -9l-57.5 -37t-45 -33.5t-40 -39t-21.5 -41.5t-10 -53
q0 -75 44 -119.5t104 -44.5t106.5 21t65.5 21q27 0 57.5 -28t30.5 -72q0 -49 -18 -74q-28 -14 -96 -14q-41 0 -92 15.5t-104 47.5t-97.5 75t-72.5 104t-28 128q0 103 45.5 172.5t156.5 133.5q42 25 94.5 66.5t61.5 57.5q6 11 9 30.5t3.5 33t0 41.5t-0.5 35q12 24 32 26
q19 -8 26 -22z" />
    <glyph glyph-name="Agrave" unicode="&#xc0;" horiz-adv-x="1254" 
d="M710 1474q0 -5 -4 -11.5t-8 -6.5q-20 0 -106 36t-169 87t-83 83q0 60 92 60q24 0 36 -6q50 -37 146 -134t96 -108zM190 278l386 990q8 15 35.5 36.5t40.5 21.5q3 0 6.5 -2.5t5.5 -3.5l407 -1068q50 -129 51 -132q13 -31 62.5 -49.5t73.5 -18.5q6 -9 6 -29.5t-2 -28.5
q-200 10 -220 10q-41 0 -76.5 -1.5t-79.5 -4.5t-76 -4q-7 8 -6.5 29t8.5 29q23 0 61.5 7.5t50.5 18.5q8 8 8 28q0 27 -34 124.5t-68 181.5l-34 84q-6 8 -12 8q-26 2 -198 2q-126 0 -216 -6l-10 -6l-90 -244q-28 -82 -28 -142q0 -17 18.5 -29t45 -17.5t45.5 -7.5t29 -2
q4 -4 5.5 -26.5t-1.5 -31.5q-29 1 -63 4t-63 4.5t-68 1.5q-41 0 -72.5 -1.5t-69.5 -4.5t-72 -4q-4 4 -4 26t4 32q25 0 66 10.5t54 27.5q42 55 94 188zM582 1084l-184 -488q0 -8 4 -8q104 -4 182 -4q75 0 168 6q2 0 4 2q2 4 2 6v2z" />
    <glyph glyph-name="Aacute" unicode="&#xc1;" horiz-adv-x="1254" 
d="M538 1474q0 11 96 108t146 134q12 6 36 6q92 0 92 -60q0 -32 -83 -83t-169 -87t-106 -36q-4 0 -8 6.5t-4 11.5zM190 278l386 990q8 15 35.5 36.5t40.5 21.5q3 0 6.5 -2.5t5.5 -3.5l407 -1068q50 -129 51 -132q13 -31 62.5 -49.5t73.5 -18.5q6 -9 6 -29.5t-2 -28.5
q-200 10 -220 10q-41 0 -76.5 -1.5t-79.5 -4.5t-76 -4q-7 8 -6.5 29t8.5 29q23 0 61.5 7.5t50.5 18.5q8 8 8 28q0 27 -34 124.5t-68 181.5l-34 84q-6 8 -12 8q-26 2 -198 2q-126 0 -216 -6l-10 -6l-90 -244q-28 -82 -28 -142q0 -17 18.5 -29t45 -17.5t45.5 -7.5t29 -2
q4 -4 5.5 -26.5t-1.5 -31.5q-29 1 -63 4t-63 4.5t-68 1.5q-41 0 -72.5 -1.5t-69.5 -4.5t-72 -4q-4 4 -4 26t4 32q25 0 66 10.5t54 27.5q42 55 94 188zM582 1084l-184 -488q0 -8 4 -8q104 -4 182 -4q75 0 168 6q2 0 4 2q2 4 2 6v2z" />
    <glyph glyph-name="Acircumflex" unicode="&#xc2;" horiz-adv-x="1254" 
d="M650 1719q10 0 24 -16l104.5 -110.5l99.5 -104.5q0 -10 -6 -22t-14 -12l-208 128l-209 -128q-8 0 -14.5 12t-6.5 22q167 173 205 215q14 16 25 16zM190 278l386 990q8 15 35.5 36.5t40.5 21.5q3 0 6.5 -2.5t5.5 -3.5l407 -1068q50 -129 51 -132q13 -31 62.5 -49.5
t73.5 -18.5q6 -9 6 -29.5t-2 -28.5q-200 10 -220 10q-41 0 -76.5 -1.5t-79.5 -4.5t-76 -4q-7 8 -6.5 29t8.5 29q23 0 61.5 7.5t50.5 18.5q8 8 8 28q0 27 -34 124.5t-68 181.5l-34 84q-6 8 -12 8q-26 2 -198 2q-126 0 -216 -6l-10 -6l-90 -244q-28 -82 -28 -142
q0 -17 18.5 -29t45 -17.5t45.5 -7.5t29 -2q4 -4 5.5 -26.5t-1.5 -31.5q-29 1 -63 4t-63 4.5t-68 1.5q-41 0 -72.5 -1.5t-69.5 -4.5t-72 -4q-4 4 -4 26t4 32q25 0 66 10.5t54 27.5q42 55 94 188zM582 1084l-184 -488q0 -8 4 -8q104 -4 182 -4q75 0 168 6q2 0 4 2q2 4 2 6v2z
" />
    <glyph glyph-name="Atilde" unicode="&#xc3;" horiz-adv-x="1254" 
d="M540 1622q55 0 133 -43q86 -48 123 -48q35 0 63.5 17t45.5 37.5t20 21.5q5 0 8.5 -7.5t3.5 -13.5q0 -32 -28 -71q-59 -73 -138 -73q-55 0 -133 43q-3 2 -15.5 9t-16.5 9t-15 8t-16 8t-14.5 5.5t-16 5t-14.5 3t-15 1.5q-28 0 -52 -11t-37 -24.5l-24.5 -26.5t-15.5 -15
q-5 0 -8.5 8t-3.5 14q0 33 28 72q57 71 138 71zM190 278l386 990q8 15 35.5 36.5t40.5 21.5q3 0 6.5 -2.5t5.5 -3.5l407 -1068q50 -129 51 -132q13 -31 62.5 -49.5t73.5 -18.5q6 -9 6 -29.5t-2 -28.5q-200 10 -220 10q-41 0 -76.5 -1.5t-79.5 -4.5t-76 -4q-7 8 -6.5 29
t8.5 29q23 0 61.5 7.5t50.5 18.5q8 8 8 28q0 27 -34 124.5t-68 181.5l-34 84q-6 8 -12 8q-26 2 -198 2q-126 0 -216 -6l-10 -6l-90 -244q-28 -82 -28 -142q0 -17 18.5 -29t45 -17.5t45.5 -7.5t29 -2q4 -4 5.5 -26.5t-1.5 -31.5q-29 1 -63 4t-63 4.5t-68 1.5
q-41 0 -72.5 -1.5t-69.5 -4.5t-72 -4q-4 4 -4 26t4 32q25 0 66 10.5t54 27.5q42 55 94 188zM582 1084l-184 -488q0 -8 4 -8q104 -4 182 -4q75 0 168 6q2 0 4 2q2 4 2 6v2z" />
    <glyph glyph-name="Adieresis" unicode="&#xc4;" horiz-adv-x="1254" 
d="M190 278l386 990q8 15 35.5 36.5t40.5 21.5q3 0 6.5 -2.5t5.5 -3.5l407 -1068q50 -129 51 -132q13 -31 62.5 -49.5t73.5 -18.5q6 -9 6 -29.5t-2 -28.5q-200 10 -220 10q-41 0 -76.5 -1.5t-79.5 -4.5t-76 -4q-7 8 -6.5 29t8.5 29q23 0 61.5 7.5t50.5 18.5q8 8 8 28
q0 27 -34 124.5t-68 181.5l-34 84q-6 8 -12 8q-26 2 -198 2q-126 0 -216 -6l-10 -6l-90 -244q-28 -82 -28 -142q0 -17 18.5 -29t45 -17.5t45.5 -7.5t29 -2q4 -4 5.5 -26.5t-1.5 -31.5q-29 1 -63 4t-63 4.5t-68 1.5q-41 0 -72.5 -1.5t-69.5 -4.5t-72 -4q-4 4 -4 26t4 32
q25 0 66 10.5t54 27.5q42 55 94 188zM582 1084l-184 -488q0 -8 4 -8q104 -4 182 -4q75 0 168 6q2 0 4 2q2 4 2 6v2zM732 1556q0 42 29 71t71 29t71 -29t29 -71t-29 -71t-71 -29t-71 29t-29 71zM370 1556q0 42 29 71t71 29t71 -29t29 -71t-29 -71t-71 -29t-71 29t-29 71z" />
    <glyph glyph-name="Aring" unicode="&#xc5;" horiz-adv-x="1254" 
d="M532 1504q0 -46 33.5 -79t78.5 -33t76.5 32.5t31.5 79.5q0 46 -31.5 78t-76.5 32q-46 0 -79 -32t-33 -78zM466 1504q0 73 53 125.5t125 52.5t123 -52t51 -126t-51 -127t-123 -53t-125 53.5t-53 126.5zM190 278l386 990q8 15 35.5 36.5t40.5 21.5q3 0 6.5 -2.5t5.5 -3.5
l407 -1068q50 -129 51 -132q13 -31 62.5 -49.5t73.5 -18.5q6 -9 6 -29.5t-2 -28.5q-200 10 -220 10q-41 0 -76.5 -1.5t-79.5 -4.5t-76 -4q-7 8 -6.5 29t8.5 29q23 0 61.5 7.5t50.5 18.5q8 8 8 28q0 27 -34 124.5t-68 181.5l-34 84q-6 8 -12 8q-26 2 -198 2q-126 0 -216 -6
l-10 -6l-90 -244q-28 -82 -28 -142q0 -17 18.5 -29t45 -17.5t45.5 -7.5t29 -2q4 -4 5.5 -26.5t-1.5 -31.5q-29 1 -63 4t-63 4.5t-68 1.5q-41 0 -72.5 -1.5t-69.5 -4.5t-72 -4q-4 4 -4 26t4 32q25 0 66 10.5t54 27.5q42 55 94 188zM582 1084l-184 -488q0 -8 4 -8
q104 -4 182 -4q75 0 168 6q2 0 4 2q2 4 2 6v2z" />
    <glyph glyph-name="AE" unicode="&#xc6;" horiz-adv-x="1794" 
d="M946 0q-60 0 -118 -2q-58 0 -86 -2l-28 -2q-4 5 -4.5 19t1 26.5t3.5 12.5q24 0 74.5 15t57.5 31q14 54 14 172v240q-72 4 -178 4q-51 0 -204 -10l-10 -6l-146 -240q-80 -124 -80 -154q0 -17 17 -28.5t42 -16t41.5 -6t27.5 -1.5q4 -4 5.5 -26.5t-1.5 -31.5q-29 1 -63 4
t-63 4.5t-68 1.5q-41 0 -71 -1.5t-66.5 -4.5t-70.5 -4q-4 4 -4 26t4 32q18 0 55.5 12.5t58.5 25.5q63 40 150 184l554 894q14 23 14 40q0 24 -32 37t-58 13q-7 10 -5.5 32t5.5 26q98 -2 232 -2q90 0 309.5 7t332.5 7q8 -58 30.5 -153t27.5 -119q-10 -10 -36 -10
q-25 0 -28 14q-31 111 -86.5 149.5t-145.5 38.5h-172q-131 0 -138 -22q-12 -38 -10 -142v-374q-1 -7 23 -9.5t63 -2.5h106q50 0 78 1t52.5 6t35.5 13t21 22.5t15.5 34.5l13.5 50q2 11 4 17q3 14 30 14q24 0 34 -10v-378q-8 -8 -32 -8q-26 0 -32 16q-21 79 -31 100.5
t-25 31.5q-25 16 -212 16h-31t-31 -0.5t-32 -1.5t-25 -3t-19 -5.5t-6 -7.5v-380q-1 -35 1.5 -83t10.5 -55q18 -14 44.5 -17t97.5 -3h96q72 0 141.5 14.5t110.5 39.5q43 26 69 72.5t57 129.5q3 12 28 12q38 0 50 -12l-30 -83l-33.5 -92.5t-26 -80.5t-18.5 -76q-103 0 -323 4
t-359 4zM860 594v538l-328 -532q-2 -8 2 -8q52 -2 158 -2q92 0 168 4z" />
    <glyph glyph-name="Ccedilla" unicode="&#xc7;" horiz-adv-x="1348" 
d="M774 1334q230 0 424 -42q46 -276 46 -296q1 -9 -14 -17.5t-30 -8.5t-24 6q-57 292 -392 292q-142 0 -256 -88t-173 -220t-59 -274q0 -95 20.5 -185.5t63 -171.5t103 -142t146.5 -97t187 -36q155 0 264 96q90 81 122 232q35 3 64 -16q0 -38 -25.5 -155t-44.5 -133
q-160 -90 -430 -90q-145 0 -271 53t-212 142t-135.5 209t-49.5 252q0 139 51 265.5t139 220t215 149t271 55.5zM760 -54h60q45 0 74.5 -34t29.5 -82q0 -80 -64 -129t-158 -49q-52 0 -80 20q-1 4 -4.5 15t-3.5 19q0 12 11.5 22t22.5 10q13 0 39.5 -15t46.5 -15q47 0 74.5 23
t27.5 55q0 38 -23 59t-49 21q-24 0 -62 -16q-4 0 -15.5 11.5t-8.5 18.5l36.5 55.5t39.5 64.5h50z" />
    <glyph glyph-name="Egrave" unicode="&#xc8;" horiz-adv-x="1174" 
d="M686 1474q0 -5 -4 -11.5t-8 -6.5q-20 0 -106 36t-169 87t-83 83q0 60 92 60q24 0 36 -6q50 -37 146 -134t96 -108zM327 1314q90 0 310.5 7t333.5 7q8 -58 30.5 -153t27.5 -119q-10 -10 -36 -10q-25 0 -28 14q-31 111 -86.5 149.5t-145.5 38.5h-172q-131 0 -138 -22
q-12 -38 -10 -142v-374q-1 -7 23 -9.5t63 -2.5h106q50 0 78 1t52.5 6t35.5 13t21 22.5t15.5 34.5l13.5 50q2 11 4 17q3 14 30 14q24 0 34 -10v-378q-8 -8 -32 -8q-26 0 -32 16q-21 79 -31 100.5t-25 31.5q-25 16 -212 16h-31t-31 -0.5t-32 -1.5t-25 -3t-19 -5.5t-6 -7.5
v-380q-1 -35 1.5 -83t10.5 -55q18 -14 44.5 -17t97.5 -3h96q72 0 141.5 14.5t110.5 39.5q43 26 69 72.5t57 129.5q3 12 28 12q38 0 50 -12l-30 -83l-33.5 -92.5t-26 -80.5t-18.5 -76q-103 0 -323 4t-359 4q-49 0 -125 -3t-113 -3q-7 8 -6.5 29t6.5 29q30 0 82 9t56 23
q10 32 10 148v854q0 116 -10 148q-4 14 -56 23t-82 9q-6 8 -6.5 29t6.5 29q205 -10 236 -10z" />
    <glyph glyph-name="Eacute" unicode="&#xc9;" horiz-adv-x="1174" 
d="M512 1474q0 11 96 108t146 134q12 6 36 6q92 0 92 -60q0 -32 -83 -83t-169 -87t-106 -36q-4 0 -8 6.5t-4 11.5zM327 1314q90 0 310.5 7t333.5 7q8 -58 30.5 -153t27.5 -119q-10 -10 -36 -10q-25 0 -28 14q-31 111 -86.5 149.5t-145.5 38.5h-172q-131 0 -138 -22
q-12 -38 -10 -142v-374q-1 -7 23 -9.5t63 -2.5h106q50 0 78 1t52.5 6t35.5 13t21 22.5t15.5 34.5l13.5 50q2 11 4 17q3 14 30 14q24 0 34 -10v-378q-8 -8 -32 -8q-26 0 -32 16q-21 79 -31 100.5t-25 31.5q-25 16 -212 16h-31t-31 -0.5t-32 -1.5t-25 -3t-19 -5.5t-6 -7.5
v-380q-1 -35 1.5 -83t10.5 -55q18 -14 44.5 -17t97.5 -3h96q72 0 141.5 14.5t110.5 39.5q43 26 69 72.5t57 129.5q3 12 28 12q38 0 50 -12l-30 -83l-33.5 -92.5t-26 -80.5t-18.5 -76q-103 0 -323 4t-359 4q-49 0 -125 -3t-113 -3q-7 8 -6.5 29t6.5 29q30 0 82 9t56 23
q10 32 10 148v854q0 116 -10 148q-4 14 -56 23t-82 9q-6 8 -6.5 29t6.5 29q205 -10 236 -10z" />
    <glyph glyph-name="Ecircumflex" unicode="&#xca;" horiz-adv-x="1174" 
d="M608 1719q10 0 24 -16l104.5 -110.5l99.5 -104.5q0 -10 -6 -22t-14 -12l-208 128l-209 -128q-8 0 -14.5 12t-6.5 22q167 173 205 215q14 16 25 16zM327 1314q90 0 310.5 7t333.5 7q8 -58 30.5 -153t27.5 -119q-10 -10 -36 -10q-25 0 -28 14q-31 111 -86.5 149.5
t-145.5 38.5h-172q-131 0 -138 -22q-12 -38 -10 -142v-374q-1 -7 23 -9.5t63 -2.5h106q50 0 78 1t52.5 6t35.5 13t21 22.5t15.5 34.5l13.5 50q2 11 4 17q3 14 30 14q24 0 34 -10v-378q-8 -8 -32 -8q-26 0 -32 16q-21 79 -31 100.5t-25 31.5q-25 16 -212 16h-31t-31 -0.5
t-32 -1.5t-25 -3t-19 -5.5t-6 -7.5v-380q-1 -35 1.5 -83t10.5 -55q18 -14 44.5 -17t97.5 -3h96q72 0 141.5 14.5t110.5 39.5q43 26 69 72.5t57 129.5q3 12 28 12q38 0 50 -12l-30 -83l-33.5 -92.5t-26 -80.5t-18.5 -76q-103 0 -323 4t-359 4q-49 0 -125 -3t-113 -3
q-7 8 -6.5 29t6.5 29q30 0 82 9t56 23q10 32 10 148v854q0 116 -10 148q-4 14 -56 23t-82 9q-6 8 -6.5 29t6.5 29q205 -10 236 -10z" />
    <glyph glyph-name="Edieresis" unicode="&#xcb;" horiz-adv-x="1174" 
d="M327 1314q90 0 310.5 7t333.5 7q8 -58 30.5 -153t27.5 -119q-10 -10 -36 -10q-25 0 -28 14q-31 111 -86.5 149.5t-145.5 38.5h-172q-131 0 -138 -22q-12 -38 -10 -142v-374q-1 -7 23 -9.5t63 -2.5h106q50 0 78 1t52.5 6t35.5 13t21 22.5t15.5 34.5l13.5 50q2 11 4 17
q3 14 30 14q24 0 34 -10v-378q-8 -8 -32 -8q-26 0 -32 16q-21 79 -31 100.5t-25 31.5q-25 16 -212 16h-31t-31 -0.5t-32 -1.5t-25 -3t-19 -5.5t-6 -7.5v-380q-1 -35 1.5 -83t10.5 -55q18 -14 44.5 -17t97.5 -3h96q72 0 141.5 14.5t110.5 39.5q43 26 69 72.5t57 129.5
q3 12 28 12q38 0 50 -12l-30 -83l-33.5 -92.5t-26 -80.5t-18.5 -76q-103 0 -323 4t-359 4q-49 0 -125 -3t-113 -3q-7 8 -6.5 29t6.5 29q30 0 82 9t56 23q10 32 10 148v854q0 116 -10 148q-4 14 -56 23t-82 9q-6 8 -6.5 29t6.5 29q205 -10 236 -10zM674 1556q0 42 29 71
t71 29t71 -29t29 -71t-29 -71t-71 -29t-71 29t-29 71zM312 1556q0 42 29 71t71 29t71 -29t29 -71t-29 -71t-71 -29t-71 29t-29 71z" />
    <glyph glyph-name="Igrave" unicode="&#xcc;" horiz-adv-x="648" 
d="M445 1474q0 -5 -4 -11.5t-8 -6.5q-20 0 -106 36t-169 87t-83 83q0 60 92 60q24 0 36 -6q50 -37 146 -134t96 -108zM327 1314q29 0 234 10q7 -8 6.5 -29t-6.5 -29q-30 0 -82 -9t-56 -23q-10 -32 -10 -148v-854q0 -116 10 -148q4 -14 56 -23t82 -9q6 -8 6.5 -29t-6.5 -29
q-205 10 -234 10q-31 0 -236 -10q-7 8 -6.5 29t6.5 29q30 0 82 9t56 23q10 32 10 148v854q0 116 -10 148q-4 14 -56 23t-82 9q-6 8 -6.5 29t6.5 29q205 -10 236 -10z" />
    <glyph glyph-name="Iacute" unicode="&#xcd;" horiz-adv-x="648" 
d="M231 1474q0 11 96 108t146 134q12 6 36 6q92 0 92 -60q0 -32 -83 -83t-169 -87t-106 -36q-4 0 -8 6.5t-4 11.5zM327 1314q29 0 234 10q7 -8 6.5 -29t-6.5 -29q-30 0 -82 -9t-56 -23q-10 -32 -10 -148v-854q0 -116 10 -148q4 -14 56 -23t82 -9q6 -8 6.5 -29t-6.5 -29
q-205 10 -234 10q-31 0 -236 -10q-7 8 -6.5 29t6.5 29q30 0 82 9t56 23q10 32 10 148v854q0 116 -10 148q-4 14 -56 23t-82 9q-6 8 -6.5 29t6.5 29q205 -10 236 -10z" />
    <glyph glyph-name="Icircumflex" unicode="&#xce;" horiz-adv-x="648" 
d="M343 1673q10 0 24 -16l104.5 -110.5l99.5 -104.5q0 -10 -6 -22t-14 -12l-208 128l-209 -128q-8 0 -14.5 12t-6.5 22q167 173 205 215q14 16 25 16zM327 1314q29 0 234 10q7 -8 6.5 -29t-6.5 -29q-30 0 -82 -9t-56 -23q-10 -32 -10 -148v-854q0 -116 10 -148q4 -14 56 -23
t82 -9q6 -8 6.5 -29t-6.5 -29q-205 10 -234 10q-31 0 -236 -10q-7 8 -6.5 29t6.5 29q30 0 82 9t56 23q10 32 10 148v854q0 116 -10 148q-4 14 -56 23t-82 9q-6 8 -6.5 29t6.5 29q205 -10 236 -10z" />
    <glyph glyph-name="Idieresis" unicode="&#xcf;" horiz-adv-x="648" 
d="M328 1314q29 0 234 10q7 -8 6.5 -29t-6.5 -29q-30 0 -82 -9t-56 -23q-10 -32 -10 -148v-854q0 -116 10 -148q4 -14 56 -23t82 -9q6 -8 6.5 -29t-6.5 -29q-205 10 -234 10q-31 0 -236 -10q-7 8 -6.5 29t6.5 29q30 0 82 9t56 23q10 32 10 148v854q0 116 -10 148
q-4 14 -56 23t-82 9q-6 8 -6.5 29t6.5 29q205 -10 236 -10zM418 1556q0 42 29 71t71 29t71 -29t29 -71t-29 -71t-71 -29t-71 29t-29 71zM56 1556q0 42 29 71t71 29t71 -29t29 -71t-29 -71t-71 -29t-71 29t-29 71z" />
    <glyph glyph-name="Eth" unicode="&#xd0;" horiz-adv-x="1420" 
d="M415 1082v-852q0 -130 12 -144q20 -28 164 -28q109 0 203 34.5t168 102.5t116.5 178.5t42.5 252.5q0 132 -30.5 238.5t-82.5 177.5t-124 119t-152 69.5t-169 21.5q-131 0 -138 -22q-12 -38 -10 -148zM617 1316q161 0 294 -49.5t222 -136t137.5 -205.5t48.5 -257
q0 -107 -21 -201t-73.5 -182.5t-133 -151.5t-208.5 -101t-292 -38h-500q-7 8 -6.5 29t6.5 29q30 0 82 9t56 23q10 32 10 148v854q0 116 -10 148q-4 14 -56 23t-82 9q-6 8 -6.5 29t6.5 29q205 -10 236 -10q38 0 141.5 1t148.5 1zM730 622h-632q-4 0 -6 14t0 34q2 18 8 26h630
q6 0 6 -30t-6 -44z" />
    </font>
</defs>
</svg>
