<?xml version="1.0" standalone="no"?>
<!DOCTYPE svg PUBLIC "-//W3C//DTD SVG 1.1//EN" "http://www.w3.org/Graphics/SVG/1.1/DTD/svg11.dtd" >
<svg>
<metadata>
Created by FontForge 20090622 at Fri Jan 27 11:48:07 2017
 By deploy user
Part of the digitally encoded machine readable outline data for producing the Typefaces provided is copyrighted &#194;&#169; 2009 Linotype Corp., www.linotype.com. All rights reserved. This software is the property of Linotype Corp., and may not be reproduced, used, displayed, modified, disclosed or transferred without the express written approval of Linotype Corp..  The digitally encoded machine readable software for producing the Typefaces licensed to you is copyrighted (c) 1988, 1990, 1993 Adobe Systems. All Rights Reserved. This software is the property of Adobe Systems Incorporated and its licensors, and may not be reproduced, used, displayed, modified, disclosed or transferred without the express written approval of Adobe. Helvetica is a trademark of Linotype Corp. registered in the U.S. Patent and Trademark Office and may be registered in certain other jurisdictions in the name of Linotype Corp. or its licensee Linotype GmbH. This typeface is original artwork of Linotype Design Studio and Nadine Chahine. The design may be protected in certain jurisdictions.
</metadata>
<defs>
<font id="HelveticaNeueLTW20-Bold" horiz-adv-x="500" >
  <font-face 
    font-family="HelveticaNeueLT W20 75 Bold"
    font-weight="400"
    font-stretch="normal"
    units-per-em="1000"
    panose-1="2 11 8 4 2 2 2 2 2 4"
    ascent="800"
    descent="-200"
    x-height="517"
    cap-height="714"
    bbox="-194 -464 1352 1389"
    underline-thickness="50"
    underline-position="-50"
    unicode-range="U+000D-U+FEFC"
  />
<missing-glyph horiz-adv-x="278" 
 />
    <glyph glyph-name="uniFEFB" unicode="&#xfedf;&#xfe8e;" horiz-adv-x="672" arabic-form="isolated" 
d="M612 714v-714h-582v115h192v353h131v-353h128v599h131z" />
    <glyph glyph-name="uniFEFC" unicode="&#xfee0;&#xfe8e;" horiz-adv-x="674" arabic-form="final" 
d="M674 0q-29 0 -57 9.5t-46 41.5q-12 -17 -28.5 -27.5t-35.5 -15.5t-39.5 -6.5t-41.5 -1.5h-396v115h180v353h130v-353h65q34 0 47.5 10.5t13.5 47.5v541h130v-530q0 -37 15 -53t63 -16q8 0 15 -1.5t12.5 -7t8.5 -16.5t3 -30q0 -34 -9.5 -47t-29.5 -13z" />
    <glyph glyph-name="uniFEF5" unicode="&#xfedf;&#xfe82;" horiz-adv-x="672" arabic-form="isolated" 
d="M612 714v-714h-582v115h192v353h131v-353h128v599h131zM82 612q29 28 52 37t43 9t46.5 -9.5t48.5 -20.5t42 -17t34 -6q19 0 31 14.5t17 30.5l52 -23q-17 -45 -39 -68.5t-61 -23.5q-28 0 -52 7.5t-47 18.5q-22 10 -42 17.5t-37 7.5q-14 0 -26 -4.5t-30 -17.5z" />
    <glyph glyph-name="uniFEF6" unicode="&#xfee0;&#xfe82;" horiz-adv-x="674" arabic-form="final" 
d="M674 0q-29 0 -57 9.5t-46 41.5q-12 -17 -28.5 -27.5t-35.5 -15.5t-39.5 -6.5t-41.5 -1.5h-396v115h180v353h130v-353h65q34 0 47.5 10.5t13.5 47.5v541h130v-530q0 -37 15 -53t63 -16q8 0 15 -1.5t12.5 -7t8.5 -16.5t3 -30q0 -34 -9.5 -47t-29.5 -13zM64 620q29 28 52 37
t43 9t46.5 -9.5t48.5 -20.5t42 -17t34 -6q19 0 31 14.5t17 30.5l52 -23q-17 -45 -39 -68.5t-61 -23.5q-28 0 -52 7.5t-47 18.5q-22 10 -42 17.5t-37 7.5q-14 0 -26 -4.5t-30 -17.5z" />
    <glyph glyph-name="uniFEF7" unicode="&#xfedf;&#xfe84;" horiz-adv-x="672" arabic-form="isolated" 
d="M612 714v-714h-582v115h192v353h131v-353h128v599h131zM379 558h-195v70h40q-5 7 -7 20t-2 21q0 23 7.5 40.5t20.5 29t29.5 17.5t33.5 6q16 0 29 -3t23 -7v-66q-26 6 -37 6q-19 0 -27.5 -9t-8.5 -22q0 -14 8.5 -23.5t32.5 -9.5h53v-70z" />
    <glyph glyph-name="uniFEF8" unicode="&#xfee0;&#xfe84;" horiz-adv-x="674" arabic-form="final" 
d="M674 0q-29 0 -57 9.5t-46 41.5q-12 -17 -28.5 -27.5t-35.5 -15.5t-39.5 -6.5t-41.5 -1.5h-396v115h180v353h130v-353h65q34 0 47.5 10.5t13.5 47.5v541h130v-530q0 -37 15 -53t63 -16q8 0 15 -1.5t12.5 -7t8.5 -16.5t3 -30q0 -34 -9.5 -47t-29.5 -13zM376 558h-195v70h40
q-5 7 -7 20t-2 21q0 23 7.5 40.5t20.5 29t29.5 17.5t33.5 6q16 0 29 -3t23 -7v-66q-26 6 -37 6q-19 0 -27.5 -9t-8.5 -22q0 -14 8.5 -23.5t32.5 -9.5h53v-70z" />
    <glyph glyph-name="uniFEF9" unicode="&#xfedf;&#xfe88;" horiz-adv-x="672" arabic-form="isolated" 
d="M612 714v-714h-582v115h192v353h131v-353h128v599h131zM381 -260h-195v70h40q-5 7 -7 19.5t-2 20.5q0 23 7.5 40.5t20.5 29.5t29.5 18t33.5 6q16 0 29 -3t23 -7v-67q-26 6 -37 6q-19 0 -27.5 -9t-8.5 -22t8.5 -22.5t32.5 -9.5h53v-70z" />
    <glyph glyph-name="uniFEFA" unicode="&#xfee0;&#xfe88;" horiz-adv-x="674" arabic-form="final" 
d="M674 0q-29 0 -57 9.5t-46 41.5q-12 -17 -28.5 -27.5t-35.5 -15.5t-39.5 -6.5t-41.5 -1.5h-396v115h180v353h130v-353h65q34 0 47.5 10.5t13.5 47.5v541h130v-530q0 -37 15 -53t63 -16q8 0 15 -1.5t12.5 -7t8.5 -16.5t3 -30q0 -34 -9.5 -47t-29.5 -13zM374 -260h-195v70
h40q-5 7 -7 19.5t-2 20.5q0 23 7.5 40.5t20.5 29.5t29.5 18t33.5 6q16 0 29 -3t23 -7v-67q-26 6 -37 6q-19 0 -27.5 -9t-8.5 -22t8.5 -22.5t32.5 -9.5h53v-70z" />
    <glyph glyph-name="uni06440671" unicode="&#xfedf;&#xfb51;" horiz-adv-x="672" 
d="M612 714v-714h-582v115h192v353h131v-353h128v599h131zM340 603v5q0 13 -4.5 22.5t-21.5 9.5q-14 0 -28 -9.5t-22 -27.5h76zM257 666q25 25 62 25q32 0 50 -20.5t18 -56.5v-59h-213v48h35v78h48v-15z" />
    <glyph glyph-name="uni06440671.fina" unicode="&#xfee0;&#xfb51;" horiz-adv-x="674" 
d="M674 0q-29 0 -57 9.5t-46 41.5q-12 -17 -28.5 -27.5t-35.5 -15.5t-39.5 -6.5t-41.5 -1.5h-396v115h180v353h130v-353h65q34 0 47.5 10.5t13.5 47.5v541h130v-530q0 -37 15 -53t63 -16q8 0 15 -1.5t12.5 -7t8.5 -16.5t3 -30q0 -34 -9.5 -47t-29.5 -13zM337 603v5
q0 13 -4.5 22.5t-21.5 9.5q-14 0 -28 -9.5t-22 -27.5h76zM254 666q25 25 62 25q32 0 50 -20.5t18 -56.5v-59h-213v48h35v78h48v-15z" />
    <glyph glyph-name="uni0621" unicode="&#x621;" horiz-adv-x="391" arabic-form="isolated" 
d="M361 0h-323v115h51q-7 13 -11 31t-4 30q0 40 13.5 70.5t35.5 51t50.5 30.5t58.5 10q28 0 51.5 -5.5t41.5 -11.5v-105q-25 6 -41.5 8.5t-25.5 2.5q-65 0 -65 -58q0 -32 19 -43t50 -11h99v-115z" />
    <glyph glyph-name="uni0622" unicode="&#x622;" horiz-adv-x="249" arabic-form="isolated" 
d="M189 714v-714h-129v714h129zM-52 842q29 28 52 37t43 9t46.5 -9.5t48.5 -20.5t42 -17t34 -6q19 0 31 14.5t17 30.5l52 -23q-17 -45 -39 -68.5t-61 -23.5q-28 0 -52 7.5t-47 18.5q-22 10 -42 17.5t-37 7.5q-14 0 -26 -4.5t-30 -17.5z" />
    <glyph glyph-name="uniFE82" unicode="&#x622;" horiz-adv-x="256" arabic-form="final" 
d="M296 60q0 -34 -9.5 -47t-29.5 -13h-42q-34 0 -62.5 7.5t-49 25t-32 46.5t-11.5 72v563h130v-545q0 -35 12.5 -44.5t35.5 -9.5h19q8 0 15 -1.5t12.5 -7t8.5 -16.5t3 -30zM-54 842q29 28 52 37t43 9t46.5 -9.5t48.5 -20.5t42 -17t34 -6q19 0 31 14.5t17 30.5l52 -23
q-17 -45 -39 -68.5t-61 -23.5q-28 0 -52 7.5t-47 18.5q-22 10 -42 17.5t-37 7.5q-14 0 -26 -4.5t-30 -17.5z" />
    <glyph glyph-name="uni0623" unicode="&#x623;" horiz-adv-x="249" arabic-form="isolated" 
d="M189 714v-714h-129v714h129zM219 774h-195v70h40q-5 7 -7 20t-2 21q0 23 7.5 40.5t20.5 29t29.5 17.5t33.5 6q16 0 29 -3t23 -7v-66q-26 6 -37 6q-19 0 -27.5 -9t-8.5 -22q0 -14 8.5 -23.5t32.5 -9.5h53v-70z" />
    <glyph glyph-name="uniFE84" unicode="&#x623;" horiz-adv-x="256" arabic-form="final" 
d="M296 60q0 -34 -9.5 -47t-29.5 -13h-42q-34 0 -62.5 7.5t-49 25t-32 46.5t-11.5 72v563h130v-545q0 -35 12.5 -44.5t35.5 -9.5h19q8 0 15 -1.5t12.5 -7t8.5 -16.5t3 -30zM219 774h-195v70h40q-5 7 -7 20t-2 21q0 23 7.5 40.5t20.5 29t29.5 17.5t33.5 6q16 0 29 -3t23 -7
v-66q-26 6 -37 6q-19 0 -27.5 -9t-8.5 -22q0 -14 8.5 -23.5t32.5 -9.5h53v-70z" />
    <glyph glyph-name="uni0624" unicode="&#x624;" horiz-adv-x="479" arabic-form="isolated" 
d="M424 60q0 -70 -18 -120.5t-56.5 -83.5t-99 -48.5t-145.5 -15.5h-31v122h23q54 0 90.5 7t58 19.5t31.5 30t12 38.5q-30 -9 -73 -9q-40 0 -75 10t-60.5 32.5t-40.5 58t-15 85.5q0 40 13.5 79t39 70t63.5 49.5t88 18.5q55 0 92.5 -19t60 -53.5t32.5 -82t10 -104.5v-84z
M153 198q0 -51 20 -68.5t55 -17.5q40 0 66 14v49q0 51 -15 81t-54 30t-55.5 -26t-16.5 -62zM328 498h-228v82h46q-5 8 -7.5 22.5t-2.5 24.5q0 27 9 47t24 33.5t34 20.5t40 7q18 0 33.5 -4t26.5 -8v-77q-15 4 -26.5 5.5t-16.5 1.5q-23 0 -32.5 -10.5t-9.5 -25.5t9.5 -26
t38.5 -11h62v-82z" />
    <glyph glyph-name="uniFE86" unicode="&#x624;" horiz-adv-x="498" arabic-form="final" 
d="M422 0q-14 -109 -90 -158.5t-227 -49.5h-31v122h23q51 0 86.5 6t58 17.5t33.5 27t14 35.5h-62q-44 0 -81 10t-64 32.5t-42 58t-15 85.5q0 40 13.5 79t39.5 70t64 49.5t87 18.5q55 0 92.5 -19t60.5 -53.5t33 -82t10 -104.5v-29h73q8 0 15 -1.5t12.5 -7t8.5 -16.5t3 -30
q0 -34 -9.5 -47t-29.5 -13h-76zM153 198q0 -48 20.5 -65.5t54.5 -17.5h66v60q0 48 -15 79.5t-56 31.5q-37 0 -53.5 -25t-16.5 -63zM341 498h-228v82h46q-5 8 -7.5 22.5t-2.5 24.5q0 27 9 47t24 33.5t34 20.5t40 7q18 0 33.5 -4t26.5 -8v-77q-15 4 -26.5 5.5t-16.5 1.5
q-23 0 -32.5 -10.5t-9.5 -25.5t9.5 -26t38.5 -11h62v-82z" />
    <glyph glyph-name="uni0625" unicode="&#x625;" horiz-adv-x="249" arabic-form="isolated" 
d="M189 714v-714h-129v714h129zM213 -260h-195v70h40q-5 7 -7 19.5t-2 20.5q0 23 7.5 40.5t20.5 29.5t29.5 18t33.5 6q16 0 29 -3t23 -7v-67q-26 6 -37 6q-19 0 -27.5 -9t-8.5 -22t8.5 -22.5t32.5 -9.5h53v-70z" />
    <glyph glyph-name="uniFE88" unicode="&#x625;" horiz-adv-x="256" arabic-form="final" 
d="M296 60q0 -34 -9.5 -47t-29.5 -13h-42q-34 0 -62.5 7.5t-49 25t-32 46.5t-11.5 72v563h130v-545q0 -35 12.5 -44.5t35.5 -9.5h19q8 0 15 -1.5t12.5 -7t8.5 -16.5t3 -30zM221 -260h-195v70h40q-5 7 -7 19.5t-2 20.5q0 23 7.5 40.5t20.5 29.5t29.5 18t33.5 6q16 0 29 -3
t23 -7v-67q-26 6 -37 6q-19 0 -27.5 -9t-8.5 -22t8.5 -22.5t32.5 -9.5h53v-70z" />
    <glyph glyph-name="uni0626" unicode="&#x626;" horiz-adv-x="732" arabic-form="isolated" 
d="M130 18q0 -28 9.5 -51.5t32 -40.5t60 -26.5t93.5 -9.5q70 0 113.5 10t68 24.5t33.5 31.5t9 31q0 15 -11.5 24t-37.5 23q-29 15 -54.5 31t-44 36.5t-29.5 46t-11 60.5q0 39 14 78.5t41.5 71.5t69.5 52t98 20q37 0 65.5 -8t42.5 -13v-117q-35 8 -60.5 10.5t-39.5 2.5
q-26 0 -45 -7.5t-31.5 -19.5t-18.5 -26.5t-6 -29.5q0 -23 20.5 -39t50.5 -30q36 -17 59 -33t36.5 -32.5t19 -35t5.5 -39.5q0 -42 -17 -86t-58.5 -79.5t-110 -58t-171.5 -22.5q-91 0 -153 18.5t-100.5 51.5t-55 77.5t-16.5 97.5v161h130v-155zM237 301h-228v82h46
q-5 8 -7.5 22.5t-2.5 24.5q0 27 9 47t24 33.5t34 20.5t40 7q18 0 33.5 -4t26.5 -8v-77q-15 4 -26.5 5.5t-16.5 1.5q-23 0 -32.5 -10.5t-9.5 -25.5t9.5 -26t38.5 -11h62v-82z" />
    <glyph glyph-name="uniFE8B" unicode="&#x626;" horiz-adv-x="306" arabic-form="initial" 
d="M115 115v283h131v-398h-246q-8 0 -15 1.5t-12.5 7t-8.5 16.5t-3 30q0 34 9.5 47t29.5 13h115zM290 498h-228v82h46q-5 8 -7.5 22.5t-2.5 24.5q0 27 9 47t24 33.5t34 20.5t40 7q18 0 33.5 -4t26.5 -8v-77q-15 4 -26.5 5.5t-16.5 1.5q-23 0 -32.5 -10.5t-9.5 -25.5t9.5 -26
t38.5 -11h62v-82z" />
    <glyph glyph-name="uniFE8C" unicode="&#x626;" horiz-adv-x="328" arabic-form="medial" 
d="M61 115q34 0 47.5 10.5t13.5 47.5v225h130v-214q0 -37 14 -53t62 -16q8 0 15 -1.5t12.5 -7t8.5 -16.5t3 -30q0 -34 -9.5 -47t-29.5 -13q-29 0 -56 9.5t-45 41.5q-12 -17 -29 -27.5t-36 -15.5t-39.5 -6.5t-40.5 -1.5h-82q-8 0 -15 1.5t-12.5 7t-8.5 16.5t-3 30
q0 34 9.5 47t29.5 13h61zM306 498h-228v82h46q-5 8 -7.5 22.5t-2.5 24.5q0 27 9 47t24 33.5t34 20.5t40 7q18 0 33.5 -4t26.5 -8v-77q-15 4 -26.5 5.5t-16.5 1.5q-23 0 -32.5 -10.5t-9.5 -25.5t9.5 -26t38.5 -11h62v-82z" />
    <glyph glyph-name="uniFE8A" unicode="&#x626;" horiz-adv-x="718" arabic-form="final" 
d="M667 0q2 -9 3.5 -20t1.5 -26q0 -41 -15.5 -75t-54.5 -59t-105 -39t-167 -14q-98 0 -161.5 18.5t-101 51t-52.5 76t-15 94.5v166h130v-162q0 -65 47 -94.5t155 -29.5q70 0 112.5 8t66 20t31 25t7.5 23q0 26 -51.5 44t-138.5 40v119q66 -21 126 -36t108 -15h125
q8 0 15 -1.5t12.5 -7t8.5 -16.5t3 -30q0 -34 -9.5 -47t-29.5 -13h-51zM252 269h-228v82h46q-5 8 -7.5 22.5t-2.5 24.5q0 27 9 47t24 33.5t34 20.5t40 7q18 0 33.5 -4t26.5 -8v-77q-15 4 -26.5 5.5t-16.5 1.5q-23 0 -32.5 -10.5t-9.5 -25.5t9.5 -26t38.5 -11h62v-82z" />
    <glyph glyph-name="uni0627" unicode="&#x627;" horiz-adv-x="249" arabic-form="isolated" 
d="M189 714v-714h-129v714h129z" />
    <glyph glyph-name="uniFE8E" unicode="&#x627;" horiz-adv-x="256" arabic-form="final" 
d="M296 60q0 -34 -9.5 -47t-29.5 -13h-42q-34 0 -62.5 7.5t-49 25t-32 46.5t-11.5 72v563h130v-545q0 -35 12.5 -44.5t35.5 -9.5h19q8 0 15 -1.5t12.5 -7t8.5 -16.5t3 -30z" />
    <glyph glyph-name="uni0628" unicode="&#x628;" horiz-adv-x="866" arabic-form="isolated" 
d="M806 0h-598q-59 0 -99 8.5t-64 27.5t-34.5 49t-10.5 73v165h131v-146q0 -19 5 -31t18 -19t35 -9.5t56 -2.5h431v283h130v-398zM345 -168q0 29 21 50t50 21t50 -21t21 -50t-21 -50t-50 -21t-50 21t-21 50z" />
    <glyph glyph-name="uniFE91" unicode="&#x628;" horiz-adv-x="306" arabic-form="initial" 
d="M115 115v283h131v-398h-246q-8 0 -15 1.5t-12.5 7t-8.5 16.5t-3 30q0 34 9.5 47t29.5 13h115zM99 -165q0 29 21 50t50 21t50 -21t21 -50t-21 -50t-50 -21t-50 21t-21 50z" />
    <glyph glyph-name="uniFE92" unicode="&#x628;" horiz-adv-x="328" arabic-form="medial" 
d="M61 115q34 0 47.5 10.5t13.5 47.5v225h130v-214q0 -37 14 -53t62 -16q8 0 15 -1.5t12.5 -7t8.5 -16.5t3 -30q0 -34 -9.5 -47t-29.5 -13q-29 0 -56 9.5t-45 41.5q-12 -17 -29 -27.5t-36 -15.5t-39.5 -6.5t-40.5 -1.5h-82q-8 0 -15 1.5t-12.5 7t-8.5 16.5t-3 30
q0 34 9.5 47t29.5 13h61zM116 -165q0 29 21 50t50 21t50 -21t21 -50t-21 -50t-50 -21t-50 21t-21 50z" />
    <glyph glyph-name="uniFE90" unicode="&#x628;" horiz-adv-x="895" arabic-form="final" 
d="M895 0q-29 0 -58 9.5t-47 41.5q-12 -17 -28.5 -27.5t-35.5 -15.5t-39.5 -6.5t-40.5 -1.5h-439q-59 0 -99 8.5t-64 27.5t-34 49t-10 73v165h130v-147q0 -20 5 -31.5t18 -18.5t35 -9t56 -2h381q34 0 47.5 10.5t13.5 47.5v225h129v-214q0 -37 15.5 -53t64.5 -16q8 0 15 -1.5
t12.5 -7t8.5 -16.5t3 -30q0 -34 -9.5 -47t-29.5 -13zM337 -168q0 29 21 50t50 21t50 -21t21 -50t-21 -50t-50 -21t-50 21t-21 50z" />
    <glyph glyph-name="uni0629" unicode="&#x629;" horiz-adv-x="441" arabic-form="isolated" 
d="M196 293q-20 0 -33.5 -9.5t-22 -24.5t-12.5 -34t-4 -37q0 -35 16 -56.5t58 -21.5q34 0 52 19.5t18 54.5q0 45 -18.5 77t-53.5 32zM0 180q0 40 13.5 81.5t39 74.5t61.5 54t82 21q42 0 77.5 -16t61.5 -45.5t41 -72.5t15 -97q0 -35 -11 -68t-35 -58.5t-61.5 -41.5t-90.5 -16
q-43 0 -78.5 11t-61 33.5t-39.5 57.5t-14 82zM48 571q0 29 21 50t50 21t50 -21t21 -50t-21 -50t-50 -21t-50 21t-21 50zM211 571q0 29 21 50t50 21t50 -21t21 -50t-21 -50t-50 -21t-50 21t-21 50z" />
    <glyph glyph-name="uniFE94" unicode="&#x629;" horiz-adv-x="439" arabic-form="final" 
d="M127 260q0 -12 3 -25.5t11 -24t21.5 -17.5t34.5 -7q13 0 26.5 1t27.5 6v138h-50q-37 0 -55.5 -19.5t-18.5 -51.5zM406 0q-24 0 -46.5 3.5t-41.5 12.5t-33.5 24.5t-22.5 40.5q-17 -4 -35 -6.5t-36 -2.5q-25 0 -58 7.5t-62.5 27.5t-50 55.5t-20.5 91.5q0 55 19.5 93t50 62
t68 34.5t73.5 10.5h170v-299q0 -23 6 -31.5t28 -8.5h24q8 0 15 -1.5t12.5 -7t8.5 -16.5t3 -30q0 -34 -9.5 -47t-29.5 -13h-33zM67 621q0 29 21 50t50 21t50 -21t21 -50t-21 -50t-50 -21t-50 21t-21 50zM230 621q0 29 21 50t50 21t50 -21t21 -50t-21 -50t-50 -21t-50 21
t-21 50z" />
    <glyph glyph-name="uni062A" unicode="&#x62a;" horiz-adv-x="866" arabic-form="isolated" 
d="M806 0h-598q-59 0 -99 8.5t-64 27.5t-34.5 49t-10.5 73v165h131v-146q0 -19 5 -31t18 -19t35 -9.5t56 -2.5h431v283h130v-398zM256 514q0 29 21 50t50 21t50 -21t21 -50t-21 -50t-50 -21t-50 21t-21 50zM419 514q0 29 21 50t50 21t50 -21t21 -50t-21 -50t-50 -21t-50 21
t-21 50z" />
    <glyph glyph-name="uniFE97" unicode="&#x62a;" horiz-adv-x="306" arabic-form="initial" 
d="M115 115v283h131v-398h-246q-8 0 -15 1.5t-12.5 7t-8.5 16.5t-3 30q0 34 9.5 47t29.5 13h115zM18 571q0 29 21 50t50 21t50 -21t21 -50t-21 -50t-50 -21t-50 21t-21 50zM181 571q0 29 21 50t50 21t50 -21t21 -50t-21 -50t-50 -21t-50 21t-21 50z" />
    <glyph glyph-name="uniFE98" unicode="&#x62a;" horiz-adv-x="328" arabic-form="medial" 
d="M61 115q34 0 47.5 10.5t13.5 47.5v225h130v-214q0 -37 14 -53t62 -16q8 0 15 -1.5t12.5 -7t8.5 -16.5t3 -30q0 -34 -9.5 -47t-29.5 -13q-29 0 -56 9.5t-45 41.5q-12 -17 -29 -27.5t-36 -15.5t-39.5 -6.5t-40.5 -1.5h-82q-8 0 -15 1.5t-12.5 7t-8.5 16.5t-3 30
q0 34 9.5 47t29.5 13h61zM26 571q0 29 21 50t50 21t50 -21t21 -50t-21 -50t-50 -21t-50 21t-21 50zM189 571q0 29 21 50t50 21t50 -21t21 -50t-21 -50t-50 -21t-50 21t-21 50z" />
    <glyph glyph-name="uniFE96" unicode="&#x62a;" horiz-adv-x="895" arabic-form="final" 
d="M895 0q-29 0 -58 9.5t-47 41.5q-12 -17 -28.5 -27.5t-35.5 -15.5t-39.5 -6.5t-40.5 -1.5h-439q-59 0 -99 8.5t-64 27.5t-34 49t-10 73v165h130v-147q0 -20 5 -31.5t18 -18.5t35 -9t56 -2h381q34 0 47.5 10.5t13.5 47.5v225h129v-214q0 -37 15.5 -53t64.5 -16q8 0 15 -1.5
t12.5 -7t8.5 -16.5t3 -30q0 -34 -9.5 -47t-29.5 -13zM252 514q0 29 21 50t50 21t50 -21t21 -50t-21 -50t-50 -21t-50 21t-21 50zM415 514q0 29 21 50t50 21t50 -21t21 -50t-21 -50t-50 -21t-50 21t-21 50z" />
    <glyph glyph-name="uni062B" unicode="&#x62b;" horiz-adv-x="866" arabic-form="isolated" 
d="M806 0h-598q-59 0 -99 8.5t-64 27.5t-34.5 49t-10.5 73v165h131v-146q0 -19 5 -31t18 -19t35 -9.5t56 -2.5h431v283h130v-398zM253 514q0 29 21 50t50 21t50 -21t21 -50t-21 -50t-50 -21t-50 21t-21 50zM416 514q0 29 21 50t50 21t50 -21t21 -50t-21 -50t-50 -21t-50 21
t-21 50zM337 659q0 29 21 50t50 21t50 -21t21 -50t-21 -50t-50 -21t-50 21t-21 50z" />
    <glyph glyph-name="uniFE9B" unicode="&#x62b;" horiz-adv-x="306" arabic-form="initial" 
d="M115 115v283h131v-398h-246q-8 0 -15 1.5t-12.5 7t-8.5 16.5t-3 30q0 34 9.5 47t29.5 13h115zM18 571q0 29 21 50t50 21t50 -21t21 -50t-21 -50t-50 -21t-50 21t-21 50zM181 571q0 29 21 50t50 21t50 -21t21 -50t-21 -50t-50 -21t-50 21t-21 50zM102 716q0 29 21 50
t50 21t50 -21t21 -50t-21 -50t-50 -21t-50 21t-21 50z" />
    <glyph glyph-name="uniFE9C" unicode="&#x62b;" horiz-adv-x="328" arabic-form="medial" 
d="M61 115q34 0 47.5 10.5t13.5 47.5v225h130v-214q0 -37 14 -53t62 -16q8 0 15 -1.5t12.5 -7t8.5 -16.5t3 -30q0 -34 -9.5 -47t-29.5 -13q-29 0 -56 9.5t-45 41.5q-12 -17 -29 -27.5t-36 -15.5t-39.5 -6.5t-40.5 -1.5h-82q-8 0 -15 1.5t-12.5 7t-8.5 16.5t-3 30
q0 34 9.5 47t29.5 13h61zM26 571q0 29 21 50t50 21t50 -21t21 -50t-21 -50t-50 -21t-50 21t-21 50zM189 571q0 29 21 50t50 21t50 -21t21 -50t-21 -50t-50 -21t-50 21t-21 50zM110 716q0 29 21 50t50 21t50 -21t21 -50t-21 -50t-50 -21t-50 21t-21 50z" />
    <glyph glyph-name="uniFE9A" unicode="&#x62b;" horiz-adv-x="895" arabic-form="final" 
d="M895 0q-29 0 -58 9.5t-47 41.5q-12 -17 -28.5 -27.5t-35.5 -15.5t-39.5 -6.5t-40.5 -1.5h-439q-59 0 -99 8.5t-64 27.5t-34 49t-10 73v165h130v-147q0 -20 5 -31.5t18 -18.5t35 -9t56 -2h381q34 0 47.5 10.5t13.5 47.5v225h129v-214q0 -37 15.5 -53t64.5 -16q8 0 15 -1.5
t12.5 -7t8.5 -16.5t3 -30q0 -34 -9.5 -47t-29.5 -13zM253 514q0 29 21 50t50 21t50 -21t21 -50t-21 -50t-50 -21t-50 21t-21 50zM416 514q0 29 21 50t50 21t50 -21t21 -50t-21 -50t-50 -21t-50 21t-21 50zM337 659q0 29 21 50t50 21t50 -21t21 -50t-21 -50t-50 -21t-50 21
t-21 50z" />
    <glyph glyph-name="uni062C" unicode="&#x62c;" horiz-adv-x="624" arabic-form="isolated" 
d="M445 115q-5 88 -45.5 135t-129.5 47q-8 0 -21 -1t-29.5 -3.5t-34.5 -6t-36 -8.5v116q23 8 63 17t82 9q78 0 131.5 -27t86.5 -72t47.5 -104.5t14.5 -123.5v-93h-295q-72 0 -109 -38t-37 -98q0 -66 42.5 -102.5t111.5 -36.5q33 0 75.5 8.5t105.5 37.5l50 -93
q-34 -23 -68 -38t-64.5 -23t-55.5 -11t-40 -3q-63 0 -116 15.5t-92 47t-60.5 80t-21.5 114.5q0 62 20.5 109.5t57 80t88 49t114.5 16.5h165zM245 -138q0 29 21 50t50 21t50 -21t21 -50t-21 -50t-50 -21t-50 21t-21 50z" />
    <glyph glyph-name="uniFE9F" unicode="&#x62c;" horiz-adv-x="536" arabic-form="initial" 
d="M358 115q-3 40 -13 73.5t-30.5 57.5t-52.5 37.5t-80 13.5q-16 0 -50.5 -4.5t-69.5 -14.5v116q23 8 62.5 17t81.5 9q78 0 131.5 -27t86.5 -72t47.5 -104.5t14.5 -123.5v-93h-486q-8 0 -15 1.5t-12.5 7t-8.5 16.5t-3 30q0 34 9.5 47t29.5 13h358zM157 -166q0 29 21 50
t50 21t50 -21t21 -50t-21 -50t-50 -21t-50 21t-21 50z" />
    <glyph glyph-name="uniFEA0" unicode="&#x62c;" horiz-adv-x="550" arabic-form="medial" 
d="M358 115q-3 40 -13 73.5t-30 57.5t-52.5 37.5t-80.5 13.5q-16 0 -50 -4.5t-70 -14.5v116q23 8 63 17t81 9q75 0 127.5 -24.5t85.5 -66.5t48.5 -97.5t17.5 -116.5h65q8 0 15 -1.5t12.5 -7t8.5 -16.5t3 -30q0 -34 -9.5 -47t-29.5 -13h-550q-8 0 -15 1.5t-12.5 7t-8.5 16.5
t-3 30q0 34 9.5 47t29.5 13h358zM157 -166q0 29 21 50t50 21t50 -21t21 -50t-21 -50t-50 -21t-50 21t-21 50z" />
    <glyph glyph-name="uniFE9E" unicode="&#x62c;" horiz-adv-x="638" arabic-form="final" 
d="M279 0q-72 0 -109 -38t-37 -98q0 -66 42.5 -102.5t111.5 -36.5q33 0 77 9t104 37l50 -93q-34 -23 -68 -38t-64.5 -23t-55.5 -11t-40 -3q-63 0 -116 15.5t-91.5 47t-60.5 80t-22 114.5q0 62 20.5 109.5t57.5 80t88.5 49t113.5 16.5h166q-6 88 -46.5 135t-129.5 47
q-16 0 -50.5 -4t-70.5 -15v116q23 8 63 17t82 9q75 0 127 -24.5t85 -66.5t49 -97.5t18 -116.5h65q8 0 15 -1.5t12.5 -7t8.5 -16.5t3 -30q0 -34 -9.5 -47t-29.5 -13h-359zM245 -138q0 29 21 50t50 21t50 -21t21 -50t-21 -50t-50 -21t-50 21t-21 50z" />
    <glyph glyph-name="uni062D" unicode="&#x62d;" horiz-adv-x="624" arabic-form="isolated" 
d="M445 115q-5 88 -45.5 135t-129.5 47q-8 0 -21 -1t-29.5 -3.5t-34.5 -6t-36 -8.5v116q23 8 63 17t82 9q78 0 131.5 -27t86.5 -72t47.5 -104.5t14.5 -123.5v-93h-295q-72 0 -109 -38t-37 -98q0 -66 42.5 -102.5t111.5 -36.5q33 0 75.5 8.5t105.5 37.5l50 -93
q-34 -23 -68 -38t-64.5 -23t-55.5 -11t-40 -3q-63 0 -116 15.5t-92 47t-60.5 80t-21.5 114.5q0 62 20.5 109.5t57 80t88 49t114.5 16.5h165z" />
    <glyph glyph-name="uniFEA3" unicode="&#x62d;" horiz-adv-x="536" arabic-form="initial" 
d="M358 115q-3 40 -13 73.5t-30.5 57.5t-52.5 37.5t-80 13.5q-16 0 -50.5 -4.5t-69.5 -14.5v116q23 8 62.5 17t81.5 9q78 0 131.5 -27t86.5 -72t47.5 -104.5t14.5 -123.5v-93h-486q-8 0 -15 1.5t-12.5 7t-8.5 16.5t-3 30q0 34 9.5 47t29.5 13h358z" />
    <glyph glyph-name="uniFEA4" unicode="&#x62d;" horiz-adv-x="550" arabic-form="medial" 
d="M358 115q-3 40 -13 73.5t-30 57.5t-52.5 37.5t-80.5 13.5q-16 0 -50 -4.5t-70 -14.5v116q23 8 63 17t81 9q75 0 127.5 -24.5t85.5 -66.5t48.5 -97.5t17.5 -116.5h65q8 0 15 -1.5t12.5 -7t8.5 -16.5t3 -30q0 -34 -9.5 -47t-29.5 -13h-550q-8 0 -15 1.5t-12.5 7t-8.5 16.5
t-3 30q0 34 9.5 47t29.5 13h358z" />
    <glyph glyph-name="uniFEA2" unicode="&#x62d;" horiz-adv-x="638" arabic-form="final" 
d="M279 0q-72 0 -109 -38t-37 -98q0 -66 42.5 -102.5t111.5 -36.5q33 0 77 9t104 37l50 -93q-34 -23 -68 -38t-64.5 -23t-55.5 -11t-40 -3q-63 0 -116 15.5t-91.5 47t-60.5 80t-22 114.5q0 62 20.5 109.5t57.5 80t88.5 49t113.5 16.5h166q-6 88 -46.5 135t-129.5 47
q-16 0 -50.5 -4t-70.5 -15v116q23 8 63 17t82 9q75 0 127 -24.5t85 -66.5t49 -97.5t18 -116.5h65q8 0 15 -1.5t12.5 -7t8.5 -16.5t3 -30q0 -34 -9.5 -47t-29.5 -13h-359z" />
    <glyph glyph-name="uni062E" unicode="&#x62e;" horiz-adv-x="624" arabic-form="isolated" 
d="M445 115q-5 88 -45.5 135t-129.5 47q-8 0 -21 -1t-29.5 -3.5t-34.5 -6t-36 -8.5v116q23 8 63 17t82 9q78 0 131.5 -27t86.5 -72t47.5 -104.5t14.5 -123.5v-93h-295q-72 0 -109 -38t-37 -98q0 -66 42.5 -102.5t111.5 -36.5q33 0 75.5 8.5t105.5 37.5l50 -93
q-34 -23 -68 -38t-64.5 -23t-55.5 -11t-40 -3q-63 0 -116 15.5t-92 47t-60.5 80t-21.5 114.5q0 62 20.5 109.5t57 80t88 49t114.5 16.5h165zM212 571q0 29 21 50t50 21t50 -21t21 -50t-21 -50t-50 -21t-50 21t-21 50z" />
    <glyph glyph-name="uniFEA7" unicode="&#x62e;" horiz-adv-x="536" arabic-form="initial" 
d="M358 115q-3 40 -13 73.5t-30.5 57.5t-52.5 37.5t-80 13.5q-16 0 -50.5 -4.5t-69.5 -14.5v116q23 8 62.5 17t81.5 9q78 0 131.5 -27t86.5 -72t47.5 -104.5t14.5 -123.5v-93h-486q-8 0 -15 1.5t-12.5 7t-8.5 16.5t-3 30q0 34 9.5 47t29.5 13h358zM122 571q0 29 21 50t50 21
t50 -21t21 -50t-21 -50t-50 -21t-50 21t-21 50z" />
    <glyph glyph-name="uniFEA8" unicode="&#x62e;" horiz-adv-x="550" arabic-form="medial" 
d="M358 115q-3 40 -13 73.5t-30 57.5t-52.5 37.5t-80.5 13.5q-16 0 -50 -4.5t-70 -14.5v116q23 8 63 17t81 9q75 0 127.5 -24.5t85.5 -66.5t48.5 -97.5t17.5 -116.5h65q8 0 15 -1.5t12.5 -7t8.5 -16.5t3 -30q0 -34 -9.5 -47t-29.5 -13h-550q-8 0 -15 1.5t-12.5 7t-8.5 16.5
t-3 30q0 34 9.5 47t29.5 13h358zM122 571q0 29 21 50t50 21t50 -21t21 -50t-21 -50t-50 -21t-50 21t-21 50z" />
    <glyph glyph-name="uniFEA6" unicode="&#x62e;" horiz-adv-x="638" arabic-form="final" 
d="M279 0q-72 0 -109 -38t-37 -98q0 -66 42.5 -102.5t111.5 -36.5q33 0 77 9t104 37l50 -93q-34 -23 -68 -38t-64.5 -23t-55.5 -11t-40 -3q-63 0 -116 15.5t-91.5 47t-60.5 80t-22 114.5q0 62 20.5 109.5t57.5 80t88.5 49t113.5 16.5h166q-6 88 -46.5 135t-129.5 47
q-16 0 -50.5 -4t-70.5 -15v116q23 8 63 17t82 9q75 0 127 -24.5t85 -66.5t49 -97.5t18 -116.5h65q8 0 15 -1.5t12.5 -7t8.5 -16.5t3 -30q0 -34 -9.5 -47t-29.5 -13h-359zM212 571q0 29 21 50t50 21t50 -21t21 -50t-21 -50t-50 -21t-50 21t-21 50z" />
    <glyph glyph-name="uni062F" unicode="&#x62f;" horiz-adv-x="443" arabic-form="isolated" 
d="M403 126q0 -26 -8.5 -49t-25.5 -40t-44 -27t-64 -10h-242v115h196q23 0 36 4.5t13 16.5q0 6 -1.5 12t-7.5 16.5t-17.5 27.5l-30.5 45l-79 118l58.5 38.5l59.5 37.5l87 -141q35 -57 52.5 -95t17.5 -69z" />
    <glyph glyph-name="uniFEAA" unicode="&#x62f;" horiz-adv-x="468" arabic-form="final" 
d="M468 0q-29 0 -49.5 3t-35.5 9t-28 15.5t-27 22.5q-29 -33 -62.5 -41.5t-72.5 -8.5h-174v115h198q24 0 35.5 7.5t11.5 17.5q0 11 -9.5 27t-35.5 53l-91 135l119 76l120 -203l33 -54t25.5 -35t21.5 -18.5t21 -5.5q8 0 15 -1.5t12.5 -7t8.5 -16.5t3 -30q0 -34 -9.5 -47
t-29.5 -13z" />
    <glyph glyph-name="uni0630" unicode="&#x630;" horiz-adv-x="443" arabic-form="isolated" 
d="M403 126q0 -26 -8.5 -49t-25.5 -40t-44 -27t-64 -10h-242v115h196q23 0 36 4.5t13 16.5q0 6 -1.5 12t-7.5 16.5t-17.5 27.5l-30.5 45l-79 118l58.5 38.5l59.5 37.5l87 -141q35 -57 52.5 -95t17.5 -69zM99 571q0 29 21 50t50 21t50 -21t21 -50t-21 -50t-50 -21t-50 21
t-21 50z" />
    <glyph glyph-name="uniFEAC" unicode="&#x630;" horiz-adv-x="468" arabic-form="final" 
d="M468 0q-29 0 -49.5 3t-35.5 9t-28 15.5t-27 22.5q-29 -33 -62.5 -41.5t-72.5 -8.5h-174v115h198q24 0 35.5 7.5t11.5 17.5q0 11 -9.5 27t-35.5 53l-91 135l119 76l120 -203l33 -54t25.5 -35t21.5 -18.5t21 -5.5q8 0 15 -1.5t12.5 -7t8.5 -16.5t3 -30q0 -34 -9.5 -47
t-29.5 -13zM102 571q0 29 21 50t50 21t50 -21t21 -50t-21 -50t-50 -21t-50 21t-21 50z" />
    <glyph glyph-name="uni0631" unicode="&#x631;" horiz-adv-x="319" arabic-form="isolated" 
d="M129 354h130v-298q0 -72 -11 -122t-38.5 -81t-76 -45.5t-123.5 -15.5v122q40 1 64 9.5t36 25.5t15.5 43.5t3.5 63.5v298z" />
    <glyph glyph-name="uniFEAE" unicode="&#x631;" horiz-adv-x="333" arabic-form="final" 
d="M333 0q-13 0 -36 6t-40 26q-1 -68 -16 -113.5t-45 -73.5t-76 -40t-110 -13v122q41 1 65 9.5t36 25.5t15.5 43.5t3.5 63.5v298h129v-170q0 -39 23.5 -54t50.5 -15q8 0 15 -1.5t12.5 -7t8.5 -16.5t3 -30q0 -34 -9.5 -47t-29.5 -13z" />
    <glyph glyph-name="uni0632" unicode="&#x632;" horiz-adv-x="319" arabic-form="isolated" 
d="M129 354h130v-298q0 -72 -11 -122t-38.5 -81t-76 -45.5t-123.5 -15.5v122q40 1 64 9.5t36 25.5t15.5 43.5t3.5 63.5v298zM119 571q0 29 21 50t50 21t50 -21t21 -50t-21 -50t-50 -21t-50 21t-21 50z" />
    <glyph glyph-name="uniFEB0" unicode="&#x632;" horiz-adv-x="333" arabic-form="final" 
d="M333 0q-13 0 -36 6t-40 26q-1 -68 -16 -113.5t-45 -73.5t-76 -40t-110 -13v122q41 1 65 9.5t36 25.5t15.5 43.5t3.5 63.5v298h129v-170q0 -39 23.5 -54t50.5 -15q8 0 15 -1.5t12.5 -7t8.5 -16.5t3 -30q0 -34 -9.5 -47t-29.5 -13zM123 571q0 29 21 50t50 21t50 -21t21 -50
t-21 -50t-50 -21t-50 21t-21 50z" />
    <glyph glyph-name="uni0633" unicode="&#x633;" horiz-adv-x="1131" arabic-form="isolated" 
d="M665 0q-42 0 -74 12t-44 23q-1 -78 -20 -129.5t-54.5 -83t-86 -44.5t-114.5 -13q-272 0 -272 259v137h129v-132q0 -70 36.5 -107t108.5 -37q75 0 110.5 31t35.5 106v332h129v-170q0 -32 17 -50.5t54 -18.5q29 0 50 9t21 39v191h129v-170q0 -35 12.5 -52t46.5 -17h63v283
h129v-398h-153q-29 0 -49.5 4t-35 11t-24 16.5t-16.5 20.5q-25 -29 -58.5 -40.5t-69.5 -11.5z" />
    <glyph glyph-name="uniFEB3" unicode="&#x633;" horiz-adv-x="829" arabic-form="initial" 
d="M41 115q22 0 36.5 1t23.5 6t13 14.5t4 26.5v191h128v-170q0 -32 17.5 -50.5t54.5 -18.5q29 0 49.5 9t20.5 39v191h130v-170q0 -69 59 -69h62v283h130v-398h-153q-53 0 -80 12.5t-46 39.5q-15 -19 -32 -29.5t-35 -15.5t-35.5 -6t-33.5 -1q-51 0 -85.5 16.5t-49.5 35.5
q-27 -35 -70 -43.5t-110 -8.5h-39q-8 0 -15 1.5t-12.5 7t-8.5 16.5t-3 30q0 34 9.5 47t29.5 13h41z" />
    <glyph glyph-name="uniFEB4" unicode="&#x633;" horiz-adv-x="849" arabic-form="medial" 
d="M35 115q22 0 36.5 1t23.5 6t13 14.5t4 26.5v191h129v-170q0 -32 17.5 -50.5t53.5 -18.5q30 0 50.5 9t20.5 39v191h129v-170q0 -35 15.5 -52t51.5 -17q28 0 45 9.5t17 41.5v232h129v-214q0 -37 15 -53t64 -16q8 0 15 -1.5t12.5 -7t8.5 -16.5t3 -30q0 -34 -9.5 -47
t-29.5 -13q-29 0 -57 10.5t-46 42.5q-14 -19 -29.5 -29.5t-31.5 -16t-32 -6.5t-31 -1q-18 0 -38 3t-39.5 9t-35 16t-24.5 24q-31 -34 -62.5 -43t-68.5 -9q-98 0 -141 52q-27 -35 -70 -43.5t-110 -8.5h-33q-8 0 -15 1.5t-12.5 7t-8.5 16.5t-3 30q0 34 9.5 47t29.5 13h35z" />
    <glyph glyph-name="uniFEB2" unicode="&#x633;" horiz-adv-x="1160" arabic-form="final" 
d="M1160 0q-29 0 -59 10.5t-49 42.5q-29 -35 -61.5 -44t-60.5 -9q-60 0 -91 15t-47 37q-24 -29 -58 -40.5t-70 -11.5q-42 0 -73.5 12t-44.5 23q-1 -78 -20 -129.5t-54.5 -83t-86 -44.5t-114.5 -13q-271 0 -271 259v137h128v-138q0 -138 145 -138q75 0 110.5 28.5t35.5 102.5
v338h129v-170q0 -32 17.5 -50.5t53.5 -18.5q29 0 50 9t21 39v191h130v-170q0 -22 6 -35.5t15 -21t21 -10t24 -2.5q29 0 45.5 9.5t16.5 41.5v232h130v-214q0 -37 17 -53t65 -16q8 0 15 -1.5t12.5 -7t8.5 -16.5t3 -30q0 -34 -9.5 -47t-29.5 -13z" />
    <glyph glyph-name="uni0634" unicode="&#x634;" horiz-adv-x="1131" arabic-form="isolated" 
d="M665 0q-42 0 -74 12t-44 23q-1 -78 -20 -129.5t-54.5 -83t-86 -44.5t-114.5 -13q-272 0 -272 259v137h129v-132q0 -70 36.5 -107t108.5 -37q75 0 110.5 31t35.5 106v332h129v-170q0 -32 17 -50.5t54 -18.5q29 0 50 9t21 39v191h129v-170q0 -35 12.5 -52t46.5 -17h63v283
h129v-398h-153q-29 0 -49.5 4t-35 11t-24 16.5t-16.5 20.5q-25 -29 -58.5 -40.5t-69.5 -11.5zM597 571q0 29 21 50t50 21t50 -21t21 -50t-21 -50t-50 -21t-50 21t-21 50zM760 571q0 29 21 50t50 21t50 -21t21 -50t-21 -50t-50 -21t-50 21t-21 50zM681 716q0 29 21 50t50 21
t50 -21t21 -50t-21 -50t-50 -21t-50 21t-21 50z" />
    <glyph glyph-name="uniFEB7" unicode="&#x634;" horiz-adv-x="829" arabic-form="initial" 
d="M41 115q22 0 36.5 1t23.5 6t13 14.5t4 26.5v191h128v-170q0 -32 17.5 -50.5t54.5 -18.5q29 0 49.5 9t20.5 39v191h130v-170q0 -69 59 -69h62v283h130v-398h-153q-53 0 -80 12.5t-46 39.5q-15 -19 -32 -29.5t-35 -15.5t-35.5 -6t-33.5 -1q-51 0 -85.5 16.5t-49.5 35.5
q-27 -35 -70 -43.5t-110 -8.5h-39q-8 0 -15 1.5t-12.5 7t-8.5 16.5t-3 30q0 34 9.5 47t29.5 13h41zM296 571q0 29 21 50t50 21t50 -21t21 -50t-21 -50t-50 -21t-50 21t-21 50zM459 571q0 29 21 50t50 21t50 -21t21 -50t-21 -50t-50 -21t-50 21t-21 50zM380 716q0 29 21 50
t50 21t50 -21t21 -50t-21 -50t-50 -21t-50 21t-21 50z" />
    <glyph glyph-name="uniFEB8" unicode="&#x634;" horiz-adv-x="849" arabic-form="medial" 
d="M35 115q22 0 36.5 1t23.5 6t13 14.5t4 26.5v191h129v-170q0 -32 17.5 -50.5t53.5 -18.5q30 0 50.5 9t20.5 39v191h129v-170q0 -35 15.5 -52t51.5 -17q28 0 45 9.5t17 41.5v232h129v-214q0 -37 15 -53t64 -16q8 0 15 -1.5t12.5 -7t8.5 -16.5t3 -30q0 -34 -9.5 -47
t-29.5 -13q-29 0 -57 10.5t-46 42.5q-14 -19 -29.5 -29.5t-31.5 -16t-32 -6.5t-31 -1q-18 0 -38 3t-39.5 9t-35 16t-24.5 24q-31 -34 -62.5 -43t-68.5 -9q-98 0 -141 52q-27 -35 -70 -43.5t-110 -8.5h-33q-8 0 -15 1.5t-12.5 7t-8.5 16.5t-3 30q0 34 9.5 47t29.5 13h35z
M296 571q0 29 21 50t50 21t50 -21t21 -50t-21 -50t-50 -21t-50 21t-21 50zM459 571q0 29 21 50t50 21t50 -21t21 -50t-21 -50t-50 -21t-50 21t-21 50zM380 716q0 29 21 50t50 21t50 -21t21 -50t-21 -50t-50 -21t-50 21t-21 50z" />
    <glyph glyph-name="uniFEB6" unicode="&#x634;" horiz-adv-x="1160" arabic-form="final" 
d="M1160 0q-29 0 -59 10.5t-49 42.5q-29 -35 -61.5 -44t-60.5 -9q-60 0 -91 15t-47 37q-24 -29 -58 -40.5t-70 -11.5q-42 0 -73.5 12t-44.5 23q-1 -78 -20 -129.5t-54.5 -83t-86 -44.5t-114.5 -13q-271 0 -271 259v137h128v-138q0 -138 145 -138q75 0 110.5 28.5t35.5 102.5
v338h129v-170q0 -32 17.5 -50.5t53.5 -18.5q29 0 50 9t21 39v191h130v-170q0 -22 6 -35.5t15 -21t21 -10t24 -2.5q29 0 45.5 9.5t16.5 41.5v232h130v-214q0 -37 17 -53t65 -16q8 0 15 -1.5t12.5 -7t8.5 -16.5t3 -30q0 -34 -9.5 -47t-29.5 -13zM596 571q0 29 21 50t50 21
t50 -21t21 -50t-21 -50t-50 -21t-50 21t-21 50zM759 571q0 29 21 50t50 21t50 -21t21 -50t-21 -50t-50 -21t-50 21t-21 50zM680 716q0 29 21 50t50 21t50 -21t21 -50t-21 -50t-50 -21t-50 21t-21 50z" />
    <glyph glyph-name="uni0635" unicode="&#x635;" horiz-adv-x="1287" arabic-form="isolated" 
d="M708 0q-36 0 -61.5 2.5t-44 7t-31.5 11.5t-25 16q-1 -79 -20 -131t-54 -83.5t-86 -44.5t-115 -13q-271 0 -271 259v137h128v-138q0 -138 145 -138q75 0 110.5 28.5t35.5 102.5v338h129v-170q0 -16 5 -28.5t17.5 -21.5t35 -13.5t58.5 -4.5q19 54 52.5 107t79 94.5
t101.5 67.5t119 26q103 0 159.5 -60.5t56.5 -171.5v-179h-524zM1103 115v47q0 51 -22 84t-76 33q-32 0 -61.5 -13.5t-55 -36t-47 -52t-36.5 -62.5h298z" />
    <glyph glyph-name="uniFEBB" unicode="&#x635;" horiz-adv-x="936" arabic-form="initial" 
d="M751 115v47q0 51 -21.5 84t-75.5 33q-32 0 -61.5 -13.5t-55 -36t-47 -52t-36.5 -62.5h297zM41 115q22 0 36.5 1t23.5 6t13 14.5t4 26.5v191h128v-170q0 -32 15.5 -49.5t50.5 -18.5q19 54 53 107t79.5 94.5t101.5 67.5t119 26q103 0 159.5 -60.5t56.5 -171.5v-179h-524
q-51 0 -86.5 16.5t-51.5 35.5q-27 -35 -70 -43.5t-110 -8.5h-39q-8 0 -15 1.5t-12.5 7t-8.5 16.5t-3 30q0 34 9.5 47t29.5 13h41z" />
    <glyph glyph-name="uniFEBC" unicode="&#x635;" horiz-adv-x="960" arabic-form="medial" 
d="M41 115q22 0 36.5 1t23.5 6t13 14.5t4 26.5v191h129v-170q0 -32 15 -49.5t50 -18.5q19 54 53 107t79.5 94.5t101.5 67.5t119 26q103 0 159.5 -60.5t56.5 -171.5v-64h79q8 0 15 -1.5t12.5 -7t8.5 -16.5t3 -30q0 -34 -9.5 -47t-29.5 -13h-603q-51 0 -86.5 16.5t-51.5 35.5
q-26 -35 -69 -43.5t-111 -8.5h-39q-8 0 -15 1.5t-12.5 7t-8.5 16.5t-3 30q0 34 9.5 47t29.5 13h41zM752 115v47q0 51 -22 84t-76 33q-32 0 -61.5 -13.5t-55 -36t-47 -52t-36.5 -62.5h298z" />
    <glyph glyph-name="uniFEBA" unicode="&#x635;" horiz-adv-x="1313" arabic-form="final" 
d="M708 0q-36 0 -62 2.5t-44 7t-31 11.5t-24 16q-1 -79 -20 -131t-54 -83.5t-86 -44.5t-115 -13q-272 0 -272 259v137h129v-138q0 -138 145 -138q75 0 110 28.5t35 102.5v338h130v-170q0 -16 4.5 -28.5t17.5 -21.5t35 -13.5t58 -4.5q19 54 52.5 107t79 94.5t101.5 67.5
t119 26q103 0 159.5 -60.5t56.5 -171.5v-64h81q8 0 15 -1.5t12.5 -7t8.5 -16.5t3 -30q0 -34 -9.5 -47t-29.5 -13h-605zM1103 115v47q0 51 -22 84t-76 33q-32 0 -61.5 -13.5t-55 -36t-47 -52t-36.5 -62.5h298z" />
    <glyph glyph-name="uni0636" unicode="&#x636;" horiz-adv-x="1287" arabic-form="isolated" 
d="M708 0q-36 0 -61.5 2.5t-44 7t-31.5 11.5t-25 16q-1 -79 -20 -131t-54 -83.5t-86 -44.5t-115 -13q-271 0 -271 259v137h128v-138q0 -138 145 -138q75 0 110.5 28.5t35.5 102.5v338h129v-170q0 -16 5 -28.5t17.5 -21.5t35 -13.5t58.5 -4.5q19 54 52.5 107t79 94.5
t101.5 67.5t119 26q103 0 159.5 -60.5t56.5 -171.5v-179h-524zM1103 115v47q0 51 -22 84t-76 33q-32 0 -61.5 -13.5t-55 -36t-47 -52t-36.5 -62.5h298zM942 571q0 29 21 50t50 21t50 -21t21 -50t-21 -50t-50 -21t-50 21t-21 50z" />
    <glyph glyph-name="uniFEBF" unicode="&#x636;" horiz-adv-x="936" arabic-form="initial" 
d="M751 115v47q0 51 -21.5 84t-75.5 33q-32 0 -61.5 -13.5t-55 -36t-47 -52t-36.5 -62.5h297zM41 115q22 0 36.5 1t23.5 6t13 14.5t4 26.5v191h128v-170q0 -32 15.5 -49.5t50.5 -18.5q19 54 53 107t79.5 94.5t101.5 67.5t119 26q103 0 159.5 -60.5t56.5 -171.5v-179h-524
q-51 0 -86.5 16.5t-51.5 35.5q-27 -35 -70 -43.5t-110 -8.5h-39q-8 0 -15 1.5t-12.5 7t-8.5 16.5t-3 30q0 34 9.5 47t29.5 13h41zM579 571q0 29 21 50t50 21t50 -21t21 -50t-21 -50t-50 -21t-50 21t-21 50z" />
    <glyph glyph-name="uniFEC0" unicode="&#x636;" horiz-adv-x="960" arabic-form="medial" 
d="M41 115q22 0 36.5 1t23.5 6t13 14.5t4 26.5v191h129v-170q0 -32 15 -49.5t50 -18.5q19 54 53 107t79.5 94.5t101.5 67.5t119 26q103 0 159.5 -60.5t56.5 -171.5v-64h79q8 0 15 -1.5t12.5 -7t8.5 -16.5t3 -30q0 -34 -9.5 -47t-29.5 -13h-603q-51 0 -86.5 16.5t-51.5 35.5
q-26 -35 -69 -43.5t-111 -8.5h-39q-8 0 -15 1.5t-12.5 7t-8.5 16.5t-3 30q0 34 9.5 47t29.5 13h41zM752 115v47q0 51 -22 84t-76 33q-32 0 -61.5 -13.5t-55 -36t-47 -52t-36.5 -62.5h298zM593 571q0 29 21 50t50 21t50 -21t21 -50t-21 -50t-50 -21t-50 21t-21 50z" />
    <glyph glyph-name="uniFEBE" unicode="&#x636;" horiz-adv-x="1313" arabic-form="final" 
d="M708 0q-36 0 -62 2.5t-44 7t-31 11.5t-24 16q-1 -79 -20 -131t-54 -83.5t-86 -44.5t-115 -13q-272 0 -272 259v137h129v-138q0 -138 145 -138q75 0 110 28.5t35 102.5v338h130v-170q0 -16 4.5 -28.5t17.5 -21.5t35 -13.5t58 -4.5q19 54 52.5 107t79 94.5t101.5 67.5
t119 26q103 0 159.5 -60.5t56.5 -171.5v-64h81q8 0 15 -1.5t12.5 -7t8.5 -16.5t3 -30q0 -34 -9.5 -47t-29.5 -13h-605zM1103 115v47q0 51 -22 84t-76 33q-32 0 -61.5 -13.5t-55 -36t-47 -52t-36.5 -62.5h298zM943 571q0 29 21 50t50 21t50 -21t21 -50t-21 -50t-50 -21
t-50 21t-21 50z" />
    <glyph glyph-name="uni0637" unicode="&#x637;" horiz-adv-x="764" arabic-form="isolated" 
d="M579 115v57q0 24 -5 45.5t-16.5 37.5t-30.5 25t-47 9q-30 0 -58.5 -14t-54 -38t-46.5 -55.5t-36 -66.5h294zM279 297q38 49 95 81.5t123 32.5q100 0 156 -61.5t56 -170.5v-179h-693v115h133v599h130v-417z" />
    <glyph glyph-name="uniFEC3" unicode="&#x637;" horiz-adv-x="733" arabic-form="initial" 
d="M549 115v57q0 24 -5 45.5t-16.5 37.5t-30.5 25t-47 9q-30 0 -58.5 -14t-54 -38t-46.5 -55.5t-36 -66.5h294zM118 115v599h130v-417q38 49 95 81.5t123 32.5q106 0 159 -61.5t53 -170.5v-179h-678q-8 0 -15 1.5t-12.5 7t-8.5 16.5t-3 30q0 34 9.5 47t29.5 13h118z" />
    <glyph glyph-name="uniFEC4" unicode="&#x637;" horiz-adv-x="756" arabic-form="medial" 
d="M119 115v599h129v-417q39 49 96 81.5t123 32.5q105 0 158 -61.5t53 -170.5v-64h78q8 0 15 -1.5t12.5 -7t8.5 -16.5t3 -30q0 -34 -9.5 -47t-29.5 -13h-756q-8 0 -15 1.5t-12.5 7t-8.5 16.5t-3 30q0 34 9.5 47t29.5 13h119zM549 115v57q0 24 -5 45.5t-16.5 37.5t-30.5 25
t-46 9q-30 0 -59 -14t-55 -38t-47 -55.5t-35 -66.5h294z" />
    <glyph glyph-name="uniFEC2" unicode="&#x637;" horiz-adv-x="787" arabic-form="final" 
d="M16 0v115h134v599h129v-417q39 49 96 81.5t123 32.5q100 0 155.5 -61.5t55.5 -170.5v-64h78q8 0 15 -1.5t12.5 -7t8.5 -16.5t3 -30q0 -34 -9.5 -47t-29.5 -13h-771zM579 115v57q0 24 -5 45.5t-16.5 37.5t-30.5 25t-46 9q-30 0 -59 -14t-55 -38t-47 -55.5t-35 -66.5h294z
" />
    <glyph glyph-name="uni0638" unicode="&#x638;" horiz-adv-x="764" arabic-form="isolated" 
d="M579 115v57q0 24 -5 45.5t-16.5 37.5t-30.5 25t-47 9q-30 0 -58.5 -14t-54 -38t-46.5 -55.5t-36 -66.5h294zM279 297q38 49 95 81.5t123 32.5q100 0 156 -61.5t56 -170.5v-179h-693v115h133v599h130v-417zM439 571q0 29 21 50t50 21t50 -21t21 -50t-21 -50t-50 -21
t-50 21t-21 50z" />
    <glyph glyph-name="uniFEC7" unicode="&#x638;" horiz-adv-x="733" arabic-form="initial" 
d="M549 115v57q0 24 -5 45.5t-16.5 37.5t-30.5 25t-47 9q-30 0 -58.5 -14t-54 -38t-46.5 -55.5t-36 -66.5h294zM118 115v599h130v-417q38 49 95 81.5t123 32.5q106 0 159 -61.5t53 -170.5v-179h-678q-8 0 -15 1.5t-12.5 7t-8.5 16.5t-3 30q0 34 9.5 47t29.5 13h118zM401 571
q0 29 21 50t50 21t50 -21t21 -50t-21 -50t-50 -21t-50 21t-21 50z" />
    <glyph glyph-name="uniFEC8" unicode="&#x638;" horiz-adv-x="756" arabic-form="medial" 
d="M119 115v599h129v-417q39 49 96 81.5t123 32.5q105 0 158 -61.5t53 -170.5v-64h78q8 0 15 -1.5t12.5 -7t8.5 -16.5t3 -30q0 -34 -9.5 -47t-29.5 -13h-756q-8 0 -15 1.5t-12.5 7t-8.5 16.5t-3 30q0 34 9.5 47t29.5 13h119zM549 115v57q0 24 -5 45.5t-16.5 37.5t-30.5 25
t-46 9q-30 0 -59 -14t-55 -38t-47 -55.5t-35 -66.5h294zM385 571q0 29 21 50t50 21t50 -21t21 -50t-21 -50t-50 -21t-50 21t-21 50z" />
    <glyph glyph-name="uniFEC6" unicode="&#x638;" horiz-adv-x="787" arabic-form="final" 
d="M16 0v115h134v599h129v-417q39 49 96 81.5t123 32.5q100 0 155.5 -61.5t55.5 -170.5v-64h78q8 0 15 -1.5t12.5 -7t8.5 -16.5t3 -30q0 -34 -9.5 -47t-29.5 -13h-771zM579 115v57q0 24 -5 45.5t-16.5 37.5t-30.5 25t-46 9q-30 0 -59 -14t-55 -38t-47 -55.5t-35 -66.5h294z
M420 571q0 29 21 50t50 21t50 -21t21 -50t-21 -50t-50 -21t-50 21t-21 50z" />
    <glyph glyph-name="uni0639" unicode="&#x639;" horiz-adv-x="544" arabic-form="isolated" 
d="M0 -140q0 84 37 143.5t100 93.5v3q-37 50 -37 106q0 53 20 92t52 64.5t71.5 38t79.5 12.5q32 0 64.5 -7t49.5 -14v-118q-32 7 -59 11t-47 4q-51 0 -75 -25t-24 -61q0 -40 24 -64t84 -24h159v-115h-220q-72 0 -109 -38t-37 -98q0 -66 42.5 -102.5t111.5 -36.5q33 0 76 9.5
t104 37.5l51 -94q-35 -23 -69 -38t-64.5 -23t-55 -11t-39.5 -3q-63 0 -116 15.5t-92 47t-60.5 80t-21.5 114.5z" />
    <glyph glyph-name="uniFECB" unicode="&#x639;" horiz-adv-x="470" arabic-form="initial" 
d="M74 115q-10 19 -15 45.5t-5 45.5q0 53 20 92t52 64.5t71.5 38t79.5 12.5q32 0 64.5 -7t49.5 -14v-118l-64 10t-46 5q-59 0 -84 -25t-25 -61q0 -40 24.5 -64t84.5 -24h158v-115h-439q-8 0 -15 1.5t-12.5 7t-8.5 16.5t-3 30q0 34 9.5 47t29.5 13h74z" />
    <glyph glyph-name="uniFECC" unicode="&#x639;" horiz-adv-x="529" arabic-form="medial" 
d="M275 298q-35 0 -59 -8.5t-38 -18.5q9 -13 21 -28l24.5 -30.5t25.5 -29t24 -23.5q27 17 43 44.5t16 47.5q0 7 -2 15.5t-8 15t-17.5 11t-29.5 4.5zM69 115q20 0 44 1t44 5l-100 120q6 27 20 55.5t26 42.5q32 33 77 52.5t99 19.5q46 0 80 -12t56.5 -31.5t33.5 -44.5t11 -51
q0 -17 -6 -37t-17.5 -41t-29 -41t-39.5 -38h161q8 0 15 -1.5t12.5 -7t8.5 -16.5t3 -30q0 -34 -9.5 -47t-29.5 -13h-161q-26 0 -58.5 8.5t-59.5 28.5q-45 -17 -88.5 -27t-88.5 -10h-73q-8 0 -15 1.5t-12.5 7t-8.5 16.5t-3 30q0 34 9.5 47t29.5 13h69z" />
    <glyph glyph-name="uniFECA" unicode="&#x639;" horiz-adv-x="553" arabic-form="final" 
d="M296 298q-32 0 -56 -8.5t-38 -18.5q9 -13 21 -28l24.5 -30.5t25.5 -29t24 -23.5q27 17 43 44.5t16 47.5q0 7 -2 15.5t-8.5 15t-18.5 11t-31 4.5zM392 0q-26 0 -58.5 10t-59.5 30q-60 -30 -98 -70t-38 -88q0 -57 42 -85.5t105 -28.5q33 0 73 10t102 36l50 -94
q-36 -23 -70 -37.5t-64 -22.5t-55 -11t-44 -3q-59 0 -109.5 15t-88 43.5t-58.5 70.5t-21 96q0 87 48.5 146.5t138.5 96.5l-106 127q6 27 20 55.5t26 42.5q32 33 77 52.5t99 19.5q46 0 80 -12t56.5 -31.5t33.5 -44.5t11 -51q0 -17 -6 -37t-17.5 -41t-29 -41t-39.5 -38h161
q8 0 15 -1.5t12.5 -7t8.5 -16.5t3 -30q0 -34 -9.5 -47t-29.5 -13h-161z" />
    <glyph glyph-name="uni063A" unicode="&#x63a;" horiz-adv-x="544" arabic-form="isolated" 
d="M0 -140q0 84 37 143.5t100 93.5v3q-37 50 -37 106q0 53 20 92t52 64.5t71.5 38t79.5 12.5q32 0 64.5 -7t49.5 -14v-118q-32 7 -59 11t-47 4q-51 0 -75 -25t-24 -61q0 -40 24 -64t84 -24h159v-115h-220q-72 0 -109 -38t-37 -98q0 -66 42.5 -102.5t111.5 -36.5q33 0 76 9.5
t104 37.5l51 -94q-35 -23 -69 -38t-64.5 -23t-55 -11t-39.5 -3q-63 0 -116 15.5t-92 47t-60.5 80t-21.5 114.5zM253 571q0 29 21 50t50 21t50 -21t21 -50t-21 -50t-50 -21t-50 21t-21 50z" />
    <glyph glyph-name="uniFECF" unicode="&#x63a;" horiz-adv-x="470" arabic-form="initial" 
d="M74 115q-10 19 -15 45.5t-5 45.5q0 53 20 92t52 64.5t71.5 38t79.5 12.5q32 0 64.5 -7t49.5 -14v-118l-64 10t-46 5q-59 0 -84 -25t-25 -61q0 -40 24.5 -64t84.5 -24h158v-115h-439q-8 0 -15 1.5t-12.5 7t-8.5 16.5t-3 30q0 34 9.5 47t29.5 13h74zM211 571q0 29 21 50
t50 21t50 -21t21 -50t-21 -50t-50 -21t-50 21t-21 50z" />
    <glyph glyph-name="uniFED0" unicode="&#x63a;" horiz-adv-x="529" arabic-form="medial" 
d="M275 298q-35 0 -59 -8.5t-38 -18.5q9 -13 21 -28l24.5 -30.5t25.5 -29t24 -23.5q27 17 43 44.5t16 47.5q0 7 -2 15.5t-8 15t-17.5 11t-29.5 4.5zM69 115q20 0 44 1t44 5l-100 120q6 27 20 55.5t26 42.5q32 33 77 52.5t99 19.5q46 0 80 -12t56.5 -31.5t33.5 -44.5t11 -51
q0 -17 -6 -37t-17.5 -41t-29 -41t-39.5 -38h161q8 0 15 -1.5t12.5 -7t8.5 -16.5t3 -30q0 -34 -9.5 -47t-29.5 -13h-161q-26 0 -58.5 8.5t-59.5 28.5q-45 -17 -88.5 -27t-88.5 -10h-73q-8 0 -15 1.5t-12.5 7t-8.5 16.5t-3 30q0 34 9.5 47t29.5 13h69zM207 571q0 29 21 50
t50 21t50 -21t21 -50t-21 -50t-50 -21t-50 21t-21 50z" />
    <glyph glyph-name="uniFECE" unicode="&#x63a;" horiz-adv-x="553" arabic-form="final" 
d="M296 298q-32 0 -56 -8.5t-38 -18.5q9 -13 21 -28l24.5 -30.5t25.5 -29t24 -23.5q27 17 43 44.5t16 47.5q0 7 -2 15.5t-8.5 15t-18.5 11t-31 4.5zM392 0q-26 0 -58.5 10t-59.5 30q-60 -30 -98 -70t-38 -88q0 -57 42 -85.5t105 -28.5q33 0 73 10t102 36l50 -94
q-36 -23 -70 -37.5t-64 -22.5t-55 -11t-44 -3q-59 0 -109.5 15t-88 43.5t-58.5 70.5t-21 96q0 87 48.5 146.5t138.5 96.5l-106 127q6 27 20 55.5t26 42.5q32 33 77 52.5t99 19.5q46 0 80 -12t56.5 -31.5t33.5 -44.5t11 -51q0 -17 -6 -37t-17.5 -41t-29 -41t-39.5 -38h161
q8 0 15 -1.5t12.5 -7t8.5 -16.5t3 -30q0 -34 -9.5 -47t-29.5 -13h-161zM229 571q0 29 21 50t50 21t50 -21t21 -50t-21 -50t-50 -21t-50 21t-21 50z" />
    <glyph glyph-name="uni0641" unicode="&#x641;" horiz-adv-x="994" arabic-form="isolated" 
d="M672 207q0 -52 23.5 -72t57.5 -20h56v76q0 20 -2.5 38.5t-10 32.5t-20.5 22.5t-33 8.5t-34 -7.5t-22 -19.5t-11.5 -27.5t-3.5 -31.5zM207 0q-59 0 -99 8.5t-64 27.5t-34 49t-10 73v165h130v-147q0 -20 5 -31.5t18 -18.5t35 -9t56 -2h316q-8 16 -11.5 40.5t-3.5 45.5
q0 39 13.5 77t39.5 67.5t63.5 47.5t86.5 18q57 0 94 -20.5t58.5 -52t30 -70t8.5 -74.5v-194h-732zM670 571q0 29 21 50t50 21t50 -21t21 -50t-21 -50t-50 -21t-50 21t-21 50z" />
    <glyph glyph-name="uniFED3" unicode="&#x641;" horiz-adv-x="520" arabic-form="initial" 
d="M198 207q0 -52 24 -72t58 -20h56v76q0 20 -2.5 38.5t-10 32.5t-20.5 22.5t-33 8.5q-21 0 -34.5 -7.5t-22 -19.5t-12 -27.5t-3.5 -31.5zM87 115q-8 16 -11.5 40.5t-3.5 45.5q0 39 13.5 77t39 67.5t63.5 47.5t87 18q57 0 94 -20.5t58 -52t29.5 -70t8.5 -74.5v-194h-465
q-8 0 -15 1.5t-12.5 7t-8.5 16.5t-3 30q0 34 9.5 47t29.5 13h87zM200 571q0 29 21 50t50 21t50 -21t21 -50t-21 -50t-50 -21t-50 21t-21 50z" />
    <glyph glyph-name="uniFED4" unicode="&#x641;" horiz-adv-x="542" arabic-form="medial" 
d="M88 115q-8 16 -11.5 40.5t-3.5 45.5q0 39 13.5 77t39 67.5t63 47.5t86.5 18q57 0 94 -20.5t58 -52t29.5 -70t8.5 -74.5v-79h77q8 0 15 -1.5t12.5 -7t8.5 -16.5t3 -30q0 -34 -9.5 -47t-29.5 -13h-542q-8 0 -15 1.5t-12.5 7t-8.5 16.5t-3 30q0 34 9.5 47t29.5 13h88z
M198 207q0 -52 24 -72t58 -20h57v76q0 20 -2.5 38.5t-10 32.5t-20.5 22.5t-34 8.5t-34.5 -7.5t-22 -19.5t-12 -27.5t-3.5 -31.5zM201 571q0 29 21 50t50 21t50 -21t21 -50t-21 -50t-50 -21t-50 21t-21 50z" />
    <glyph glyph-name="uniFED2" unicode="&#x641;" horiz-adv-x="1018" arabic-form="final" 
d="M208 0q-59 0 -99 8.5t-64 27.5t-34.5 49t-10.5 73v165h130v-147q0 -20 5 -31.5t18 -18.5t35 -9t56 -2h317q-8 16 -11.5 40.5t-3.5 45.5q0 39 13.5 77t39 67.5t63 47.5t86.5 18q57 0 94 -20.5t58.5 -52t30 -70t8.5 -74.5v-79h79q8 0 15 -1.5t12.5 -7t8.5 -16.5t3 -30
q0 -34 -9.5 -47t-29.5 -13h-810zM672 207q0 -52 24 -72t57 -20h57v76q0 20 -2.5 38.5t-10 32.5t-20.5 22.5t-34 8.5q-20 0 -34 -7.5t-22 -19.5t-11.5 -27.5t-3.5 -31.5zM670 571q0 29 21 50t50 21t50 -21t21 -50t-21 -50t-50 -21t-50 21t-21 50z" />
    <glyph glyph-name="uni0642" unicode="&#x642;" horiz-adv-x="719" arabic-form="isolated" 
d="M326 -64q51 0 88.5 9.5t62 26t37.5 38.5t15 48q-30 -9 -73 -9q-40 0 -75 10t-61 32.5t-41 58t-15 85.5q0 40 13.5 79t39.5 70t64 49.5t87 18.5q55 0 93 -19t60.5 -53.5t32.5 -82t10 -104.5v-75q0 -145 -85 -223.5t-259 -78.5q-157 0 -239 59t-82 186v161h129v-133
q0 -81 46.5 -117t151.5 -36zM392 247q0 -51 20.5 -68.5t54.5 -17.5q40 0 66 14v49q0 51 -15 81t-54 30q-38 0 -55 -26t-17 -62zM303 621q0 29 21 50t50 21t50 -21t21 -50t-21 -50t-50 -21t-50 21t-21 50zM466 621q0 29 21 50t50 21t50 -21t21 -50t-21 -50t-50 -21t-50 21
t-21 50z" />
    <glyph glyph-name="uniFED7" unicode="&#x642;" horiz-adv-x="536" arabic-form="initial" 
d="M119 571q0 29 21 50t50 21t50 -21t21 -50t-21 -50t-50 -21t-50 21t-21 50zM282 571q0 29 21 50t50 21t50 -21t21 -50t-21 -50t-50 -21t-50 21t-21 50zM210 207q0 -52 24 -72t58 -20h56v76q0 20 -2.5 38.5t-10 32.5t-20.5 22.5t-33 8.5q-21 0 -34.5 -7.5t-22 -19.5
t-12 -27.5t-3.5 -31.5zM99 115q-8 16 -11.5 40.5t-3.5 45.5q0 39 13.5 77t39 67.5t63.5 47.5t87 18q57 0 94 -20.5t58 -52t29.5 -70t8.5 -74.5v-194h-465q-8 0 -15 1.5t-12.5 7t-8.5 16.5t-3 30q0 34 9.5 47t29.5 13h87z" />
    <glyph glyph-name="uniFED8" unicode="&#x642;" horiz-adv-x="542" arabic-form="medial" 
d="M88 115q-8 16 -11.5 40.5t-3.5 45.5q0 39 13.5 77t39 67.5t63 47.5t86.5 18q57 0 94 -20.5t58 -52t29.5 -70t8.5 -74.5v-79h77q8 0 15 -1.5t12.5 -7t8.5 -16.5t3 -30q0 -34 -9.5 -47t-29.5 -13h-542q-8 0 -15 1.5t-12.5 7t-8.5 16.5t-3 30q0 34 9.5 47t29.5 13h88z
M198 207q0 -52 24 -72t58 -20h57v76q0 20 -2.5 38.5t-10 32.5t-20.5 22.5t-34 8.5t-34.5 -7.5t-22 -19.5t-12 -27.5t-3.5 -31.5zM115 571q0 29 21 50t50 21t50 -21t21 -50t-21 -50t-50 -21t-50 21t-21 50zM278 571q0 29 21 50t50 21t50 -21t21 -50t-21 -50t-50 -21t-50 21
t-21 50z" />
    <glyph glyph-name="uniFED6" unicode="&#x642;" horiz-adv-x="744" arabic-form="final" 
d="M659 0q-19 -112 -102 -172.5t-236 -60.5q-157 0 -239 59t-82 186v161h130v-133q0 -81 46 -117t152 -36q49 0 84.5 8.5t59.5 24t37.5 36t18.5 44.5h-60q-44 0 -81.5 10t-64.5 32.5t-42 58t-15 85.5q0 40 13.5 79t39.5 70t64 49.5t88 18.5q55 0 92.5 -19t60 -53.5t32.5 -82
t10 -104.5v-29h79q8 0 15 -1.5t12.5 -7t8.5 -16.5t3 -30q0 -34 -9.5 -47t-29.5 -13h-85zM394 198q0 -48 20 -65.5t55 -17.5h65v60q0 48 -15 79.5t-55 31.5q-38 0 -54 -25t-16 -63zM331 571q0 29 21 50t50 21t50 -21t21 -50t-21 -50t-50 -21t-50 21t-21 50zM494 571
q0 29 21 50t50 21t50 -21t21 -50t-21 -50t-50 -21t-50 21t-21 50z" />
    <glyph glyph-name="uni0643" unicode="&#x643;" horiz-adv-x="866" arabic-form="isolated" 
d="M806 0h-598q-59 0 -99 8.5t-64 27.5t-34.5 49t-10.5 73v165h131v-147q0 -20 5 -31.5t18 -18.5t35 -9t56 -2h431v599h130v-714zM515 290h-196v70h41q-5 7 -7 20t-2 21q0 23 7.5 40.5t20.5 29t29.5 17.5t33.5 6q16 0 29 -3t23 -7v-66q-26 6 -37 6q-19 0 -27.5 -9t-8.5 -22
t8.5 -23t32.5 -10h53v-70z" />
    <glyph glyph-name="uniFEDB" unicode="&#x643;" horiz-adv-x="481" arabic-form="initial" 
d="M233 115q21 0 40 8.5t19 34.5q0 18 -22.5 48.5t-59.5 64.5t-84 67.5t-95 58.5q7 33 16.5 54.5t19.5 34.5t19.5 19.5t15.5 9.5l349 154v-134l-236 -98v-3q60 -39 99 -77t62.5 -74t32.5 -68.5t9 -60.5q0 -24 -6.5 -51t-25.5 -50t-53.5 -38t-90.5 -15h-242q-8 0 -15 1.5
t-12.5 7t-8.5 16.5t-3 30q0 34 9.5 47t29.5 13h233z" />
    <glyph glyph-name="uniFEDC" unicode="&#x643;" horiz-adv-x="509" arabic-form="medial" 
d="M220 115q34 0 48.5 10.5t14.5 33.5q0 19 -14.5 45.5t-45 57.5t-79.5 64.5t-118 67.5q4 32 9 52t11 32t12.5 18t13.5 10l371 161v-136l-224 -96v-4q76 -48 120 -105.5t67 -120.5q16 -45 39.5 -67.5t63.5 -22.5q8 0 15 -1.5t12.5 -7t8.5 -16.5t3 -30q0 -34 -9.5 -47
t-29.5 -13q-17 0 -35 1.5t-35.5 8t-34 19t-31.5 34.5q-17 -22 -35 -34.5t-39 -19t-44.5 -8t-50.5 -1.5h-204q-8 0 -15 1.5t-12.5 7t-8.5 16.5t-3 30q0 34 9.5 47t29.5 13h220z" />
    <glyph glyph-name="uniFEDA" unicode="&#x643;" horiz-adv-x="895" arabic-form="final" 
d="M514 290h-196v70h40q-5 7 -7 20t-2 21q0 23 8 40.5t21 29t29.5 17.5t33.5 6q16 0 29 -3t23 -7v-66q-26 6 -37 6q-19 0 -27.5 -9t-8.5 -22t8.5 -23t32.5 -10h53v-70zM895 0q-29 0 -58 9.5t-47 41.5q-12 -17 -28.5 -27.5t-35.5 -15.5t-39.5 -6.5t-40.5 -1.5h-439
q-59 0 -99 8.5t-64 27.5t-34 49t-10 73v165h130v-147q0 -20 5 -31.5t18 -18.5t35 -9t56 -2h381q34 0 47.5 10.5t13.5 47.5v541h129v-530q0 -37 15.5 -53t64.5 -16q8 0 15 -1.5t12.5 -7t8.5 -16.5t3 -30q0 -34 -9.5 -47t-29.5 -13z" />
    <glyph glyph-name="uni0644" unicode="&#x644;" horiz-adv-x="608" arabic-form="isolated" 
d="M548 21q0 -79 -19 -132t-55 -84.5t-87.5 -45t-115.5 -13.5q-272 0 -272 259v157h129v-152q0 -70 34.5 -107t112.5 -37q73 0 108.5 31t35.5 106v711h129v-693z" />
    <glyph glyph-name="uniFEDF" unicode="&#x644;" horiz-adv-x="306" arabic-form="initial" 
d="M115 115v599h131v-714h-246q-8 0 -15 1.5t-12.5 7t-8.5 16.5t-3 30q0 34 9.5 47t29.5 13h115z" />
    <glyph glyph-name="uniFEE0" unicode="&#x644;" horiz-adv-x="324" arabic-form="medial" 
d="M61 115q34 0 47.5 10.5t13.5 47.5v541h130v-530q0 -18 2 -31.5t9.5 -21.5t22 -12t38.5 -4q8 0 15 -1.5t12.5 -7t8.5 -16.5t3 -30q0 -34 -9.5 -47t-29.5 -13q-29 0 -54 9.5t-43 41.5q-12 -17 -29 -27.5t-36 -15.5t-39.5 -6.5t-40.5 -1.5h-82q-8 0 -15 1.5t-12.5 7
t-8.5 16.5t-3 30q0 34 9.5 47t29.5 13h61z" />
    <glyph glyph-name="uniFEDE" unicode="&#x644;" horiz-adv-x="628" arabic-form="final" 
d="M548 0q-3 -73 -23 -121.5t-55 -78t-85 -42t-113 -12.5q-272 0 -272 259v157h130v-152q0 -70 34 -107t112 -37q75 0 109.5 31t34.5 106v711h129v-599h79q8 0 15 -1.5t12.5 -7t8.5 -16.5t3 -30q0 -34 -9.5 -47t-29.5 -13h-80z" />
    <glyph glyph-name="uni0645" unicode="&#x645;" horiz-adv-x="574" arabic-form="isolated" 
d="M0 -54q0 47 5 80.5t19.5 58t39.5 42.5t64 34q10 64 34 107.5t54 70t63 38t61 11.5q41 0 75 -15t58 -42t37.5 -65t13.5 -83q0 -90 -44.5 -142.5t-134.5 -52.5q-85 0 -176 60q-20 -10 -28.5 -34.5t-8.5 -69.5v-341h-132v343zM401 186q0 32 -19 57.5t-54 25.5
q-30 0 -57.5 -29t-35.5 -98q26 -15 54 -24.5t48 -9.5q28 0 46 21.5t18 56.5z" />
    <glyph glyph-name="uniFEE3" unicode="&#x645;" horiz-adv-x="559" arabic-form="initial" 
d="M382 186q0 15 -3.5 30t-11 26.5t-20 19t-30.5 7.5q-13 0 -27 -6.5t-27 -21.5t-24.5 -39t-19.5 -60q25 -15 47.5 -24.5t48.5 -9.5q32 0 49.5 21.5t17.5 56.5zM52 115q12 0 29.5 20t31.5 58q22 57 48 94.5t53.5 60t55.5 31.5t55 9q39 0 73 -15t58.5 -42t38.5 -65t14 -83
q0 -90 -44 -142.5t-134 -52.5q-40 0 -80.5 12t-85.5 41q-26 -29 -53 -35t-59 -6h-53q-8 0 -15 1.5t-12.5 7t-8.5 16.5t-3 30q0 34 9.5 47t29.5 13h52z" />
    <glyph glyph-name="uniFEE4" unicode="&#x645;" horiz-adv-x="599" arabic-form="medial" 
d="M52 115q12 0 29.5 20t31.5 58q22 57 48 94.5t53.5 60t55.5 31.5t55 9q39 0 73 -15t58.5 -42t38.5 -65t14 -83q0 -7 -0.5 -13t-0.5 -12q13 -24 40 -33.5t51 -9.5q8 0 15 -1.5t12.5 -7t8.5 -16.5t3 -30q0 -34 -9.5 -47t-29.5 -13q-38 0 -68 14.5t-52 46.5q-43 -73 -148 -73
q-40 0 -80.5 12t-85.5 41q-26 -29 -53 -35t-59 -6h-53q-8 0 -15 1.5t-12.5 7t-8.5 16.5t-3 30q0 34 9.5 47t29.5 13h52zM382 186q0 15 -3.5 30t-11 26.5t-20 19t-30.5 7.5q-13 0 -27 -6.5t-27 -21.5t-24.5 -39t-19.5 -60q25 -15 47.5 -24.5t48.5 -9.5q32 0 49.5 21.5
t17.5 56.5z" />
    <glyph glyph-name="uniFEE2" unicode="&#x645;" horiz-adv-x="615" arabic-form="final" 
d="M615 0q-79 0 -121 63q-21 -36 -58 -55.5t-91 -19.5q-86 0 -177 60q-20 -10 -28.5 -34.5t-8.5 -69.5v-341h-132v343q0 47 5 80.5t19.5 58t39.5 42.5t65 34q9 64 32.5 107.5t54 70t63.5 38t61 11.5q42 0 76 -15t58 -42t37 -65t13 -83q0 -6 -0.5 -11.5t-0.5 -10.5
q6 -13 16.5 -21.5t23.5 -14t27 -8t26 -2.5q8 0 15 -1.5t12.5 -7t8.5 -16.5t3 -30q0 -34 -9.5 -47t-29.5 -13zM400 186q0 32 -19 57.5t-54 25.5q-30 0 -57.5 -29t-35.5 -98q26 -14 54 -24t48 -10q29 0 46.5 21.5t17.5 56.5z" />
    <glyph glyph-name="uni0646" unicode="&#x646;" horiz-adv-x="609" arabic-form="isolated" 
d="M548 135q0 -79 -19 -131.5t-54.5 -84.5t-87 -45.5t-115.5 -13.5q-272 0 -272 259v157h129v-152q0 -70 34.5 -107t112.5 -37q73 0 108.5 31t35.5 106v269h129zM207 442q0 29 21 50t50 21t50 -21t21 -50t-21 -50t-50 -21t-50 21t-21 50z" />
    <glyph glyph-name="uniFEE7" unicode="&#x646;" horiz-adv-x="305" arabic-form="initial" 
d="M106 571q0 29 21 50t50 21t50 -21t21 -50t-21 -50t-50 -21t-50 21t-21 50zM115 115v283h131v-398h-246q-8 0 -15 1.5t-12.5 7t-8.5 16.5t-3 30q0 34 9.5 47t29.5 13h115z" />
    <glyph glyph-name="uniFEE8" unicode="&#x646;" horiz-adv-x="328" arabic-form="medial" 
d="M61 115q34 0 47.5 10.5t13.5 47.5v225h130v-214q0 -37 14 -53t62 -16q8 0 15 -1.5t12.5 -7t8.5 -16.5t3 -30q0 -34 -9.5 -47t-29.5 -13q-29 0 -56 9.5t-45 41.5q-12 -17 -29 -27.5t-36 -15.5t-39.5 -6.5t-40.5 -1.5h-82q-8 0 -15 1.5t-12.5 7t-8.5 16.5t-3 30
q0 34 9.5 47t29.5 13h61zM115 571q0 29 21 50t50 21t50 -21t21 -50t-21 -50t-50 -21t-50 21t-21 50z" />
    <glyph glyph-name="uniFEE6" unicode="&#x646;" horiz-adv-x="624" arabic-form="final" 
d="M624 0q-14 0 -38 7t-38 26q-2 -77 -21.5 -128.5t-54.5 -82.5t-85.5 -44t-114.5 -13q-272 0 -272 259v137h130v-132q0 -70 36 -107t108 -37q75 0 110.5 31t35.5 106v250h129v-87q0 -20 6.5 -33.5t17 -21.5t24 -11.5t27.5 -3.5q8 0 15 -1.5t12.5 -7t8.5 -16.5t3 -30
q0 -34 -9.5 -47t-29.5 -13zM212 377q0 29 21 50t50 21t50 -21t21 -50t-21 -50t-50 -21t-50 21t-21 50z" />
    <glyph glyph-name="uniFEE9" unicode="&#x647;" horiz-adv-x="669" arabic-form="isolated" 
d="M134 115q-14 39 -14 77q0 48 17 90t48 68q-16 -1 -33 -1.5t-34 -2.5v91q29 4 57.5 6t56.5 2q187 0 287 -90t100 -262v-93h-495q-12 0 -15 -15.5t-4 -38.5h-82q-11 29 -17 54.5t-6 38.5q0 26 10 41t25 23t33.5 10t36.5 2h29zM493 115q0 91 -33.5 141.5t-99.5 72.5
q23 -29 33 -63.5t10 -58.5q0 -30 -4.5 -52.5t-11.5 -39.5h106zM263 120q11 0 18.5 9.5t11.5 23t5.5 28.5t1.5 26q0 15 -2 31t-7 29.5t-12.5 22.5t-19.5 9q-10 0 -17.5 -8.5t-12.5 -22t-7.5 -30.5t-2.5 -33q0 -12 2 -27t7 -28t13.5 -21.5t21.5 -8.5z" />
    <glyph glyph-name="uniFEEB" unicode="&#x647;" horiz-adv-x="655" arabic-form="initial" 
d="M120 115q-14 39 -14 77q0 48 17 90t48 68q-16 -1 -33 -1.5t-34 -2.5v91q29 4 57.5 6t56.5 2q187 0 287 -90t100 -262v-93h-605q-8 0 -15 1.5t-12.5 7t-8.5 16.5t-3 30q0 34 9.5 47t29.5 13h120zM389 207q0 -30 -4.5 -52.5t-11.5 -39.5h107q0 91 -34 141.5t-100 72.5
q23 -29 33 -63.5t10 -58.5zM249 120q11 0 18.5 9.5t11.5 23t5.5 28.5t1.5 26q0 15 -2 31t-7 29.5t-12.5 22.5t-19.5 9q-10 0 -17.5 -8.5t-12.5 -22t-7.5 -30.5t-2.5 -33q0 -12 2 -27t7 -28t13.5 -21.5t21.5 -8.5z" />
    <glyph glyph-name="uniFEEC" unicode="&#x647;" horiz-adv-x="546" arabic-form="medial" 
d="M106 115v39q0 121 50.5 188.5t141.5 67.5q47 0 80 -17t53.5 -42.5t30 -55.5t9.5 -56q0 -32 -8 -62.5t-28 -57.5v-4h111q8 0 15 -1.5t12.5 -7t8.5 -16.5t3 -30q0 -34 -9.5 -47t-29.5 -13h-108v-3q10 -9 16 -21t9.5 -23.5t4.5 -21.5t1 -16q0 -32 -10.5 -61t-31.5 -50.5
t-53.5 -34.5t-77.5 -13q-52 0 -88 16.5t-58.5 47t-33 74.5t-10.5 99v7h-106q-8 0 -15 1.5t-12.5 7t-8.5 16.5t-3 30q0 34 9.5 47t29.5 13h106zM221 115h25q26 0 45 9.5t31 25t17.5 36t5.5 41.5q0 28 -13 46t-38 18q-36 0 -54.5 -35.5t-18.5 -86.5v-54zM221 0
q0 -57 17.5 -92.5t57.5 -35.5q27 0 38.5 16t11.5 41q0 6 -3 18t-11 23.5t-22.5 20.5t-37.5 9h-51z" />
    <glyph glyph-name="uniFEEA" unicode="&#x647;" horiz-adv-x="439" arabic-form="final" 
d="M127 260q0 -12 3 -25.5t11 -24t21.5 -17.5t34.5 -7q13 0 26.5 1t27.5 6v138h-50q-37 0 -55.5 -19.5t-18.5 -51.5zM406 0q-24 0 -46.5 3.5t-41.5 12.5t-33.5 24.5t-22.5 40.5q-17 -4 -35 -6.5t-36 -2.5q-25 0 -58 7.5t-62.5 27.5t-50 55.5t-20.5 91.5q0 55 19.5 93t50 62
t68 34.5t73.5 10.5h170v-299q0 -23 6 -31.5t28 -8.5h24q8 0 15 -1.5t12.5 -7t8.5 -16.5t3 -30q0 -34 -9.5 -47t-29.5 -13h-33z" />
    <glyph glyph-name="uni0648" unicode="&#x648;" horiz-adv-x="479" arabic-form="isolated" 
d="M424 60q0 -70 -18 -120.5t-56.5 -83.5t-99 -48.5t-145.5 -15.5h-31v122h23q54 0 90.5 7t58 19.5t31.5 30t12 38.5q-30 -9 -73 -9q-40 0 -75 10t-60.5 32.5t-40.5 58t-15 85.5q0 40 13.5 79t39 70t63.5 49.5t88 18.5q55 0 92.5 -19t60 -53.5t32.5 -82t10 -104.5v-84z
M153 198q0 -51 20 -68.5t55 -17.5q40 0 66 14v49q0 51 -15 81t-54 30t-55.5 -26t-16.5 -62z" />
    <glyph glyph-name="uniFEEE" unicode="&#x648;" horiz-adv-x="498" arabic-form="final" 
d="M422 0q-14 -109 -90 -158.5t-227 -49.5h-31v122h23q51 0 86.5 6t58 17.5t33.5 27t14 35.5h-62q-44 0 -81 10t-64 32.5t-42 58t-15 85.5q0 40 13.5 79t39.5 70t64 49.5t87 18.5q55 0 92.5 -19t60.5 -53.5t33 -82t10 -104.5v-29h73q8 0 15 -1.5t12.5 -7t8.5 -16.5t3 -30
q0 -34 -9.5 -47t-29.5 -13h-76zM153 198q0 -48 20.5 -65.5t54.5 -17.5h66v60q0 48 -15 79.5t-56 31.5q-37 0 -53.5 -25t-16.5 -63z" />
    <glyph glyph-name="uni0649" unicode="&#x649;" horiz-adv-x="732" arabic-form="isolated" 
d="M130 18q0 -28 9.5 -51.5t32 -40.5t60 -26.5t93.5 -9.5q70 0 113.5 10t68 24.5t33.5 31.5t9 31q0 15 -11.5 24t-37.5 23q-29 15 -54.5 31t-44 36.5t-29.5 46t-11 60.5q0 39 14 78.5t41.5 71.5t69.5 52t98 20q37 0 65.5 -8t42.5 -13v-117q-35 8 -60.5 10.5t-39.5 2.5
q-26 0 -45 -7.5t-31.5 -19.5t-18.5 -26.5t-6 -29.5q0 -23 20.5 -39t50.5 -30q36 -17 59 -33t36.5 -32.5t19 -35t5.5 -39.5q0 -42 -17 -86t-58.5 -79.5t-110 -58t-171.5 -22.5q-91 0 -153 18.5t-100.5 51.5t-55 77.5t-16.5 97.5v161h130v-155z" />
    <glyph glyph-name="uniFBE8" unicode="&#x649;" horiz-adv-x="306" arabic-form="initial" 
d="M115 115v283h131v-398h-246q-8 0 -15 1.5t-12.5 7t-8.5 16.5t-3 30q0 34 9.5 47t29.5 13h115z" />
    <glyph glyph-name="uniFBE9" unicode="&#x649;" horiz-adv-x="328" arabic-form="medial" 
d="M61 115q34 0 47.5 10.5t13.5 47.5v225h130v-214q0 -37 14 -53t62 -16q8 0 15 -1.5t12.5 -7t8.5 -16.5t3 -30q0 -34 -9.5 -47t-29.5 -13q-29 0 -56 9.5t-45 41.5q-12 -17 -29 -27.5t-36 -15.5t-39.5 -6.5t-40.5 -1.5h-82q-8 0 -15 1.5t-12.5 7t-8.5 16.5t-3 30
q0 34 9.5 47t29.5 13h61z" />
    <glyph glyph-name="uniFEF0" unicode="&#x649;" horiz-adv-x="718" arabic-form="final" 
d="M667 0q2 -9 3.5 -20t1.5 -26q0 -41 -15.5 -75t-54.5 -59t-105 -39t-167 -14q-98 0 -161.5 18.5t-101 51t-52.5 76t-15 94.5v166h130v-162q0 -65 47 -94.5t155 -29.5q70 0 112.5 8t66 20t31 25t7.5 23q0 26 -51.5 44t-138.5 40v119q66 -21 126 -36t108 -15h125
q8 0 15 -1.5t12.5 -7t8.5 -16.5t3 -30q0 -34 -9.5 -47t-29.5 -13h-51z" />
    <glyph glyph-name="uni064A" unicode="&#x64a;" horiz-adv-x="732" arabic-form="isolated" 
d="M130 93q0 -28 9.5 -51.5t32 -40.5t60 -26.5t93.5 -9.5q70 0 113.5 10t68 24.5t33.5 31.5t9 31q0 15 -11.5 24t-37.5 23q-29 15 -54.5 31t-44 36.5t-29.5 46t-11 60.5q0 39 14 78.5t41.5 71.5t69.5 52t98 20q37 0 65.5 -8t42.5 -13v-117q-35 8 -60.5 10.5t-39.5 2.5
q-26 0 -45 -7.5t-31.5 -19.5t-18.5 -26.5t-6 -29.5q0 -23 20.5 -39t50.5 -30q36 -17 59 -33t36.5 -32.5t19 -35t5.5 -39.5q0 -42 -17 -86t-58.5 -79.5t-110 -58t-171.5 -22.5q-91 0 -153 18.5t-100.5 51.5t-55 77.5t-16.5 97.5v161h130v-155zM187 -288q0 29 21 50t50 21
t50 -21t21 -50t-21 -50t-50 -21t-50 21t-21 50zM350 -288q0 29 21 50t50 21t50 -21t21 -50t-21 -50t-50 -21t-50 21t-21 50z" />
    <glyph glyph-name="uniFEF3" unicode="&#x64a;" horiz-adv-x="348" arabic-form="initial" 
d="M0 0q-8 0 -15 1.5t-12.5 7.5t-8.5 17t-3 30q0 34 9.5 47t29.5 13h158v282h131v-398h-289zM11 -168q0 29 21 50t50 21t50 -21t21 -50t-21 -50t-50 -21t-50 21t-21 50zM174 -168q0 29 21 50t50 21t50 -21t21 -50t-21 -50t-50 -21t-50 21t-21 50z" />
    <glyph glyph-name="uniFEF4" unicode="&#x64a;" horiz-adv-x="358" arabic-form="medial" 
d="M358 0q-14 0 -30 2t-31 7.5t-28.5 15.5t-22.5 26q-12 -17 -29 -27.5t-36 -15.5t-39.5 -6.5t-40.5 -1.5h-101q-8 0 -15 1.5t-12.5 7t-8.5 16.5t-3 30q0 34 9.5 47t29.5 13h80q34 0 47.5 10.5t13.5 47.5v225h130v-214q0 -37 19.5 -53t67.5 -16q8 0 15 -1.5t12.5 -7
t8.5 -16.5t3 -30q0 -34 -9.5 -47t-29.5 -13zM26 -168q0 29 21 50t50 21t50 -21t21 -50t-21 -50t-50 -21t-50 21t-21 50zM189 -168q0 29 21 50t50 21t50 -21t21 -50t-21 -50t-50 -21t-50 21t-21 50z" />
    <glyph glyph-name="uniFEF2" unicode="&#x64a;" horiz-adv-x="718" arabic-form="final" 
d="M667 0q2 -9 3.5 -20t1.5 -26q0 -41 -15.5 -75t-54.5 -59t-105 -39t-167 -14q-98 0 -161.5 18.5t-101 51t-52.5 76t-15 94.5v166h130v-162q0 -65 47 -94.5t155 -29.5q70 0 112.5 8t66 20t31 25t7.5 23q0 26 -51.5 44t-138.5 40v119q66 -21 126 -36t108 -15h125
q8 0 15 -1.5t12.5 -7t8.5 -16.5t3 -30q0 -34 -9.5 -47t-29.5 -13h-51zM177 -376q0 29 21 50t50 21t50 -21t21 -50t-21 -50t-50 -21t-50 21t-21 50zM340 -376q0 29 21 50t50 21t50 -21t21 -50t-21 -50t-50 -21t-50 21t-21 50z" />
    <glyph glyph-name="uni0671" unicode="&#x671;" horiz-adv-x="249" arabic-form="isolated" 
d="M189 714v-714h-129v714h129zM186 825v5q0 13 -4.5 22.5t-21.5 9.5q-14 0 -28 -9.5t-22 -27.5h76zM103 888q25 25 62 25q32 0 50 -20.5t18 -56.5v-59h-213v48h35v78h48v-15z" />
    <glyph glyph-name="uniFB51" unicode="&#x671;" horiz-adv-x="256" arabic-form="final" 
d="M296 60q0 -34 -9.5 -47t-29.5 -13h-42q-34 0 -62.5 7.5t-49 25t-32 46.5t-11.5 72v563h130v-545q0 -35 12.5 -44.5t35.5 -9.5h19q8 0 15 -1.5t12.5 -7t8.5 -16.5t3 -30zM195 825v5q0 13 -4.5 22.5t-21.5 9.5q-14 0 -28 -9.5t-22 -27.5h76zM112 888q25 25 62 25
q32 0 50 -20.5t18 -56.5v-59h-213v48h35v78h48v-15z" />
    <glyph glyph-name="uni0679" unicode="&#x679;" horiz-adv-x="866" arabic-form="isolated" 
d="M490 480v8q0 17 -6.5 30t-29.5 13q-22 0 -40 -14t-29 -37h105zM378 554q20 20 39 28.5t43 8.5q40 0 63 -25.5t23 -70.5v-74h-269v59h45v199h56v-125zM806 0h-598q-59 0 -99 8.5t-64 27.5t-34.5 49t-10.5 73v165h131v-146q0 -19 5 -31t18 -19t35 -9.5t56 -2.5h431v283h130
v-398z" />
    <glyph glyph-name="uniFB68" unicode="&#x679;" horiz-adv-x="306" arabic-form="initial" 
d="M235 539v8q0 17 -6.5 30t-29.5 13q-22 0 -40 -14t-29 -37h105zM123 613q20 20 39 28.5t43 8.5q40 0 63 -25.5t23 -70.5v-74h-269v59h45v199h56v-125zM115 115v283h131v-398h-246q-8 0 -15 1.5t-12.5 7t-8.5 16.5t-3 30q0 34 9.5 47t29.5 13h115z" />
    <glyph glyph-name="uniFB69" unicode="&#x679;" horiz-adv-x="328" arabic-form="medial" 
d="M246 539v8q0 17 -6.5 30t-29.5 13q-22 0 -40 -14t-29 -37h105zM134 613q20 20 39 28.5t43 8.5q40 0 63 -25.5t23 -70.5v-74h-269v59h45v199h56v-125zM61 115q34 0 47.5 10.5t13.5 47.5v225h130v-214q0 -37 14 -53t62 -16q8 0 15 -1.5t12.5 -7t8.5 -16.5t3 -30
q0 -34 -9.5 -47t-29.5 -13q-29 0 -56 9.5t-45 41.5q-12 -17 -29 -27.5t-36 -15.5t-39.5 -6.5t-40.5 -1.5h-82q-8 0 -15 1.5t-12.5 7t-8.5 16.5t-3 30q0 34 9.5 47t29.5 13h61z" />
    <glyph glyph-name="uniFB67" unicode="&#x679;" horiz-adv-x="895" arabic-form="final" 
d="M490 480v8q0 17 -6.5 30t-29.5 13q-22 0 -40 -14t-29 -37h105zM378 554q20 20 39 28.5t43 8.5q40 0 63 -25.5t23 -70.5v-74h-269v59h45v199h56v-125zM895 0q-29 0 -58 9.5t-47 41.5q-12 -17 -28.5 -27.5t-35.5 -15.5t-39.5 -6.5t-40.5 -1.5h-439q-59 0 -99 8.5t-64 27.5
t-34 49t-10 73v165h130v-147q0 -20 5 -31.5t18 -18.5t35 -9t56 -2h381q34 0 47.5 10.5t13.5 47.5v225h129v-214q0 -37 15.5 -53t64.5 -16q8 0 15 -1.5t12.5 -7t8.5 -16.5t3 -30q0 -34 -9.5 -47t-29.5 -13z" />
    <glyph glyph-name="uni067E" unicode="&#x67e;" horiz-adv-x="866" arabic-form="isolated" 
d="M806 0h-598q-59 0 -99 8.5t-64 27.5t-34.5 49t-10.5 73v165h131v-146q0 -19 5 -31t18 -19t35 -9.5t56 -2.5h431v283h130v-398zM343 -313q0 29 21 50t50 21t50 -21t21 -50t-21 -50t-50 -21t-50 21t-21 50zM261 -168q0 29 21 50t50 21t50 -21t21 -50t-21 -50t-50 -21
t-50 21t-21 50zM424 -168q0 29 21 50t50 21t50 -21t21 -50t-21 -50t-50 -21t-50 21t-21 50z" />
    <glyph glyph-name="uniFB58" unicode="&#x67e;" horiz-adv-x="348" arabic-form="initial" 
d="M0 0q-8 0 -15 1.5t-12.5 7.5t-8.5 17t-3 30q0 34 9.5 47t29.5 13h158v282h131v-398h-289zM99 -313q0 29 21 50t50 21t50 -21t21 -50t-21 -50t-50 -21t-50 21t-21 50zM17 -168q0 29 21 50t50 21t50 -21t21 -50t-21 -50t-50 -21t-50 21t-21 50zM180 -168q0 29 21 50t50 21
t50 -21t21 -50t-21 -50t-50 -21t-50 21t-21 50z" />
    <glyph glyph-name="uniFB59" unicode="&#x67e;" horiz-adv-x="358" arabic-form="medial" 
d="M358 0q-14 0 -30 2t-31 7.5t-28.5 15.5t-22.5 26q-12 -17 -29 -27.5t-36 -15.5t-39.5 -6.5t-40.5 -1.5h-101q-8 0 -15 1.5t-12.5 7t-8.5 16.5t-3 30q0 34 9.5 47t29.5 13h80q34 0 47.5 10.5t13.5 47.5v225h130v-214q0 -37 19.5 -53t67.5 -16q8 0 15 -1.5t12.5 -7
t8.5 -16.5t3 -30q0 -34 -9.5 -47t-29.5 -13zM114 -313q0 29 21 50t50 21t50 -21t21 -50t-21 -50t-50 -21t-50 21t-21 50zM32 -168q0 29 21 50t50 21t50 -21t21 -50t-21 -50t-50 -21t-50 21t-21 50zM195 -168q0 29 21 50t50 21t50 -21t21 -50t-21 -50t-50 -21t-50 21t-21 50z
" />
    <glyph glyph-name="uniFB57" unicode="&#x67e;" horiz-adv-x="895" arabic-form="final" 
d="M895 0q-29 0 -58 9.5t-47 41.5q-12 -17 -28.5 -27.5t-35.5 -15.5t-39.5 -6.5t-40.5 -1.5h-439q-59 0 -99 8.5t-64 27.5t-34 49t-10 73v165h130v-147q0 -20 5 -31.5t18 -18.5t35 -9t56 -2h381q34 0 47.5 10.5t13.5 47.5v225h129v-214q0 -37 15.5 -53t64.5 -16q8 0 15 -1.5
t12.5 -7t8.5 -16.5t3 -30q0 -34 -9.5 -47t-29.5 -13zM342 -313q0 29 21 50t50 21t50 -21t21 -50t-21 -50t-50 -21t-50 21t-21 50zM260 -168q0 29 21 50t50 21t50 -21t21 -50t-21 -50t-50 -21t-50 21t-21 50zM423 -168q0 29 21 50t50 21t50 -21t21 -50t-21 -50t-50 -21
t-50 21t-21 50z" />
    <glyph glyph-name="uni0686" unicode="&#x686;" horiz-adv-x="600" arabic-form="isolated" 
d="M270.397 -185.792q0 17.3994 12.5996 29.998q12.5986 12.5996 29.998 12.5996t29.999 -12.5996q12.5996 -12.5986 12.5996 -29.998t-12.5996 -29.999t-29.999 -12.5996t-29.998 12.5996q-12.5996 12.5996 -12.5996 29.999zM221.199 -98.7959q0 17.3994 12.5996 29.999
t29.999 12.5996t29.998 -12.5996q12.5996 -12.5996 12.5996 -29.999t-12.5996 -29.999q-12.5986 -12.5996 -29.998 -12.5996t-29.999 12.5996t-12.5996 29.999zM318.995 -98.7959q0 17.3994 12.5996 29.999t29.999 12.5996t29.998 -12.5996
q12.5996 -12.5996 12.5996 -29.999t-12.5996 -29.999q-12.5986 -12.5996 -29.998 -12.5996t-29.999 12.5996t-12.5996 29.999zM440 115q-5 88 -45.5 135t-129.5 47q-8 0 -21 -1t-29.5 -3.5t-34.5 -6t-36 -8.5v116q23 8 63 17t82 9q78 0 131.5 -27t86.5 -72t47.5 -104.5
t14.5 -123.5v-93h-295q-72 0 -109 -38t-37 -98q0 -66 42.5 -102.5t111.5 -36.5q33 0 75.5 8.5t105.5 37.5l50 -93q-34 -23 -68 -38t-64.5 -23t-55.5 -11t-40 -3q-63 0 -116 15.5t-92 47t-60.5 80t-21.5 114.5q0 62 20.5 109.5t57 80t88 49t114.5 16.5h165z" />
    <glyph glyph-name="uniFB7C" unicode="&#x686;" horiz-adv-x="536" arabic-form="initial" 
d="M358 115q-3 40 -13 73.5t-30.5 57.5t-52.5 37.5t-80 13.5q-16 0 -50.5 -4.5t-69.5 -14.5v116q23 8 62.5 17t81.5 9q78 0 131.5 -27t86.5 -72t47.5 -104.5t14.5 -123.5v-93h-486q-8 0 -15 1.5t-12.5 7t-8.5 16.5t-3 30q0 34 9.5 47t29.5 13h358zM151 -313q0 29 21 50
t50 21t50 -21t21 -50t-21 -50t-50 -21t-50 21t-21 50zM69 -168q0 29 21 50t50 21t50 -21t21 -50t-21 -50t-50 -21t-50 21t-21 50zM232 -168q0 29 21 50t50 21t50 -21t21 -50t-21 -50t-50 -21t-50 21t-21 50z" />
    <glyph glyph-name="uniFB7D" unicode="&#x686;" horiz-adv-x="550" arabic-form="medial" 
d="M358 115q-3 40 -13 73.5t-30 57.5t-52.5 37.5t-80.5 13.5q-16 0 -50 -4.5t-70 -14.5v116q23 8 63 17t81 9q75 0 127.5 -24.5t85.5 -66.5t48.5 -97.5t17.5 -116.5h65q8 0 15 -1.5t12.5 -7t8.5 -16.5t3 -30q0 -34 -9.5 -47t-29.5 -13h-550q-8 0 -15 1.5t-12.5 7t-8.5 16.5
t-3 30q0 34 9.5 47t29.5 13h358zM151 -313q0 29 21 50t50 21t50 -21t21 -50t-21 -50t-50 -21t-50 21t-21 50zM69 -168q0 29 21 50t50 21t50 -21t21 -50t-21 -50t-50 -21t-50 21t-21 50zM232 -168q0 29 21 50t50 21t50 -21t21 -50t-21 -50t-50 -21t-50 21t-21 50z" />
    <glyph glyph-name="uniFB7B" unicode="&#x686;" horiz-adv-x="638" arabic-form="final" 
d="M279 0q-72 0 -109 -38t-37 -98q0 -66 42.5 -102.5t111.5 -36.5q33 0 77 9t104 37l50 -93q-34 -23 -68 -38t-64.5 -23t-55.5 -11t-40 -3q-63 0 -116 15.5t-91.5 47t-60.5 80t-22 114.5q0 62 20.5 109.5t57.5 80t88.5 49t113.5 16.5h166q-6 88 -46.5 135t-129.5 47
q-16 0 -50.5 -4t-70.5 -15v116q23 8 63 17t82 9q75 0 127 -24.5t85 -66.5t49 -97.5t18 -116.5h65q8 0 15 -1.5t12.5 -7t8.5 -16.5t3 -30q0 -34 -9.5 -47t-29.5 -13h-359zM271.397 -185.792q0 17.3994 12.5996 29.998q12.5986 12.5996 29.998 12.5996t29.999 -12.5996
q12.5996 -12.5986 12.5996 -29.998t-12.5996 -29.999t-29.999 -12.5996t-29.998 12.5996q-12.5996 12.5996 -12.5996 29.999zM222.199 -98.7959q0 17.3994 12.5996 29.999t29.999 12.5996t29.998 -12.5996q12.5996 -12.5996 12.5996 -29.999t-12.5996 -29.999
q-12.5986 -12.5996 -29.998 -12.5996t-29.999 12.5996t-12.5996 29.999zM319.995 -98.7959q0 17.3994 12.5996 29.999t29.999 12.5996t29.998 -12.5996q12.5996 -12.5996 12.5996 -29.999t-12.5996 -29.999q-12.5986 -12.5996 -29.998 -12.5996t-29.999 12.5996
t-12.5996 29.999z" />
    <glyph glyph-name="uni0688" unicode="&#x688;" horiz-adv-x="443" arabic-form="isolated" 
d="M313 572v8q0 17 -6.5 30t-29.5 13q-22 0 -40 -14t-29 -37h105zM201 646q20 20 39 28.5t43 8.5q40 0 63 -25.5t23 -70.5v-74h-269v59h45v199h56v-125zM403 126q0 -26 -8.5 -49t-25.5 -40t-44 -27t-64 -10h-242v115h196q23 0 36 4.5t13 16.5q0 6 -1.5 12t-7.5 16.5
t-17.5 27.5l-30.5 45l-79 118l58.5 38.5l59.5 37.5l87 -141q35 -57 52.5 -95t17.5 -69z" />
    <glyph glyph-name="uniFB89" unicode="&#x688;" horiz-adv-x="468" arabic-form="final" 
d="M313 572v8q0 17 -6.5 30t-29.5 13q-22 0 -40 -14t-29 -37h105zM201 646q20 20 39 28.5t43 8.5q40 0 63 -25.5t23 -70.5v-74h-269v59h45v199h56v-125zM468 0q-29 0 -49.5 3t-35.5 9t-28 15.5t-27 22.5q-29 -33 -62.5 -41.5t-72.5 -8.5h-174v115h198q24 0 35.5 7.5
t11.5 17.5q0 11 -9.5 27t-35.5 53l-91 135l119 76l120 -203l33 -54t25.5 -35t21.5 -18.5t21 -5.5q8 0 15 -1.5t12.5 -7t8.5 -16.5t3 -30q0 -34 -9.5 -47t-29.5 -13z" />
    <glyph glyph-name="uni0691" unicode="&#x691;" horiz-adv-x="319" arabic-form="isolated" 
d="M256 539v8q0 17 -6.5 30t-29.5 13q-22 0 -40 -14t-29 -37h105zM144 613q20 20 39 28.5t43 8.5q40 0 63 -25.5t23 -70.5v-74h-269v59h45v199h56v-125zM129 354h130v-298q0 -72 -11 -122t-38.5 -81t-76 -45.5t-123.5 -15.5v122q40 1 64 9.5t36 25.5t15.5 43.5t3.5 63.5v298
z" />
    <glyph glyph-name="uniFB8D" unicode="&#x691;" horiz-adv-x="333" arabic-form="final" 
d="M230 539v8q0 17 -6.5 30t-29.5 13q-22 0 -40 -14t-29 -37h105zM118 613q20 20 39 28.5t43 8.5q40 0 63 -25.5t23 -70.5v-74h-269v59h45v199h56v-125zM312 0q-13 0 -36 6t-40 26q-1 -68 -16 -113.5t-45 -73.5t-76 -40t-110 -13v122q41 1 65 9.5t36 25.5t15.5 43.5
t3.5 63.5v298h129v-170q0 -39 23.5 -54t50.5 -15q8 0 15 -1.5t12.5 -7t8.5 -16.5t3 -30q0 -34 -9.5 -47t-29.5 -13z" />
    <glyph glyph-name="uni0698" unicode="&#x698;" horiz-adv-x="319" arabic-form="isolated" 
d="M129 354h130v-298q0 -72 -11 -122t-38.5 -81t-76 -45.5t-123.5 -15.5v122q40 1 64 9.5t36 25.5t15.5 43.5t3.5 63.5v298zM34 514q0 29 21 50t50 21t50 -21t21 -50t-21 -50t-50 -21t-50 21t-21 50zM197 514q0 29 21 50t50 21t50 -21t21 -50t-21 -50t-50 -21t-50 21t-21 50
zM118 659q0 29 21 50t50 21t50 -21t21 -50t-21 -50t-50 -21t-50 21t-21 50z" />
    <glyph glyph-name="uniFB8B" unicode="&#x698;" horiz-adv-x="333" arabic-form="final" 
d="M333 0q-13 0 -36 6t-40 26q-1 -68 -16 -113.5t-45 -73.5t-76 -40t-110 -13v122q41 1 65 9.5t36 25.5t15.5 43.5t3.5 63.5v298h129v-170q0 -39 23.5 -54t50.5 -15q8 0 15 -1.5t12.5 -7t8.5 -16.5t3 -30q0 -34 -9.5 -47t-29.5 -13zM41 514q0 29 21 50t50 21t50 -21t21 -50
t-21 -50t-50 -21t-50 21t-21 50zM204 514q0 29 21 50t50 21t50 -21t21 -50t-21 -50t-50 -21t-50 21t-21 50zM125 659q0 29 21 50t50 21t50 -21t21 -50t-21 -50t-50 -21t-50 21t-21 50z" />
    <glyph glyph-name="uni06A4" unicode="&#x6a4;" horiz-adv-x="994" arabic-form="isolated" 
d="M672 207q0 -52 23.5 -72t57.5 -20h56v76q0 20 -2.5 38.5t-10 32.5t-20.5 22.5t-33 8.5t-34 -7.5t-22 -19.5t-11.5 -27.5t-3.5 -31.5zM207 0q-59 0 -99 8.5t-64 27.5t-34 49t-10 73v165h130v-147q0 -20 5 -31.5t18 -18.5t35 -9t56 -2h316q-8 16 -11.5 40.5t-3.5 45.5
q0 39 13.5 77t39.5 67.5t63.5 47.5t86.5 18q57 0 94 -20.5t58.5 -52t30 -70t8.5 -74.5v-194h-732zM589 571q0 29 21 50t50 21t50 -21t21 -50t-21 -50t-50 -21t-50 21t-21 50zM752 571q0 29 21 50t50 21t50 -21t21 -50t-21 -50t-50 -21t-50 21t-21 50zM673 716q0 29 21 50
t50 21t50 -21t21 -50t-21 -50t-50 -21t-50 21t-21 50z" />
    <glyph glyph-name="uniFB6C" unicode="&#x6a4;" horiz-adv-x="520" arabic-form="initial" 
d="M198 207q0 -52 24 -72t58 -20h56v76q0 20 -2.5 38.5t-10 32.5t-20.5 22.5t-33 8.5q-21 0 -34.5 -7.5t-22 -19.5t-12 -27.5t-3.5 -31.5zM87 115q-8 16 -11.5 40.5t-3.5 45.5q0 39 13.5 77t39 67.5t63.5 47.5t87 18q57 0 94 -20.5t58 -52t29.5 -70t8.5 -74.5v-194h-465
q-8 0 -15 1.5t-12.5 7t-8.5 16.5t-3 30q0 34 9.5 47t29.5 13h87zM111 571q0 29 21 50t50 21t50 -21t21 -50t-21 -50t-50 -21t-50 21t-21 50zM274 571q0 29 21 50t50 21t50 -21t21 -50t-21 -50t-50 -21t-50 21t-21 50zM195 716q0 29 21 50t50 21t50 -21t21 -50t-21 -50
t-50 -21t-50 21t-21 50z" />
    <glyph glyph-name="uniFB6D" unicode="&#x6a4;" horiz-adv-x="542" arabic-form="medial" 
d="M88 115q-8 16 -11.5 40.5t-3.5 45.5q0 39 13.5 77t39 67.5t63 47.5t86.5 18q57 0 94 -20.5t58 -52t29.5 -70t8.5 -74.5v-79h77q8 0 15 -1.5t12.5 -7t8.5 -16.5t3 -30q0 -34 -9.5 -47t-29.5 -13h-542q-8 0 -15 1.5t-12.5 7t-8.5 16.5t-3 30q0 34 9.5 47t29.5 13h88z
M198 207q0 -52 24 -72t58 -20h57v76q0 20 -2.5 38.5t-10 32.5t-20.5 22.5t-34 8.5t-34.5 -7.5t-22 -19.5t-12 -27.5t-3.5 -31.5zM122 571q0 29 21 50t50 21t50 -21t21 -50t-21 -50t-50 -21t-50 21t-21 50zM285 571q0 29 21 50t50 21t50 -21t21 -50t-21 -50t-50 -21t-50 21
t-21 50zM206 716q0 29 21 50t50 21t50 -21t21 -50t-21 -50t-50 -21t-50 21t-21 50z" />
    <glyph glyph-name="uniFB6B" unicode="&#x6a4;" horiz-adv-x="1018" arabic-form="final" 
d="M208 0q-59 0 -99 8.5t-64 27.5t-34.5 49t-10.5 73v165h130v-147q0 -20 5 -31.5t18 -18.5t35 -9t56 -2h317q-8 16 -11.5 40.5t-3.5 45.5q0 39 13.5 77t39 67.5t63 47.5t86.5 18q57 0 94 -20.5t58.5 -52t30 -70t8.5 -74.5v-79h79q8 0 15 -1.5t12.5 -7t8.5 -16.5t3 -30
q0 -34 -9.5 -47t-29.5 -13h-810zM672 207q0 -52 24 -72t57 -20h57v76q0 20 -2.5 38.5t-10 32.5t-20.5 22.5t-34 8.5q-20 0 -34 -7.5t-22 -19.5t-11.5 -27.5t-3.5 -31.5zM590 571q0 29 21 50t50 21t50 -21t21 -50t-21 -50t-50 -21t-50 21t-21 50zM753 571q0 29 21 50t50 21
t50 -21t21 -50t-21 -50t-50 -21t-50 21t-21 50zM674 716q0 29 21 50t50 21t50 -21t21 -50t-21 -50t-50 -21t-50 21t-21 50z" />
    <glyph glyph-name="uni06A9" unicode="&#x6a9;" horiz-adv-x="884" arabic-form="isolated" 
d="M622 115q21 0 40 8.5t19 34.5q0 18 -22.5 48.5t-59.5 64.5t-84 67.5t-95 58.5q7 33 16.5 54.5t19.5 34.5t19.5 19.5t15.5 9.5l349 154v-134l-236 -98v-3q60 -39 99 -77t62.5 -74t32.5 -68.5t9 -60.5q0 -24 -6.5 -51t-25.5 -50t-53.5 -38t-90.5 -15h-424q-59 0 -99 8.5
t-64 27.5t-34 49t-10 73v165h130v-147q0 -20 5 -31.5t18 -18.5t35 -9t56 -2h378z" />
    <glyph glyph-name="uniFB90" unicode="&#x6a9;" horiz-adv-x="481" arabic-form="initial" 
d="M233 115q21 0 40 8.5t19 34.5q0 18 -22.5 48.5t-59.5 64.5t-84 67.5t-95 58.5q7 33 16.5 54.5t19.5 34.5t19.5 19.5t15.5 9.5l349 154v-134l-236 -98v-3q60 -39 99 -77t62.5 -74t32.5 -68.5t9 -60.5q0 -24 -6.5 -51t-25.5 -50t-53.5 -38t-90.5 -15h-242q-8 0 -15 1.5
t-12.5 7t-8.5 16.5t-3 30q0 34 9.5 47t29.5 13h233z" />
    <glyph glyph-name="uniFB91" unicode="&#x6a9;" horiz-adv-x="509" arabic-form="medial" 
d="M220 115q34 0 48.5 10.5t14.5 33.5q0 19 -14.5 45.5t-45 57.5t-79.5 64.5t-118 67.5q4 32 9 52t11 32t12.5 18t13.5 10l371 161v-136l-224 -96v-4q76 -48 120 -105.5t67 -120.5q16 -45 39.5 -67.5t63.5 -22.5q8 0 15 -1.5t12.5 -7t8.5 -16.5t3 -30q0 -34 -9.5 -47
t-29.5 -13q-17 0 -35 1.5t-35.5 8t-34 19t-31.5 34.5q-17 -22 -35 -34.5t-39 -19t-44.5 -8t-50.5 -1.5h-204q-8 0 -15 1.5t-12.5 7t-8.5 16.5t-3 30q0 34 9.5 47t29.5 13h220z" />
    <glyph glyph-name="uniFB8F" unicode="&#x6a9;" horiz-adv-x="909" arabic-form="final" 
d="M620 115q33 0 47.5 10.5t14.5 33.5q0 19 -14.5 45.5t-45 57.5t-79.5 64.5t-118 67.5q4 32 9 52t11 32t12.5 18t13.5 10l371 161v-136l-224 -96v-4q76 -48 120 -105.5t67 -120.5q16 -45 39.5 -67.5t63.5 -22.5q8 0 15 -1.5t12.5 -7t8.5 -16.5t3 -30q0 -34 -9.5 -47
t-29.5 -13q-17 0 -35 1.5t-35.5 8t-34 19t-31.5 34.5q-17 -22 -35 -34.5t-39 -19t-44.5 -8t-50.5 -1.5h-396q-59 0 -99 8.5t-64 27.5t-34 49t-10 73v165h130v-147q0 -20 5.5 -31.5t18.5 -18.5t35 -9t56 -2h375z" />
    <glyph glyph-name="uni06AF" unicode="&#x6af;" horiz-adv-x="884" arabic-form="isolated" 
d="M622 115q21 0 40 8.5t19 34.5q0 18 -22.5 48.5t-59.5 64.5t-84 67.5t-95 58.5q7 33 16.5 54.5t19.5 34.5t19.5 19.5t15.5 9.5l349 154v-134l-236 -98v-3q60 -39 99 -77t62.5 -74t32.5 -68.5t9 -60.5q0 -24 -6.5 -51t-25.5 -50t-53.5 -38t-90.5 -15h-424q-59 0 -99 8.5
t-64 27.5t-34 49t-10 73v165h130v-147q0 -20 5 -31.5t18 -18.5t35 -9t56 -2h378zM438 554q6 121 87 163l316 143v-128z" />
    <glyph glyph-name="uniFB94" unicode="&#x6af;" horiz-adv-x="481" arabic-form="initial" 
d="M233 115q21 0 40 8.5t19 34.5q0 18 -22.5 48.5t-59.5 64.5t-84 67.5t-95 58.5q7 33 16.5 54.5t19.5 34.5t19.5 19.5t15.5 9.5l349 154v-134l-236 -98v-3q60 -39 99 -77t62.5 -74t32.5 -68.5t9 -60.5q0 -24 -6.5 -51t-25.5 -50t-53.5 -38t-90.5 -15h-242q-8 0 -15 1.5
t-12.5 7t-8.5 16.5t-3 30q0 34 9.5 47t29.5 13h233zM36 554q6 121 87 163l316 143v-128z" />
    <glyph glyph-name="uniFB95" unicode="&#x6af;" horiz-adv-x="509" arabic-form="medial" 
d="M220 115q34 0 48.5 10.5t14.5 33.5q0 19 -14.5 45.5t-45 57.5t-79.5 64.5t-118 67.5q4 32 9 52t11 32t12.5 18t13.5 10l371 161v-136l-224 -96v-4q76 -48 120 -105.5t67 -120.5q16 -45 39.5 -67.5t63.5 -22.5q8 0 15 -1.5t12.5 -7t8.5 -16.5t3 -30q0 -34 -9.5 -47
t-29.5 -13q-17 0 -35 1.5t-35.5 8t-34 19t-31.5 34.5q-17 -22 -35 -34.5t-39 -19t-44.5 -8t-50.5 -1.5h-204q-8 0 -15 1.5t-12.5 7t-8.5 16.5t-3 30q0 34 9.5 47t29.5 13h220zM38 554q6 121 87 163l316 143v-128z" />
    <glyph glyph-name="uniFB93" unicode="&#x6af;" horiz-adv-x="909" arabic-form="final" 
d="M620 115q33 0 47.5 10.5t14.5 33.5q0 19 -14.5 45.5t-45 57.5t-79.5 64.5t-118 67.5q4 32 9 52t11 32t12.5 18t13.5 10l371 161v-136l-224 -96v-4q76 -48 120 -105.5t67 -120.5q16 -45 39.5 -67.5t63.5 -22.5q8 0 15 -1.5t12.5 -7t8.5 -16.5t3 -30q0 -34 -9.5 -47
t-29.5 -13q-17 0 -35 1.5t-35.5 8t-34 19t-31.5 34.5q-17 -22 -35 -34.5t-39 -19t-44.5 -8t-50.5 -1.5h-396q-59 0 -99 8.5t-64 27.5t-34 49t-10 73v165h130v-147q0 -20 5.5 -31.5t18.5 -18.5t35 -9t56 -2h375zM439 554q6 121 87 163l316 143v-128z" />
    <glyph glyph-name="uni06BA" unicode="&#x6ba;" horiz-adv-x="609" arabic-form="isolated" 
d="M548 135q0 -79 -19 -131.5t-54.5 -84.5t-87 -45.5t-115.5 -13.5q-272 0 -272 259v157h129v-152q0 -70 34.5 -107t112.5 -37q73 0 108.5 31t35.5 106v269h129z" />
    <glyph glyph-name="uniFB9F" unicode="&#x6ba;" horiz-adv-x="624" arabic-form="final" 
d="M624 0q-14 0 -38 7t-38 26q-2 -77 -21.5 -128.5t-54.5 -82.5t-85.5 -44t-114.5 -13q-272 0 -272 259v137h130v-132q0 -70 36 -107t108 -37q75 0 110.5 31t35.5 106v250h129v-87q0 -20 6.5 -33.5t17 -21.5t24 -11.5t27.5 -3.5q8 0 15 -1.5t12.5 -7t8.5 -16.5t3 -30
q0 -34 -9.5 -47t-29.5 -13z" />
    <glyph glyph-name="uniFBAC" unicode="&#x6be;" horiz-adv-x="655" arabic-form="initial" 
d="M120 115q-14 39 -14 77q0 48 17 90t48 68q-16 -1 -33 -1.5t-34 -2.5v91q29 4 57.5 6t56.5 2q187 0 287 -90t100 -262v-93h-605q-8 0 -15 1.5t-12.5 7t-8.5 16.5t-3 30q0 34 9.5 47t29.5 13h120zM389 207q0 -30 -4.5 -52.5t-11.5 -39.5h107q0 91 -34 141.5t-100 72.5
q23 -29 33 -63.5t10 -58.5zM249 120q11 0 18.5 9.5t11.5 23t5.5 28.5t1.5 26q0 15 -2 31t-7 29.5t-12.5 22.5t-19.5 9q-10 0 -17.5 -8.5t-12.5 -22t-7.5 -30.5t-2.5 -33q0 -12 2 -27t7 -28t13.5 -21.5t21.5 -8.5z" />
    <glyph glyph-name="uniFBAD" unicode="&#x6be;" horiz-adv-x="546" arabic-form="medial" 
d="M106 115v39q0 121 50.5 188.5t141.5 67.5q47 0 80 -17t53.5 -42.5t30 -55.5t9.5 -56q0 -32 -8 -62.5t-28 -57.5v-4h111q8 0 15 -1.5t12.5 -7t8.5 -16.5t3 -30q0 -34 -9.5 -47t-29.5 -13h-108v-3q10 -9 16 -21t9.5 -23.5t4.5 -21.5t1 -16q0 -32 -10.5 -61t-31.5 -50.5
t-53.5 -34.5t-77.5 -13q-52 0 -88 16.5t-58.5 47t-33 74.5t-10.5 99v7h-106q-8 0 -15 1.5t-12.5 7t-8.5 16.5t-3 30q0 34 9.5 47t29.5 13h106zM221 115h25q26 0 45 9.5t31 25t17.5 36t5.5 41.5q0 28 -13 46t-38 18q-36 0 -54.5 -35.5t-18.5 -86.5v-54zM221 0
q0 -57 17.5 -92.5t57.5 -35.5q27 0 38.5 16t11.5 41q0 6 -3 18t-11 23.5t-22.5 20.5t-37.5 9h-51z" />
    <glyph glyph-name="uniFBAB" unicode="&#x6be;" horiz-adv-x="608" arabic-form="final" 
d="M498 0v-3q10 -9 16 -21t9.5 -23.5t4.5 -21.5t1 -16q0 -32 -10.5 -61t-31.5 -50.5t-53.5 -34.5t-77.5 -13q-52 0 -88 16.5t-58.5 47t-33 74.5t-10.5 99v7h-53q-18 0 -22.5 -15.5t-5.5 -38.5h-63q-11 27 -16.5 53.5t-5.5 39.5q0 25 8 40t21.5 23t30 10.5t34.5 2.5h72v39
q0 121 50.5 188.5t141.5 67.5q47 0 80 -17t53.5 -42.5t30 -55.5t9.5 -56q0 -32 -8 -62.5t-28 -57.5v-4h111q8 0 15 -1.5t12.5 -7t8.5 -16.5t3 -30q0 -34 -9.5 -47t-29.5 -13h-108zM281 115h25q26 0 45 9.5t31 25t17.5 36t5.5 41.5q0 28 -13 46t-38 18q-36 0 -54.5 -35.5
t-18.5 -86.5v-54zM281 0q0 -57 17.5 -92.5t57.5 -35.5q27 0 38.5 16t11.5 41q0 6 -3 18t-11 23.5t-22.5 20.5t-37.5 9h-51z" />
    <glyph glyph-name="uni06C0" unicode="&#x6c0;" horiz-adv-x="441" arabic-form="isolated" 
d="M196 293q-20 0 -33.5 -9.5t-22 -24.5t-12.5 -34t-4 -37q0 -35 16 -56.5t58 -21.5q34 0 52 19.5t18 54.5q0 45 -18.5 77t-53.5 32zM0 180q0 40 13.5 81.5t39 74.5t61.5 54t82 21q42 0 77.5 -16t61.5 -45.5t41 -72.5t15 -97q0 -35 -11 -68t-35 -58.5t-61.5 -41.5t-90.5 -16
q-43 0 -78.5 11t-61 33.5t-39.5 57.5t-14 82zM283 502h-195v70h40q-5 7 -7 20t-2 21q0 23 7.5 40.5t20.5 29t29.5 17.5t33.5 6q16 0 29 -3t23 -7v-66q-26 6 -37 6q-19 0 -27.5 -9t-8.5 -22q0 -14 8.5 -23.5t32.5 -9.5h53v-70z" />
    <glyph glyph-name="uni06C1" unicode="&#x6c1;" horiz-adv-x="441" arabic-form="isolated" 
d="M196 293q-20 0 -33.5 -9.5t-22 -24.5t-12.5 -34t-4 -37q0 -35 16 -56.5t58 -21.5q34 0 52 19.5t18 54.5q0 45 -18.5 77t-53.5 32zM0 180q0 40 13.5 81.5t39 74.5t61.5 54t82 21q42 0 77.5 -16t61.5 -45.5t41 -72.5t15 -97q0 -35 -11 -68t-35 -58.5t-61.5 -41.5t-90.5 -16
q-43 0 -78.5 11t-61 33.5t-39.5 57.5t-14 82z" />
    <glyph glyph-name="uniFBA8" unicode="&#x6c1;" horiz-adv-x="306" arabic-form="initial" 
d="M115 115v283h131v-398h-68q-33 -51 -33 -85q0 -20 12.5 -25.5t25.5 -5.5q6 0 15 2.5t20 6.5q-3 -28 -12.5 -47t-21.5 -30.5t-25.5 -16.5t-25.5 -5q-45 0 -65.5 24.5t-20.5 66.5q0 25 11 57t28 58h-86q-8 0 -15 1.5t-12.5 7t-8.5 16.5t-3 30q0 34 9.5 47t29.5 13h115z" />
    <glyph glyph-name="uniFBA9" unicode="&#x6c1;" horiz-adv-x="440" arabic-form="medial" 
d="M204 115l-19 -50.5t-13 -38t-7.5 -29.5t-2.5 -25q0 -32 15.5 -53t35.5 -32q12 52 30.5 94t42.5 72t53.5 46t64.5 16h36q8 0 15 -1.5t12.5 -7t8.5 -16.5t3 -30q0 -34 -9.5 -47t-29.5 -13h-48q-22 0 -38.5 -20t-31 -55.5t-27 -83l-25.5 -101.5q-97 37 -149 82t-52 114
q0 9 1.5 26.5t6.5 37.5h-77q-8 0 -15 1.5t-12.5 7t-8.5 16.5t-3 30q0 34 9.5 47t29.5 13h204z" />
    <glyph glyph-name="uniFBA7" unicode="&#x6c1;" horiz-adv-x="299" arabic-form="final" 
d="M268 0q-21 0 -37 6.5t-28.5 17t-22 23t-17.5 24.5q-14 20 -24 30t-22 10q-8 0 -15.5 -10.5t-7.5 -43.5q0 -15 1.5 -33.5t5.5 -44.5h-96q-2 20 -3.5 37.5t-1.5 30.5q0 38 8 71.5t23 58t37.5 39t51.5 14.5q36 0 56 -16.5t40 -47.5q10 -15 26.5 -33t40.5 -18h16q8 0 15 -1.5
t12.5 -7t8.5 -16.5t3 -30q0 -34 -9.5 -47t-29.5 -13h-31z" />
    <glyph glyph-name="uni06C2.fina" unicode="&#x6c2;" horiz-adv-x="439" 
d="M127 260q0 -12 3 -25.5t11 -24t21.5 -17.5t34.5 -7q13 0 26.5 1t27.5 6v138h-50q-37 0 -55.5 -19.5t-18.5 -51.5zM406 0q-24 0 -46.5 3.5t-41.5 12.5t-33.5 24.5t-22.5 40.5q-17 -4 -35 -6.5t-36 -2.5q-25 0 -58 7.5t-62.5 27.5t-50 55.5t-20.5 91.5q0 55 19.5 93t50 62
t68 34.5t73.5 10.5h170v-299q0 -23 6 -31.5t28 -8.5h24q8 0 15 -1.5t12.5 -7t8.5 -16.5t3 -30q0 -34 -9.5 -47t-29.5 -13h-33zM67 621q0 29 21 50t50 21t50 -21t21 -50t-21 -50t-50 -21t-50 21t-21 50zM230 621q0 29 21 50t50 21t50 -21t21 -50t-21 -50t-50 -21t-50 21
t-21 50z" />
    <glyph glyph-name="uni06C3.fina" unicode="&#x6c3;" horiz-adv-x="299" 
d="M268 0q-21 0 -37 6.5t-28.5 17t-22 23t-17.5 24.5q-14 20 -24 30t-22 10q-8 0 -15.5 -10.5t-7.5 -43.5q0 -15 1.5 -33.5t5.5 -44.5h-96q-2 20 -3.5 37.5t-1.5 30.5q0 38 8 71.5t23 58t37.5 39t51.5 14.5q36 0 56 -16.5t40 -47.5q10 -15 26.5 -33t40.5 -18h16q8 0 15 -1.5
t12.5 -7t8.5 -16.5t3 -30q0 -34 -9.5 -47t-29.5 -13h-31zM207 328h-195v70h40q-5 7 -7 20t-2 21q0 23 7.5 40.5t20.5 29t29.5 17.5t33.5 6q16 0 29 -3t23 -7v-66q-26 6 -37 6q-19 0 -27.5 -9t-8.5 -22q0 -14 8.5 -23.5t32.5 -9.5h53v-70z" />
    <glyph glyph-name="uni06CC" unicode="&#x6cc;" horiz-adv-x="732" arabic-form="isolated" 
d="M130 18q0 -28 9.5 -51.5t32 -40.5t60 -26.5t93.5 -9.5q70 0 113.5 10t68 24.5t33.5 31.5t9 31q0 15 -11.5 24t-37.5 23q-29 15 -54.5 31t-44 36.5t-29.5 46t-11 60.5q0 39 14 78.5t41.5 71.5t69.5 52t98 20q37 0 65.5 -8t42.5 -13v-117q-35 8 -60.5 10.5t-39.5 2.5
q-26 0 -45 -7.5t-31.5 -19.5t-18.5 -26.5t-6 -29.5q0 -23 20.5 -39t50.5 -30q36 -17 59 -33t36.5 -32.5t19 -35t5.5 -39.5q0 -42 -17 -86t-58.5 -79.5t-110 -58t-171.5 -22.5q-91 0 -153 18.5t-100.5 51.5t-55 77.5t-16.5 97.5v161h130v-155z" />
    <glyph glyph-name="uniFBFE" unicode="&#x6cc;" horiz-adv-x="348" arabic-form="initial" 
d="M0 0q-8 0 -15 1.5t-12.5 7.5t-8.5 17t-3 30q0 34 9.5 47t29.5 13h158v282h131v-398h-289zM11 -168q0 29 21 50t50 21t50 -21t21 -50t-21 -50t-50 -21t-50 21t-21 50zM174 -168q0 29 21 50t50 21t50 -21t21 -50t-21 -50t-50 -21t-50 21t-21 50z" />
    <glyph glyph-name="uniFBFF" unicode="&#x6cc;" horiz-adv-x="358" arabic-form="medial" 
d="M358 0q-14 0 -30 2t-31 7.5t-28.5 15.5t-22.5 26q-12 -17 -29 -27.5t-36 -15.5t-39.5 -6.5t-40.5 -1.5h-101q-8 0 -15 1.5t-12.5 7t-8.5 16.5t-3 30q0 34 9.5 47t29.5 13h80q34 0 47.5 10.5t13.5 47.5v225h130v-214q0 -37 19.5 -53t67.5 -16q8 0 15 -1.5t12.5 -7
t8.5 -16.5t3 -30q0 -34 -9.5 -47t-29.5 -13zM26 -168q0 29 21 50t50 21t50 -21t21 -50t-21 -50t-50 -21t-50 21t-21 50zM189 -168q0 29 21 50t50 21t50 -21t21 -50t-21 -50t-50 -21t-50 21t-21 50z" />
    <glyph glyph-name="uniFBFD" unicode="&#x6cc;" horiz-adv-x="718" arabic-form="final" 
d="M667 0q2 -9 3.5 -20t1.5 -26q0 -41 -15.5 -75t-54.5 -59t-105 -39t-167 -14q-98 0 -161.5 18.5t-101 51t-52.5 76t-15 94.5v166h130v-162q0 -65 47 -94.5t155 -29.5q70 0 112.5 8t66 20t31 25t7.5 23q0 26 -51.5 44t-138.5 40v119q66 -21 126 -36t108 -15h125
q8 0 15 -1.5t12.5 -7t8.5 -16.5t3 -30q0 -34 -9.5 -47t-29.5 -13h-51z" />
    <glyph glyph-name="uni06D2" unicode="&#x6d2;" horiz-adv-x="777" arabic-form="isolated" 
d="M375 389q-3 -50 -16 -84.5t-34.5 -57.5t-50.5 -36.5t-63 -22.5q-50 -12 -68 -25t-18 -23q0 -9 11 -16t36.5 -12.5t67 -8t103.5 -2.5q48 0 104.5 4t112 11t105 15t82.5 16v-126q-50 -10 -106 -17.5t-111 -13t-105 -8t-88 -2.5q-84 0 -147 6.5t-105 23.5t-63.5 46.5
t-21.5 74.5q0 34 13.5 60.5t37 47t56.5 35t72 23.5q19 5 31.5 12t20 17.5t11.5 25.5t7 37h126z" />
    <glyph glyph-name="uniFBAF" unicode="&#x6d2;" horiz-adv-x="430" arabic-form="final" 
d="M240 0q-36 0 -58.5 -2.5t-35.5 -6.5t-18 -9.5t-5 -11.5q0 -12 10.5 -20.5t34.5 -14t62.5 -8.5t95.5 -3q24 0 56.5 2t70 5t78 8t81.5 11v-116q-88 -16 -164 -22.5t-136 -6.5q-105 0 -167 12t-94 33.5t-41.5 50.5t-9.5 64q0 72 62 111t188 39h180q8 0 15 -1.5t12.5 -7
t8.5 -16.5t3 -30q0 -34 -9.5 -47t-29.5 -13h-190z" />
    <glyph glyph-name="uni06D3" unicode="&#x6d3;" horiz-adv-x="777" arabic-form="isolated" 
d="M375 389q-3 -50 -16 -84.5t-34.5 -57.5t-50.5 -36.5t-63 -22.5q-50 -12 -68 -25t-18 -23q0 -9 11 -16t36.5 -12.5t67 -8t103.5 -2.5q48 0 104.5 4t112 11t105 15t82.5 16v-126q-50 -10 -106 -17.5t-111 -13t-105 -8t-88 -2.5q-84 0 -147 6.5t-105 23.5t-63.5 46.5
t-21.5 74.5q0 34 13.5 60.5t37 47t56.5 35t72 23.5q19 5 31.5 12t20 17.5t11.5 25.5t7 37h126zM234 449h-195v70h40q-5 7 -7 20t-2 21q0 23 7.5 40.5t20.5 29t29.5 17.5t33.5 6q16 0 29 -3t23 -7v-66q-26 6 -37 6q-19 0 -27.5 -9t-8.5 -22q0 -14 8.5 -23.5t32.5 -9.5h53v-70
z" />
    <glyph glyph-name="uniFBB1" unicode="&#x6d3;" horiz-adv-x="430" arabic-form="final" 
d="M240 0q-36 0 -58.5 -2.5t-35.5 -6.5t-18 -9.5t-5 -11.5q0 -12 10.5 -20.5t34.5 -14t62.5 -8.5t95.5 -3q24 0 56.5 2t70 5t78 8t81.5 11v-116q-88 -16 -164 -22.5t-136 -6.5q-105 0 -167 12t-94 33.5t-41.5 50.5t-9.5 64q0 72 62 111t188 39h180q8 0 15 -1.5t12.5 -7
t8.5 -16.5t3 -30q0 -34 -9.5 -47t-29.5 -13h-190zM231 209h-195v70h40q-5 7 -7 20t-2 21q0 23 7.5 40.5t20.5 29t29.5 17.5t33.5 6q16 0 29 -3t23 -7v-66q-26 6 -37 6q-19 0 -27.5 -9t-8.5 -22q0 -14 8.5 -23.5t32.5 -9.5h53v-70z" />
    <glyph glyph-name="uni06D5.fina" unicode="&#x6d5;" horiz-adv-x="439" 
d="M127 260q0 -12 3 -25.5t11 -24t21.5 -17.5t34.5 -7q13 0 26.5 1t27.5 6v138h-50q-37 0 -55.5 -19.5t-18.5 -51.5zM406 0q-24 0 -46.5 3.5t-41.5 12.5t-33.5 24.5t-22.5 40.5q-17 -4 -35 -6.5t-36 -2.5q-25 0 -58 7.5t-62.5 27.5t-50 55.5t-20.5 91.5q0 55 19.5 93t50 62
t68 34.5t73.5 10.5h170v-299q0 -23 6 -31.5t28 -8.5h24q8 0 15 -1.5t12.5 -7t8.5 -16.5t3 -30q0 -34 -9.5 -47t-29.5 -13h-33z" />
    <glyph glyph-name="uniFDF2" unicode="&#xfdf2;" horiz-adv-x="1394" arabic-form="isolated" 
d="M193 72q-25 0 -58 7.5t-63 27.5t-50.5 55.5t-20.5 91.5q0 55 19.5 93t50 62t68.5 34.5t74 10.5h169v-299q0 -23 6 -31.5t28 -8.5h121q33 0 46.5 10.5t13.5 47.5v541h130v-530q0 -18 2.5 -31.5t10.5 -21.5t22.5 -12t38.5 -4h146v599h130v-714h-276q-28 0 -54 9.5t-45 41.5
q-12 -17 -28.5 -27.5t-35 -15.5t-39.5 -6.5t-42 -1.5h-150q-24 0 -46 3.5t-41 12.5t-33.5 24.5t-22.5 40.5q-17 -4 -35 -6.5t-36 -2.5zM128 260q0 -25 14.5 -44.5t56.5 -19.5q13 0 26.5 1t27.5 6v128h-50q-38 0 -56.5 -19.5t-18.5 -51.5zM1328 714v-714h-129v714h129z" />
    <glyph glyph-name="uniFDFA" unicode="&#xfdfa;" horiz-adv-x="1057" arabic-form="isolated" 
d="M1017 437q0 -14 -16 -39q-15 -24 -31 -31q-47 -21 -116 -21q-11 0 -23 0.5t-25 1.5q-24 -47 -38 -47q-4 0 -4 6q0 16 22 47q-43 17 -48 26q-40 -26 -50 -26q8 -141 25 -176q18 -35 84 -40l2 2q-21 16 -21 43q0 33 32 76q24 32 61 32q28 0 53 -17q24 -17 24 -31
q-26 9 -52 9q-35 0 -65 -14q-26 -14 -26 -27q0 -14 25 -39q24 -25 44 -29q19 2 68 18q25 8 42 14t25 11l-17 -37q-101 -53 -191 -53q-97 0 -119 73q-30 -65 -57 -65q-26 0 -67 44q-65 -56 -197 -56q-20 0 -37.5 1.5t-32.5 3.5q4 -32 9 -52q9 -36 23 -50q44 -44 176 -44
q113 0 165 32q15 37 28 37q4 0 4 -8q0 -14 -12 -44q6 -13 27 -13q26 0 49 12q21 66 33 66q4 0 4 -11q0 -19 -10 -43q30 -13 44 -13q6 0 8 3q1 2 -8 39l17 36q12 -36 12 -52q0 -67 -44 -67q-23 0 -48 19q-15 -26 -59 -26q-48 0 -48 26q-20 -14 -64 -24q-53 -11 -121 -11
q-97 0 -143 28q-59 34 -60 126l-22 -32q-16 -24 -26 -26q12 -21 12 -41q0 -26 -16 -42q-8 -8 -21 -8q-20 0 -61 23q-13 -30 -42 -47q-3 -2 -9.5 -3t-13.5 -1.5t-13 -1t-9 -1.5l-11 -4q-6 0 -6 5q0 4 24 15q31 12 39 19l34 26q-10 17 -10 40q0 21 18 41q18 21 34 21q2 0 6 -2
q17 -10 29 -10q18 0 36 23l23 42q-39 12 -55 27q-30 27 -39 85h-2q-29 -50 -79 -50q-18 0 -39 8q-16 7 -16 12q0 25 43 58q20 16 41.5 26.5t43.5 17.5l-2 17l20 33q7 -108 21 -141q13 -31 56 -45l-13 132l19 43l17 -180q52 -6 95 -6q104 0 177 40q14 38 19 38q4 0 4 -9
q0 -10 -4 -25q37 -35 59 -35q26 0 42 43l-13 161q-74 -3 -88 74h-2q-7 -28 -14 -42q-11 -26 -27 -30l2 -2q70 4 70 -39q0 -30 -25 -46q-86 -59 -160 -59q-46 0 -74 23.5t-28 65.5q0 32 16 67q-27 7 -38 43h-2q-15 -51 -55 -51q-49 0 -47 77l-27 -24q-7 -7 -39 -7
q-49 0 -49 18q0 11 13 31q13 22 25 27l76 37v10l17 36l4 -120q1 -42 32 -42q15 0 29.5 10.5t16.5 22.5l-16 114l18 39l28 -161q9 -21 33 -21q23 0 23 13q0 22 -16 74l-10 32l-10 33l13 33q40 -124 40 -157q0 -21 -10 -44q-10 -28 -25 -28q-5 0 -9 3q-7 -20 -7 -39
q0 -75 91 -75q71 0 142 48q2 2 2 3q0 6 -38 12q-59 9 -61 10q-12 9 13 40q60 25 64 53q1 3 1 14q0 49 -5 106.5t-15 124.5l17 56q24 -211 38 -256q18 -57 72 -66l-5 96l21 45l8 -140q28 10 60 36l30 -21q19 -12 39 -15q23 24 65 55q52 38 70 38t41 -14q26 -15 26 -33z
M1008 2q0 -50 -39 -108q-42 -64 -89 -64q-23 0 -59 16q-37 16 -37 23q0 4 5 4q6 0 27 -7q24 -8 35 -8q68 -2 140 106l-7 22q-18 -26 -37 -26q-14 0 -24.5 13t-11.5 28q-2 22 15 54q16 31 28 31t32 -24q22 -26 22 -60zM970 639q-36 -13 -116 -51q-96 -47 -96 -61
q0 -11 26 -25l-9 -24q-33 10 -33 40t26 44q128 74 211 102zM476 447q-3 -66 -13 -73l-25 242l22 57zM602 37l-26 -31l-48 35l-28 -36l-50 36l29 35l47 -35l27 33zM989 420q0 7 -18 16q-17 9 -26 9q-21 0 -60 -24q-30 -19 -47 -34q4 -1 20 -1q39 0 82 8q49 10 49 26z
M632 -121q0 -20 -2 -30q-6 -13 -25 -13q-10 0 -14 4q-15 -16 -30 -16q-8 0 -16.5 8.5t-12.5 8.5q-8 0 -37 -17q-29 -18 -70 -18q-44 0 -44 8q0 7 32 7q17 0 29 0.5t17 1.5q15 3 35 16q29 19 40 19q8 0 19 -8t13 -8q15 0 18 17q1 13 11 13q4 0 4 -6t-1 -9q1 -4 11 -6
q12 0 12 12q0 16 11 16zM815 705l-6 -22l-195 -96l4 25zM169 263q-88 -34 -88 -52q0 -10 31 -10q33 0 59 24zM324 665q0 -32 -21 -32q-13 0 -21 8q-18 -15 -30 -15q-21 0 -21 27q0 19 3 27l6 6q-1 -37 17 -37q12 0 19 16l-2 23l9 14l4 -30q1 -16 15 -16q12 0 11 15l-3 22
l7 10q7 -18 7 -38zM189 487q-10 -5 -20 -9l-21 -8q-32 -15 -34 -24q-2 -11 25 -11q29 0 51 13zM214 -38q-5 21 -24 34q-19 14 -34 14q-14 0 -14 -12q0 -13 26 -27q24 -15 39 -15q8 0 7 6zM979 10q-6 32 -26 32q-16 0 -20 -25q4 -18 31 -18q13 0 15 11z" />
    <glyph glyph-name=".notdef" horiz-adv-x="278" 
 />
    <glyph glyph-name=".null" horiz-adv-x="0" 
 />
    <glyph glyph-name="nonmarkingreturn" unicode="&#xd;" horiz-adv-x="0" 
 />
    <glyph glyph-name="space" unicode=" " horiz-adv-x="278" 
 />
    <glyph glyph-name="exclam" unicode="!" horiz-adv-x="278" 
d="M213 522l-39 -308h-71l-38 308v147h148v-147zM61 154h157v-154h-157v154z" />
    <glyph glyph-name="quotedbl" unicode="&#x22;" horiz-adv-x="463" 
d="M271 714h107v-321h-107v321zM85 714h107v-321h-107v321z" />
    <glyph glyph-name="numbersign" unicode="#" horiz-adv-x="556" 
d="M116 198h-83v90h95l18 124h-83v90h95l28 198h97l-28 -198h97l27 198h97l-27 -198h74v-90h-87l-17 -124h74v-90h-87l-27 -198h-97l27 198h-96l-28 -198h-97zM243 412l-18 -124h97l17 124h-96z" />
    <glyph glyph-name="dollar" unicode="$" horiz-adv-x="556" 
d="M248 614q-17 0 -33 -5t-29 -15.5t-20.5 -26t-7.5 -36.5q0 -33 21 -51t69 -29v163zM307 100q18 2 37.5 8.5t35 18.5t25.5 29.5t10 41.5q0 39 -24.5 58.5t-83.5 35.5v-192zM141 232q-1 -57 30 -90t77 -42v209q-5 2 -13.5 4.5t-18.5 4.5q-38 10 -73.5 23.5t-64 36t-45.5 56
t-17 83.5q0 51 19.5 90t51.5 65.5t74 41t87 17.5v77h59v-77q45 -5 84.5 -19.5t69.5 -40t49 -63.5t22 -90h-142q-1 40 -25 68t-58 28v-177l51 -13q73 -20 113.5 -49.5t59.5 -61.5t22.5 -64t3.5 -57q0 -21 -11 -54.5t-39.5 -66.5t-76.5 -58t-123 -30v-85h-59v85
q-112 8 -175 69.5t-74 179.5h142z" />
    <glyph glyph-name="percent" unicode="%" horiz-adv-x="1000" 
d="M75 516q0 41 10 77t31 63t53 42.5t76 15.5q46 0 77.5 -16t51 -43.5t27.5 -64.5t8 -78t-10 -75.5t-30.5 -59.5t-52.5 -39t-76 -14q-46 0 -77.5 14.5t-51 40t-28 61t-8.5 76.5zM177 514q0 -16 1 -36t7 -37.5t19 -29.5t37 -12q23 0 36.5 12t20 29.5t8 37t1.5 35.5
q0 15 -1.5 36.5t-7.5 41.5t-18.5 34t-34.5 14q-24 0 -37.5 -13t-20.5 -32t-8.5 -41t-1.5 -39zM668 722h85l-412 -744h-87zM591 183q0 40 10 75.5t31 61.5t53 41t76 15q46 0 77.5 -15.5t51 -42t27.5 -62.5t8 -77t-10 -76t-30.5 -61t-52.5 -41t-76 -15q-46 0 -77.5 15.5
t-51 42t-28 62.5t-8.5 77zM693 182q0 -16 1 -37t7 -39.5t19 -31.5t37 -13q23 0 36.5 13t20 31.5t8 39t1.5 36.5q0 15 -1.5 35.5t-7.5 39t-18.5 32t-34.5 13.5q-24 0 -37.5 -12t-20.5 -30t-8.5 -39t-1.5 -38z" />
    <glyph glyph-name="ampersand" unicode="&#x26;" horiz-adv-x="685" 
d="M382 559q0 28 -19.5 48t-45.5 20t-45 -17.5t-19 -45.5q0 -34 18 -58l38 -49q30 19 51.5 41t21.5 61zM267 315q-19 -8 -37 -19t-32 -26t-22.5 -33t-8.5 -40q0 -20 8.5 -37t22.5 -29.5t32.5 -20t38.5 -7.5q38 0 66.5 17.5t53.5 45.5zM464 71q-43 -42 -91.5 -63.5
t-109.5 -21.5q-48 0 -90.5 14.5t-73.5 42t-49 67t-18 90.5q0 37 13 69t35.5 57.5t51 45.5t60.5 35q-29 35 -48.5 70t-19.5 82q0 37 15.5 67t41.5 51.5t59.5 33t69.5 11.5q40 0 76 -11t62.5 -32.5t42 -53.5t15.5 -74q0 -63 -36.5 -106t-90.5 -72l92 -113q11 20 17 41.5
t9 43.5h123q-5 -48 -22 -93t-47 -83l145 -169h-174z" />
    <glyph glyph-name="quotesingle" unicode="'" horiz-adv-x="278" 
d="M86 714h107v-321h-107v321z" />
    <glyph glyph-name="parenleft" unicode="(" horiz-adv-x="296" 
d="M303 731q-57 -106 -83 -220.5t-26 -232.5q0 -120 25.5 -235.5t82.5 -224.5h-118q-63 103 -97.5 217.5t-34.5 232.5q0 56 8 117.5t24.5 122t41.5 118t58 105.5h119z" />
    <glyph glyph-name="parenright" unicode=")" horiz-adv-x="296" 
d="M-7 -182q57 106 83 220t26 232q0 120 -25.5 236t-82.5 225h118q63 -103 97.5 -218t34.5 -233q0 -56 -8.5 -117.5t-25 -122.5t-41 -118t-57.5 -104h-119z" />
    <glyph glyph-name="asterisk" unicode="*" horiz-adv-x="407" 
d="M242 589l116 44l27 -77l-118 -39l74 -98l-66 -49l-74 103l-70 -103l-67 49l74 98l-116 39l27 77l113 -44v125h80v-125z" />
    <glyph glyph-name="plus" unicode="+" horiz-adv-x="600" 
d="M354 306h199v-107h-199v-199h-107v199h-199v107h199v199h107v-199z" />
    <glyph glyph-name="comma" unicode="," horiz-adv-x="278" 
d="M61 154h157v-154q0 -35 -12.5 -63t-33.5 -49.5t-49.5 -35t-60.5 -18.5v72q31 6 52 33t19 61h-72v154z" />
    <glyph glyph-name="hyphen" unicode="-" horiz-adv-x="407" 
d="M53 334h301v-122h-301v122z" />
    <glyph glyph-name="period" unicode="." horiz-adv-x="278" 
d="M60 154h157v-154h-157v154z" />
    <glyph glyph-name="slash" unicode="/" horiz-adv-x="371" 
d="M268 731h114l-279 -748h-114z" />
    <glyph glyph-name="zero" unicode="0" horiz-adv-x="556" 
d="M21 353q0 102 20.5 171.5t55.5 111.5t81.5 60t98.5 18t99 -18t82.5 -60t56 -111.5t20.5 -171.5q0 -105 -20.5 -175t-56 -113t-82.5 -61t-99 -18t-98.5 18t-81.5 61t-55.5 113t-20.5 175zM163 353q0 -30 2 -72.5t12.5 -82t33.5 -67.5t66 -28t67 28t34.5 67.5t12.5 82
t2 72.5q0 18 -0.5 43.5t-4 52.5t-10 53.5t-19.5 47.5t-33 34t-49 13t-48.5 -13t-32 -34t-19.5 -47.5t-10 -53.5t-3.5 -52.5t-0.5 -43.5z" />
    <glyph glyph-name="one" unicode="1" horiz-adv-x="556" 
d="M392 0h-142v454h-176v107q37 -1 71.5 5.5t62 23t46.5 43.5t25 67h113v-700z" />
    <glyph glyph-name="two" unicode="2" horiz-adv-x="556" 
d="M37 431q-2 60 14 111.5t48 90t80.5 60t111.5 21.5q48 0 91.5 -15t76.5 -43t52.5 -69t19.5 -92q0 -39 -10 -70.5t-27 -57t-39.5 -46t-48.5 -38.5l-53.5 -35.5t-54.5 -36.5t-51 -40.5t-43 -48.5h331v-122h-514q0 61 17.5 106t47.5 80.5t70.5 65.5l85.5 61l49 32.5
t47.5 36.5t36 45t14.5 57q0 51 -29.5 79.5t-75.5 28.5q-32 0 -53 -15t-34 -38t-18.5 -51.5t-5.5 -56.5h-136z" />
    <glyph glyph-name="three" unicode="3" horiz-adv-x="556" 
d="M228 417q23 -2 49 0t48.5 11.5t37 27.5t14.5 48q0 45 -30 69t-69 24q-54 0 -81.5 -35.5t-26.5 -89.5h-135q2 54 19.5 98.5t49 76.5t75.5 49.5t98 17.5q42 0 84 -12.5t75.5 -37.5t54.5 -61t21 -83q0 -51 -24.5 -90t-73.5 -53v-2q58 -13 91 -56t33 -103q0 -55 -21.5 -98
t-57.5 -72t-83 -44.5t-98 -15.5q-59 0 -107.5 17t-82.5 50t-52.5 80.5t-17.5 107.5h135q1 -29 9 -54t23 -43.5t37.5 -29.5t53.5 -11q48 0 81 29.5t33 80.5q0 40 -15.5 61t-39.5 30.5t-52.5 11t-54.5 1.5v100z" />
    <glyph glyph-name="four" unicode="4" horiz-adv-x="556" 
d="M312 162h-296v130l304 408h127v-421h93v-117h-93v-162h-135v162zM312 522h-3l-181 -243h184v243z" />
    <glyph glyph-name="five" unicode="5" horiz-adv-x="556" 
d="M500 583h-289l-28 -159l2 -2q29 29 62 41.5t75 12.5q52 0 92 -19t67.5 -51t42 -75.5t14.5 -92.5q0 -54 -21 -100.5t-56.5 -80.5t-83 -53t-99.5 -18q-51 0 -97.5 14t-82.5 42t-57.5 69.5t-22.5 96.5h142q5 -48 36 -76.5t79 -28.5q28 0 50 11t38 30t24.5 43.5t8.5 50.5
q0 27 -8 51t-24 42t-38.5 28t-50.5 10q-38 0 -62 -13.5t-45 -42.5h-128l69 387h391v-117z" />
    <glyph glyph-name="six" unicode="6" horiz-adv-x="556" 
d="M388 520q-7 35 -32 61t-62 26q-38 0 -63.5 -22.5t-40.5 -55t-22 -69.5t-8 -66l2 -2q29 42 68 60t90 18q45 0 88 -19.5t73 -52.5q28 -32 41 -73t13 -83q0 -54 -18 -100.5t-50 -81t-77 -54.5t-100 -20q-80 0 -131.5 31.5t-82.5 83t-43 116.5t-12 131q0 64 15 129.5t48 118
t85 85.5t127 33q45 0 84 -13t69 -37.5t49 -61t25 -82.5h-135zM286 363q-29 0 -50 -10.5t-35 -28.5t-21 -41.5t-7 -49.5q0 -24 7.5 -47.5t22 -42t35.5 -29.5t48 -11q25 0 45 11t34 29t21 41t7 47q0 25 -6.5 48.5t-19.5 42t-33.5 30t-47.5 11.5z" />
    <glyph glyph-name="seven" unicode="7" horiz-adv-x="556" 
d="M517 578q-55 -48 -97.5 -118.5t-71 -149t-44 -159.5t-16.5 -151h-152q12 157 73.5 302t161.5 266h-332v132h478v-122z" />
    <glyph glyph-name="eight" unicode="8" horiz-adv-x="556" 
d="M156 212q0 -27 10 -49t26.5 -37.5t39 -24t48.5 -8.5q25 0 47 8.5t38.5 24t25.5 37.5t9 48q0 25 -9.5 45.5t-26 35.5t-38 23t-46.5 8q-52 0 -88 -28.5t-36 -82.5zM43 523q0 47 21 83t54.5 60t75.5 36t85 12q65 0 110 -20t72.5 -48.5t39.5 -61.5t12 -58q0 -52 -25.5 -91
t-76.5 -56v-2q63 -14 97 -59.5t34 -111.5q0 -56 -22.5 -97t-59.5 -68.5t-84 -41t-96 -13.5q-51 0 -98.5 13t-85 40t-60 68t-22.5 98q0 67 34.5 112t97.5 60v2q-51 14 -77 53t-26 91zM172 510q0 -45 32 -68.5t75 -23.5q45 0 75 23.5t30 68.5q0 13 -4 30t-15.5 32t-32 25
t-53.5 10q-21 0 -40.5 -6.5t-34.5 -18.5t-23.5 -30t-8.5 -42z" />
    <glyph glyph-name="nine" unicode="9" horiz-adv-x="556" 
d="M168 180q7 -35 32 -61t62 -26q39 0 64 22.5t40 55t21.5 69.5t8.5 66l-2 2q-29 -42 -68 -60t-90 -18q-45 0 -88 19.5t-73 52.5q-28 32 -41 73t-13 83q0 54 17.5 100.5t50 81t77.5 54.5t100 20q79 0 131 -31.5t83 -83t43 -116.5t12 -131q0 -65 -15 -130t-48 -117.5
t-85 -85.5t-127 -33q-45 0 -84 13t-69 37.5t-49 60.5t-25 83h135zM270 337q28 0 49.5 10.5t35.5 28.5t21 41.5t7 49.5q0 24 -7.5 47.5t-22 42t-35.5 29.5t-48 11q-26 0 -45.5 -11t-33.5 -29t-21 -41t-7 -47q0 -25 6.5 -48.5t19.5 -42t33.5 -30t47.5 -11.5z" />
    <glyph glyph-name="colon" unicode=":" horiz-adv-x="278" 
d="M61 154h157v-154h-157v154zM218 354h-157v154h157v-154z" />
    <glyph glyph-name="semicolon" unicode=";" horiz-adv-x="278" 
d="M61 154h157v-154q0 -35 -12.5 -63t-33.5 -49.5t-49.5 -35t-60.5 -18.5v72q31 6 52 33t19 61h-72v154zM218 354h-157v154h157v-154z" />
    <glyph glyph-name="less" unicode="&#x3c;" horiz-adv-x="600" 
d="M554 399l-367 -146l367 -146v-115l-508 202v118l508 202v-115z" />
    <glyph glyph-name="equal" unicode="=" horiz-adv-x="600" 
d="M553 306h-505v107h505v-107zM553 92h-505v107h505v-107z" />
    <glyph glyph-name="greater" unicode="&#x3e;" horiz-adv-x="600" 
d="M46 107l367 146l-367 146v115l508 -202v-118l-508 -202v115z" />
    <glyph glyph-name="question" unicode="?" horiz-adv-x="556" 
d="M32 484q1 54 18.5 99t49 78t76 51.5t99.5 18.5q70 0 118 -19.5t77 -48.5t41.5 -63t12.5 -62q0 -36 -7 -62.5t-19 -46t-27 -34t-31 -26.5l-32 -23.5t-29.5 -25t-23.5 -30t-13 -38.5v-38h-135v45q2 33 10.5 57t20.5 42.5t26.5 32t29.5 25.5l28 22.5t23 23t16 27.5t6 35
q0 46 -22.5 68t-62.5 22q-27 0 -46.5 -10.5t-32 -28t-18.5 -41t-6 -50.5h-147zM193 154h157v-154h-157v154z" />
    <glyph glyph-name="at" unicode="@" horiz-adv-x="800" 
d="M291 319q0 -40 21.5 -64.5t56.5 -24.5q27 0 49.5 14t39 35.5t25.5 48.5t9 53q0 37 -22.5 61t-54.5 24q-27 0 -50 -13.5t-39.5 -35t-25.5 -47.5t-9 -51zM559 287q-3 -10 -5.5 -21.5t-2.5 -21.5t4 -16.5t13 -6.5q21 0 42.5 13.5t38 38t27 58t10.5 74.5q0 60 -21 105.5
t-57.5 77t-86 47.5t-106.5 16q-65 0 -117 -22.5t-89 -62t-57 -94t-20 -117.5q0 -66 22 -119.5t61 -92t93 -59.5t119 -21q63 0 119.5 21.5t95.5 60.5h84q-51 -78 -131 -120t-174 -42q-80 0 -150 28.5t-122.5 78.5t-82.5 118.5t-30 148.5q0 79 30 147.5t82 118.5t121 79
t147 29q68 0 131 -22t111 -61.5t77 -96t29 -125.5q0 -77 -27.5 -132t-66 -90t-78 -51.5t-63.5 -16.5q-32 0 -51.5 16t-21.5 41h-2q-18 -30 -47 -44t-61 -14t-60.5 13.5t-50 37t-34 54.5t-12.5 66q0 47 15.5 93t44 82t68.5 58t90 22q32 0 66 -15.5t51 -54.5l16 54h82z" />
    <glyph glyph-name="A" unicode="A" horiz-adv-x="685" 
d="M264 714h161l267 -714h-163l-54 159h-267l-56 -159h-159zM249 276h185l-90 262h-2z" />
    <glyph glyph-name="B" unicode="B" horiz-adv-x="704" 
d="M226 122h168q23 0 44 4.5t37 15t25.5 28.5t9.5 46q0 55 -31 78.5t-82 23.5h-171v-196zM69 714h336q51 0 93 -9t72 -29.5t46.5 -54.5t16.5 -84q0 -54 -24.5 -90t-72.5 -59q66 -19 98.5 -66.5t32.5 -114.5q0 -54 -21 -93.5t-56.5 -64.5t-81 -37t-93.5 -12h-346v714z
M226 425h159q42 0 69 20t27 65q0 25 -9 41t-24 25t-34.5 12.5t-40.5 3.5h-147v-167z" />
    <glyph glyph-name="C" unicode="C" horiz-adv-x="741" 
d="M545 474q-4 27 -18 49.5t-35 39.5t-47.5 26.5t-55.5 9.5q-53 0 -90 -20.5t-60 -55t-33.5 -78.5t-10.5 -91q0 -45 10.5 -87.5t33.5 -76.5t60 -54.5t90 -20.5q72 0 112.5 44t49.5 116h152q-6 -67 -31 -121t-66 -92t-96 -58.5t-121 -20.5q-83 0 -148 29t-110 79t-69 118
t-24 145q0 79 24 148t69 120t110 80t148 29q58 0 111 -17t94.5 -49.5t68.5 -80.5t34 -110h-152z" />
    <glyph glyph-name="D" unicode="D" horiz-adv-x="741" 
d="M69 714h308q69 0 128.5 -22t103 -66t68 -110.5t24.5 -154.5q0 -78 -20 -144t-60.5 -114t-101 -75.5t-142.5 -27.5h-308v714zM226 132h140q34 0 66 11t57 36.5t40 66.5t15 100q0 54 -10.5 97.5t-34.5 74.5t-63.5 47.5t-97.5 16.5h-112v-450z" />
    <glyph glyph-name="E" unicode="E" horiz-adv-x="648" 
d="M69 714h534v-132h-377v-153h346v-122h-346v-175h385v-132h-542v714z" />
    <glyph glyph-name="F" unicode="F" horiz-adv-x="593" 
d="M69 714h502v-132h-345v-165h299v-122h-299v-295h-157v714z" />
    <glyph glyph-name="G" unicode="G" horiz-adv-x="759" 
d="M585 81q-42 -54 -93 -76t-103 -22q-83 0 -148 29t-110 79t-69 118t-24 145q0 79 24 148t69 120t110 80t148 29q55 0 106.5 -16.5t92.5 -48.5t68.5 -79t33.5 -108h-150q-14 60 -54 90t-97 30q-53 0 -90 -20.5t-60 -55t-33.5 -78.5t-10.5 -91q0 -45 10.5 -87.5t33.5 -76.5
t60 -54.5t90 -20.5q78 0 120.5 39.5t49.5 114.5h-158v117h300v-386h-100z" />
    <glyph glyph-name="H" unicode="H" horiz-adv-x="741" 
d="M69 714h157v-274h289v274h157v-714h-157v308h-289v-308h-157v714z" />
    <glyph glyph-name="I" unicode="I" horiz-adv-x="295" 
d="M69 714h157v-714h-157v714z" />
    <glyph glyph-name="J" unicode="J" horiz-adv-x="556" 
d="M487 225q0 -23 -3 -50t-11.5 -54t-24.5 -51.5t-42.5 -44t-65 -31t-91.5 -11.5q-45 0 -87 12.5t-75 39.5t-53 68.5t-20 100.5v62h142v-32q0 -26 4 -48t14 -37.5t27.5 -24.5t45.5 -9q31 0 48 11t24.5 28.5t9 38t1.5 39.5v482h157v-489z" />
    <glyph glyph-name="K" unicode="K" horiz-adv-x="722" 
d="M69 714h157v-296l279 296h196l-279 -282l306 -432h-197l-215 321l-90 -91v-230h-157v714z" />
    <glyph glyph-name="L" unicode="L" horiz-adv-x="593" 
d="M69 714h157v-582h348v-132h-505v714z" />
    <glyph glyph-name="M" unicode="M" horiz-adv-x="907" 
d="M69 714h221l167 -491h2l158 491h221v-714h-147v506h-2l-175 -506h-121l-175 501h-2v-501h-147v714z" />
    <glyph glyph-name="N" unicode="N" horiz-adv-x="741" 
d="M69 714h156l298 -479h2v479h147v-714h-157l-297 478h-2v-478h-147v714z" />
    <glyph glyph-name="O" unicode="O" horiz-adv-x="778" 
d="M38 354q0 79 24 148t69 120t110 80t148 29q82 0 147.5 -29t110.5 -80t69 -120t24 -148q0 -77 -24 -145t-69 -118t-110.5 -79t-147.5 -29q-83 0 -148 29t-110 79t-69 118t-24 145zM195 354q0 -45 10.5 -87.5t33.5 -76.5t60 -54.5t90 -20.5t90 20.5t60 54.5t33.5 76.5
t10.5 87.5q0 47 -10.5 91t-33.5 78.5t-60 55t-90 20.5t-90 -20.5t-60 -55t-33.5 -78.5t-10.5 -91z" />
    <glyph glyph-name="P" unicode="P" horiz-adv-x="667" 
d="M69 714h322q67 0 114 -19.5t76.5 -51.5t43 -73.5t13.5 -84.5q0 -44 -13.5 -85t-43 -73t-76.5 -51.5t-114 -19.5h-165v-256h-157v714zM226 378h122q27 0 52 4t44 15.5t30.5 32.5t11.5 55t-11.5 55t-30.5 32.5t-44 15.5t-52 4h-122v-214z" />
    <glyph glyph-name="Q" unicode="Q" horiz-adv-x="778" 
d="M663 -67l-101 92q-35 -20 -78.5 -31t-94.5 -11q-83 0 -148 29t-110 79t-69 118t-24 145q0 79 24 148t69 120t110 80t148 29q82 0 147.5 -29t110.5 -80t69 -120t24 -148q0 -78 -24 -145t-69 -118l89 -81zM458 264l81 -74q20 27 32 67t12 97q0 47 -10.5 91t-33.5 78.5
t-60 55t-90 20.5t-90 -20.5t-60 -55t-33.5 -78.5t-10.5 -91q0 -45 10.5 -87.5t33.5 -76.5t60 -54.5t90 -20.5q17 0 36 1t27 9l-67 61z" />
    <glyph glyph-name="R" unicode="R" horiz-adv-x="722" 
d="M69 714h385q48 0 86.5 -15.5t66 -42.5t42 -63t14.5 -76q0 -63 -26.5 -109t-86.5 -70v-2q29 -8 48 -25t31 -39.5t17.5 -49t7.5 -53.5q1 -17 2 -40t3.5 -47t8 -45.5t16.5 -36.5h-157q-7 17 -10.5 37.5t-6 43t-4 46t-4.5 44.5q-8 56 -34 82t-85 26h-157v-279h-157v714z
M226 391h172q54 0 81 24t27 78q0 52 -27 75.5t-81 23.5h-172v-201z" />
    <glyph glyph-name="S" unicode="S" horiz-adv-x="649" 
d="M176 237q0 -36 13 -61t34.5 -40.5t50 -23t60.5 -7.5q21 0 45 3.5t45 13.5t35 27.5t14 44.5q0 29 -18.5 47t-48.5 30t-68 21t-77 20q-40 10 -78 24t-68 37.5t-48.5 57.5t-18.5 84q0 55 23.5 95.5t61.5 67.5t86 40t96 13q56 0 107.5 -12.5t91.5 -40.5t63.5 -71.5
t23.5 -105.5h-152q-2 32 -13.5 53t-30.5 33t-44 17t-53 5q-19 0 -38 -4t-34.5 -14t-25.5 -25.5t-10 -37.5q0 -21 8 -34t31.5 -24t65 -22l108.5 -28q20 -5 55.5 -15t70.5 -33t60.5 -61.5t25.5 -98.5q0 -49 -19 -91t-56.5 -72.5t-93 -48t-128.5 -17.5q-59 0 -114.5 15t-98 46
t-67.5 79t-24 114h152z" />
    <glyph glyph-name="T" unicode="T" horiz-adv-x="611" 
d="M227 582h-214v132h585v-132h-214v-582h-157v582z" />
    <glyph glyph-name="U" unicode="U" horiz-adv-x="741" 
d="M675 270q0 -145 -81 -216t-224 -71q-145 0 -224.5 70.5t-79.5 216.5v444h157v-444q0 -29 5 -57t21 -50t44.5 -35t76.5 -13q84 0 116 37.5t32 117.5v444h157v-444z" />
    <glyph glyph-name="V" unicode="V" horiz-adv-x="630" 
d="M401 0h-177l-232 714h162l159 -502h2l161 502h162z" />
    <glyph glyph-name="W" unicode="W" horiz-adv-x="944" 
d="M749 0h-156l-121 486h-2l-119 -486h-159l-189 714h157l113 -486h2l124 486h147l122 -492h2l117 492h154z" />
    <glyph glyph-name="X" unicode="X" horiz-adv-x="667" 
d="M244 374l-230 340h182l140 -228l145 228h172l-229 -341l249 -373h-187l-156 247l-159 -247h-177z" />
    <glyph glyph-name="Y" unicode="Y" horiz-adv-x="667" 
d="M254 278l-263 436h177l167 -282l166 282h175l-265 -440v-274h-157v278z" />
    <glyph glyph-name="Z" unicode="Z" horiz-adv-x="648" 
d="M23 124l383 458h-353v132h562v-124l-383 -458h393v-132h-602v124z" />
    <glyph glyph-name="bracketleft" unicode="[" horiz-adv-x="333" 
d="M68 731h264v-112h-122v-689h122v-112h-264v913z" />
    <glyph glyph-name="backslash" unicode="\" horiz-adv-x="371" 
d="M382 -17h-114l-279 748h114z" />
    <glyph glyph-name="bracketright" unicode="]" horiz-adv-x="333" 
d="M265 -182h-264v112h122v689h-122v112h264v-913z" />
    <glyph glyph-name="asciicircum" unicode="^" horiz-adv-x="600" 
d="M233 700h134l172 -385h-117l-122 275l-122 -275h-117z" />
    <glyph glyph-name="underscore" unicode="_" 
d="M0 -75h500v-50h-500v50z" />
    <glyph glyph-name="grave" unicode="`" horiz-adv-x="259" 
d="M-48 723h157l96 -142h-99z" />
    <glyph glyph-name="a" unicode="a" horiz-adv-x="574" 
d="M376 253q-9 -8 -22.5 -12.5t-29 -7.5t-33 -5t-33.5 -5q-17 -3 -32 -8t-26.5 -13.5t-18.5 -22t-7 -32.5q0 -20 7 -32.5t19 -20t28 -10.5t33 -3q42 0 65 14t34 33.5t13.5 39.5t2.5 32v53zM48 358q3 49 25 82.5t56 53.5t76 28.5t86 8.5q39 0 79 -5.5t73 -21.5t54 -45t21 -75
v-269q0 -35 4 -67t14 -48h-144q-4 12 -6.5 24.5t-3.5 25.5q-34 -35 -80 -49.5t-94 -14.5q-37 0 -69 9.5t-56 28.5t-37.5 48t-13.5 69q0 44 15 72.5t40 45.5t56.5 25.5t64.5 13.5t63 8t53.5 9t37.5 17.5t14 33.5t-7.5 36t-20 21.5t-29 10t-35.5 2.5q-42 0 -66 -18t-28 -60
h-142z" />
    <glyph glyph-name="b" unicode="b" horiz-adv-x="611" 
d="M54 714h142v-260h2q26 40 70.5 58.5t92.5 18.5q39 0 77 -16t68.5 -49t49.5 -84.5t19 -122.5t-19 -122.5t-49.5 -85t-68.5 -49.5t-77 -16q-57 0 -102 18.5t-68 61.5h-2v-66h-135v714zM433 258q0 33 -7 63t-22 53t-38 36.5t-54 13.5q-32 0 -54.5 -13.5t-37.5 -36.5t-22 -53
t-7 -63q0 -32 7 -62t22 -53t37.5 -36.5t54.5 -13.5q31 0 54 13.5t38 36.5t22 53t7 62z" />
    <glyph glyph-name="c" unicode="c" horiz-adv-x="574" 
d="M406 335q-14 89 -105 89q-34 0 -57 -15.5t-37.5 -40t-20.5 -54.5t-6 -58t6 -57t19.5 -52.5t36.5 -38.5t56 -15q51 0 78.5 28.5t34.5 76.5h137q-14 -103 -80 -157.5t-169 -54.5q-59 0 -107 19.5t-82 55t-53 84t-19 106.5q0 60 17.5 111.5t51.5 89t83 58.5t112 21
q46 0 88.5 -12t76 -36.5t54.5 -61.5t24 -86h-139z" />
    <glyph glyph-name="d" unicode="d" horiz-adv-x="611" 
d="M423 66h-2q-25 -42 -65.5 -61t-91.5 -19q-59 0 -102.5 23t-72 61.5t-43 88.5t-14.5 104q0 52 14.5 100.5t43 85.5t71.5 59.5t100 22.5q46 0 87.5 -19.5t65.5 -57.5h2v260h142v-714h-135v66zM421 260q0 31 -6 61t-20.5 52.5t-38 36.5t-57.5 14q-35 0 -59 -14t-38.5 -37
t-21 -53t-6.5 -61q0 -30 7 -60t22.5 -53.5t39 -38t56.5 -14.5q35 0 58.5 14t37.5 37.5t20 53.5t6 62z" />
    <glyph glyph-name="e" unicode="e" horiz-adv-x="574" 
d="M171 224q3 -69 35 -100t92 -31q43 0 74 21.5t38 45.5h125q-30 -93 -92 -133.5t-150 -40.5q-61 0 -110 20t-83 56t-52.5 86t-18.5 110q0 58 19 108t54 86.5t83.5 57.5t107.5 21q66 0 115 -25.5t80.5 -68.5t45.5 -98t10 -115h-373zM402 314q-10 54 -35.5 82t-77.5 28
q-35 0 -57 -11.5t-35.5 -28.5t-19 -36t-6.5 -34h231z" />
    <glyph glyph-name="f" unicode="f" horiz-adv-x="333" 
d="M85 422h-85v95h85v40q0 69 43 113t130 44q19 0 38 -1.5t37 -2.5v-106q-26 3 -52 3q-29 0 -41.5 -13.5t-12.5 -45.5v-31h98v-95h-98v-422h-142v422z" />
    <glyph glyph-name="g" unicode="g" horiz-adv-x="611" 
d="M551 33q0 -32 -8.5 -71.5t-36.5 -74.5t-81 -59t-142 -24q-38 0 -77.5 9.5t-72 29.5t-54 51.5t-24.5 75.5h141q10 -40 39 -55.5t67 -15.5q60 0 87.5 35.5t26.5 92.5v68h-2q-23 -41 -65.5 -60.5t-89.5 -19.5q-59 0 -100.5 20.5t-68.5 56t-39.5 83t-12.5 100.5
q0 50 14.5 96.5t42.5 82t69.5 56.5t95.5 21q51 0 89.5 -19t64.5 -64h2v69h135v-484zM295 122q30 0 53 12t38 32t22.5 45.5t7.5 53.5q0 31 -6 60t-20 51t-37.5 35t-57.5 13q-30 0 -51.5 -12t-36 -32.5t-21 -47t-6.5 -55.5q0 -28 5.5 -55.5t19 -49.5t35.5 -36t55 -14z" />
    <glyph glyph-name="h" unicode="h" horiz-adv-x="593" 
d="M54 714h142v-269h3q27 45 69 65.5t82 20.5q57 0 93.5 -15.5t57.5 -43t29.5 -67t8.5 -87.5v-318h-142v292q0 64 -20 95.5t-71 31.5q-58 0 -84 -34.5t-26 -113.5v-271h-142v714z" />
    <glyph glyph-name="i" unicode="i" horiz-adv-x="258" 
d="M58 517h142v-517h-142v517zM200 597h-142v117h142v-117z" />
    <glyph glyph-name="j" unicode="j" horiz-adv-x="278" 
d="M-19 -61q11 -4 31 -4q22 0 38.5 8.5t16.5 37.5v536h142v-543q0 -40 -8.5 -69t-29 -48.5t-55.5 -29t-89 -9.5q-11 0 -23 1t-23 3v117zM209 597h-142v117h142v-117z" />
    <glyph glyph-name="k" unicode="k" horiz-adv-x="574" 
d="M67 714h142v-383l179 186h168l-195 -190l217 -327h-172l-142 231l-55 -53v-178h-142v714z" />
    <glyph glyph-name="l" unicode="l" horiz-adv-x="258" 
d="M58 714h142v-714h-142v714z" />
    <glyph glyph-name="m" unicode="m" horiz-adv-x="906" 
d="M58 517h134v-70h2q28 40 67.5 62t90.5 22q49 0 89.5 -19t61.5 -67q23 34 62.5 60t93.5 26q41 0 76 -10t60 -32t39 -57.5t14 -85.5v-346h-142v293q0 26 -2 49t-11 40t-26.5 27t-47.5 10t-48.5 -11.5t-29 -30t-14 -42t-3.5 -47.5v-288h-142v290q0 22 -1 45t-8.5 42
t-25 30.5t-51.5 11.5q-11 0 -27 -4.5t-31.5 -17t-26.5 -36t-11 -61.5v-300h-142v517z" />
    <glyph glyph-name="n" unicode="n" horiz-adv-x="593" 
d="M54 517h135v-72h3q27 45 70 65.5t88 20.5q57 0 93.5 -15.5t57.5 -43t29.5 -67t8.5 -87.5v-318h-142v292q0 64 -20 95.5t-71 31.5q-58 0 -84 -34.5t-26 -113.5v-271h-142v517z" />
    <glyph glyph-name="o" unicode="o" horiz-adv-x="611" 
d="M38 258q0 62 19 112.5t54 86t84 55t110 19.5t110.5 -19.5t84.5 -55t54 -86t19 -112.5t-19 -112t-54 -85.5t-84.5 -55t-110.5 -19.5t-110 19.5t-84 55t-54 85.5t-19 112zM180 258q0 -31 6 -60.5t20.5 -53t38.5 -37.5t60 -14t60.5 14t39 37.5t20.5 53t6 60.5t-6 61
t-20.5 53t-39 37.5t-60.5 14.5t-60 -14.5t-38.5 -37.5t-20.5 -53t-6 -61z" />
    <glyph glyph-name="p" unicode="p" horiz-adv-x="611" 
d="M54 517h135v-66h2q26 42 66 61t88 19q61 0 105 -23t73 -61t43 -88.5t14 -105.5q0 -52 -14 -100t-42.5 -85t-71 -59.5t-99.5 -22.5q-48 0 -88.5 20t-66.5 58h-2v-246h-142v699zM315 93q35 0 58.5 14t38 36.5t20.5 52t6 61.5q0 31 -6.5 61t-21.5 53.5t-38.5 38t-57.5 14.5
q-35 0 -58.5 -14.5t-38 -37.5t-20.5 -53.5t-6 -61.5q0 -32 6.5 -61.5t21 -52t38 -36.5t58.5 -14z" />
    <glyph glyph-name="q" unicode="q" horiz-adv-x="611" 
d="M558 -182h-142v247h-2q-25 -42 -70 -60.5t-93 -18.5q-36 0 -74.5 14t-70.5 45.5t-53 83t-21 126.5q0 53 14 103t43 88.5t72.5 61.5t102.5 23q48 0 90.5 -18.5t66.5 -61.5h2v66h135v-699zM174 258q0 -31 6 -60.5t20.5 -53t38 -37.5t58.5 -14q34 0 58 13.5t38.5 36t21 52
t6.5 61.5q0 30 -6.5 60t-20.5 54t-37.5 39t-56.5 15q-35 0 -59 -14t-39 -37.5t-21.5 -53.5t-6.5 -61z" />
    <glyph glyph-name="r" unicode="r" horiz-adv-x="389" 
d="M54 517h135v-96h2q10 24 27 44.5t39 35t47 22.5t52 8q14 0 31 -5v-132q-10 2 -24 3.5t-27 1.5q-39 0 -66 -13t-43.5 -35.5t-23.5 -53t-7 -64.5v-233h-142v517z" />
    <glyph glyph-name="s" unicode="s" horiz-adv-x="537" 
d="M164 168q0 -23 9.5 -39.5t24.5 -27t34.5 -15.5t40.5 -5q15 0 31.5 3.5t30 11t22.5 20t9 31.5q0 32 -42.5 48t-118.5 32q-31 7 -60.5 16.5t-52.5 25t-37 38.5t-14 58q0 49 19.5 81.5t51.5 51t72 26t82 7.5t81.5 -8t70.5 -27t51.5 -50.5t24.5 -79.5h-135q-3 41 -31 55.5
t-66 14.5q-12 0 -26 -1.5t-25.5 -6.5t-19.5 -14.5t-8 -25.5q0 -19 14 -31t36.5 -19.5t51.5 -13.5t59 -13q31 -7 60.5 -17t52.5 -26.5t37 -41t14 -60.5q0 -51 -20.5 -85.5t-53.5 -55.5t-75.5 -30t-86.5 -9q-45 0 -88 9t-76.5 30.5t-55 56.5t-23.5 86h135z" />
    <glyph glyph-name="t" unicode="t" horiz-adv-x="352" 
d="M234 517h104v-95h-104v-256q0 -36 12 -48t48 -12q12 0 23 1t21 3v-111q-18 -3 -40 -4t-43 -1q-33 0 -62.5 4.5t-52 18t-35.5 37.5t-13 63v305h-86v95h86v155h142v-155z" />
    <glyph glyph-name="u" unicode="u" horiz-adv-x="593" 
d="M539 0h-135v72h-3q-27 -45 -70 -65.5t-88 -20.5q-57 0 -93.5 15.5t-57.5 43t-29.5 67t-8.5 87.5v318h142v-292q0 -64 20 -95.5t71 -31.5q58 0 84 34.5t26 113.5v271h142v-517z" />
    <glyph glyph-name="v" unicode="v" horiz-adv-x="520" 
d="M340 0h-158l-177 517h149l109 -353h2l109 353h141z" />
    <glyph glyph-name="w" unicode="w" horiz-adv-x="814" 
d="M645 0h-146l-92 347h-2l-88 -347h-147l-164 517h150l95 -351h2l86 351h138l88 -350h2l95 350h146z" />
    <glyph glyph-name="x" unicode="x" horiz-adv-x="537" 
d="M186 272l-170 245h162l91 -135l90 135h157l-170 -242l191 -275h-162l-108 163l-108 -163h-159z" />
    <glyph glyph-name="y" unicode="y" horiz-adv-x="519" 
d="M309 -65q-23 -63 -64 -90t-114 -27q-22 0 -43.5 1.5t-43.5 3.5v117l41 -4t42 -1q18 2 30.5 11.5t18.5 23.5t6 30.5t-6 31.5l-182 485h152l117 -354h2l113 354h147z" />
    <glyph glyph-name="z" unicode="z" horiz-adv-x="519" 
d="M22 107l269 303h-249v107h436v-107l-269 -303h288v-107h-475v107z" />
    <glyph glyph-name="braceleft" unicode="{" horiz-adv-x="333" 
d="M333 619h-54q-18 0 -28.5 -7t-16.5 -17.5t-7.5 -23.5t-1.5 -25v-152q0 -37 -11.5 -59.5t-27 -35t-32.5 -17.5t-28 -6v-3q11 -1 28 -6.5t32.5 -18t27 -33.5t11.5 -52v-160q0 -12 1.5 -25t7.5 -23.5t16.5 -17.5t28.5 -7h54v-112h-127q-17 0 -38.5 8.5t-40 25t-31.5 42
t-13 59.5v195q0 23 -10 39t-24 25.5t-30 14t-28 4.5v87q12 0 28 4.5t30 15t24 27.5t10 43v188q0 34 13 59.5t31.5 42t40 25t38.5 8.5h127v-112z" />
    <glyph glyph-name="bar" unicode="|" horiz-adv-x="223" 
d="M58 786h107v-1000h-107v1000z" />
    <glyph glyph-name="braceright" unicode="}" horiz-adv-x="333" 
d="M0 -70h54q18 0 28.5 7t16.5 17.5t7.5 23.5t1.5 25v160q0 31 11 52t27 33.5t33 18t28 6.5v3q-11 1 -28 6t-33 17.5t-27 35t-11 59.5v152q0 12 -1.5 25t-7.5 23.5t-16.5 17.5t-28.5 7h-54v112h127q17 0 38.5 -8.5t40 -25t31.5 -42t13 -59.5v-188q0 -26 10 -43t24 -27.5
t30 -15t28 -4.5v-87q-12 0 -28 -4.5t-30 -14t-24 -25.5t-10 -39v-195q0 -34 -13 -59.5t-31.5 -42t-40 -25t-38.5 -8.5h-127v112z" />
    <glyph glyph-name="asciitilde" unicode="~" horiz-adv-x="600" 
d="M533 251q-11 -16 -23 -31.5t-27 -27.5t-33.5 -19.5t-41.5 -7.5q-28 0 -52.5 9.5t-49.5 23.5q-24 14 -52 24.5t-63 10.5q-17 0 -29.5 -6.5t-23 -16.5t-18 -23t-13.5 -26l-40 93q8 16 19 31.5t26.5 27.5t35 19.5t44.5 7.5q26 0 54 -9.5t57 -22.5l55 -24t47 -12
q15 0 27.5 6.5t23 16.5t19.5 23l18 26z" />
    <glyph glyph-name="Adieresis" unicode="&#xc4;" horiz-adv-x="685" 
d="M264 714h161l267 -714h-163l-54 159h-267l-56 -159h-159zM249 276h185l-90 262h-2zM378 911h135v-117h-135v117zM172 911h135v-117h-135v117z" />
    <glyph glyph-name="Aring" unicode="&#xc5;" horiz-adv-x="685" 
d="M264 714h161l267 -714h-163l-54 159h-267l-56 -159h-159zM249 276h185l-90 262h-2zM279 853q0 -29 17 -49.5t46 -20.5t46.5 20.5t17.5 49.5t-17.5 49.5t-46.5 20.5t-46 -20.5t-17 -49.5zM220 853q0 25 9.5 47.5t26 39t38.5 26t48 9.5q25 0 47.5 -9.5t39.5 -26t26.5 -39
t9.5 -47.5q0 -26 -9.5 -48t-26.5 -38.5t-39.5 -26t-47.5 -9.5q-26 0 -48 9.5t-38.5 26t-26 38.5t-9.5 48z" />
    <glyph glyph-name="Ccedilla" unicode="&#xc7;" horiz-adv-x="741" 
d="M545 474q-4 27 -18 49.5t-35 39.5t-47.5 26.5t-55.5 9.5q-53 0 -90 -20.5t-60 -55t-33.5 -78.5t-10.5 -91q0 -45 10.5 -87.5t33.5 -76.5t60 -54.5t90 -20.5q72 0 112.5 44t49.5 116h152q-6 -67 -31 -120.5t-65.5 -91t-95 -58.5t-119.5 -22l-26 -36h2q12 5 34 5
q17 0 33.5 -4t29.5 -12.5t21 -22t8 -31.5q0 -29 -10 -48.5t-26.5 -31t-37.5 -16t-43 -4.5q-24 0 -41 1.5t-30.5 4.5t-26 7t-26.5 9l21 48q16 -7 37 -12.5t47 -5.5q18 0 29 8t11 26q0 19 -11.5 25.5t-28.5 6.5q-22 0 -40 -7l-21 24l48 69q-73 7 -130 38.5t-96.5 81t-60 113
t-20.5 135.5q0 79 24 148t69 120t110 80t148 29q58 0 111 -17t94.5 -49.5t68.5 -80.5t34 -110h-152z" />
    <glyph glyph-name="Eacute" unicode="&#xc9;" horiz-adv-x="648" 
d="M69 714h534v-132h-377v-153h346v-122h-346v-175h385v-132h-542v714zM348 778h-99l96 142h157z" />
    <glyph glyph-name="Ntilde" unicode="&#xd1;" horiz-adv-x="741" 
d="M69 714h156l298 -479h2v479h147v-714h-157l-297 478h-2v-478h-147v714zM554 911q-5 -17 -12 -37t-19 -37t-31 -28.5t-50 -11.5q-23 0 -43 5.5t-39 11.5q-19 7 -36 12t-34 5q-20 0 -28.5 -11.5t-13.5 -30.5h-61q5 22 13 43.5t22 39t36 28.5t55 11q17 0 32.5 -5.5
l31.5 -11.5q16 -7 32.5 -12.5t33.5 -5.5q23 0 33 10.5t9 24.5h69z" />
    <glyph glyph-name="Odieresis" unicode="&#xd6;" horiz-adv-x="778" 
d="M38 354q0 79 24 148t69 120t110 80t148 29q82 0 147.5 -29t110.5 -80t69 -120t24 -148q0 -77 -24 -145t-69 -118t-110.5 -79t-147.5 -29q-83 0 -148 29t-110 79t-69 118t-24 145zM195 354q0 -45 10.5 -87.5t33.5 -76.5t60 -54.5t90 -20.5t90 20.5t60 54.5t33.5 76.5
t10.5 87.5q0 47 -10.5 91t-33.5 78.5t-60 55t-90 20.5t-90 -20.5t-60 -55t-33.5 -78.5t-10.5 -91zM425 911h135v-117h-135v117zM219 911h135v-117h-135v117z" />
    <glyph glyph-name="Udieresis" unicode="&#xdc;" horiz-adv-x="741" 
d="M675 270q0 -145 -81 -216t-224 -71q-145 0 -224.5 70.5t-79.5 216.5v444h157v-444q0 -29 5 -57t21 -50t44.5 -35t76.5 -13q84 0 116 37.5t32 117.5v444h157v-444zM406 911h135v-117h-135v117zM200 911h135v-117h-135v117z" />
    <glyph glyph-name="aacute" unicode="&#xe1;" horiz-adv-x="574" 
d="M376 253q-9 -8 -22.5 -12.5t-29 -7.5t-33 -5t-33.5 -5q-17 -3 -32 -8t-26.5 -13.5t-18.5 -22t-7 -32.5q0 -20 7 -32.5t19 -20t28 -10.5t33 -3q42 0 65 14t34 33.5t13.5 39.5t2.5 32v53zM48 358q3 49 25 82.5t56 53.5t76 28.5t86 8.5q39 0 79 -5.5t73 -21.5t54 -45t21 -75
v-269q0 -35 4 -67t14 -48h-144q-4 12 -6.5 24.5t-3.5 25.5q-34 -35 -80 -49.5t-94 -14.5q-37 0 -69 9.5t-56 28.5t-37.5 48t-13.5 69q0 44 15 72.5t40 45.5t56.5 25.5t64.5 13.5t63 8t53.5 9t37.5 17.5t14 33.5t-7.5 36t-20 21.5t-29 10t-35.5 2.5q-42 0 -66 -18t-28 -60
h-142zM311 581h-99l96 142h157z" />
    <glyph glyph-name="agrave" unicode="&#xe0;" horiz-adv-x="574" 
d="M376 253q-9 -8 -22.5 -12.5t-29 -7.5t-33 -5t-33.5 -5q-17 -3 -32 -8t-26.5 -13.5t-18.5 -22t-7 -32.5q0 -20 7 -32.5t19 -20t28 -10.5t33 -3q42 0 65 14t34 33.5t13.5 39.5t2.5 32v53zM48 358q3 49 25 82.5t56 53.5t76 28.5t86 8.5q39 0 79 -5.5t73 -21.5t54 -45t21 -75
v-269q0 -35 4 -67t14 -48h-144q-4 12 -6.5 24.5t-3.5 25.5q-34 -35 -80 -49.5t-94 -14.5q-37 0 -69 9.5t-56 28.5t-37.5 48t-13.5 69q0 44 15 72.5t40 45.5t56.5 25.5t64.5 13.5t63 8t53.5 9t37.5 17.5t14 33.5t-7.5 36t-20 21.5t-29 10t-35.5 2.5q-42 0 -66 -18t-28 -60
h-142zM110 723h157l96 -142h-99z" />
    <glyph glyph-name="acircumflex" unicode="&#xe2;" horiz-adv-x="574" 
d="M376 253q-9 -8 -22.5 -12.5t-29 -7.5t-33 -5t-33.5 -5q-17 -3 -32 -8t-26.5 -13.5t-18.5 -22t-7 -32.5q0 -20 7 -32.5t19 -20t28 -10.5t33 -3q42 0 65 14t34 33.5t13.5 39.5t2.5 32v53zM48 358q3 49 25 82.5t56 53.5t76 28.5t86 8.5q39 0 79 -5.5t73 -21.5t54 -45t21 -75
v-269q0 -35 4 -67t14 -48h-144q-4 12 -6.5 24.5t-3.5 25.5q-34 -35 -80 -49.5t-94 -14.5q-37 0 -69 9.5t-56 28.5t-37.5 48t-13.5 69q0 44 15 72.5t40 45.5t56.5 25.5t64.5 13.5t63 8t53.5 9t37.5 17.5t14 33.5t-7.5 36t-20 21.5t-29 10t-35.5 2.5q-42 0 -66 -18t-28 -60
h-142zM223 723h130l110 -142h-117l-62 81l-64 -81h-108z" />
    <glyph glyph-name="adieresis" unicode="&#xe4;" horiz-adv-x="574" 
d="M376 253q-9 -8 -22.5 -12.5t-29 -7.5t-33 -5t-33.5 -5q-17 -3 -32 -8t-26.5 -13.5t-18.5 -22t-7 -32.5q0 -20 7 -32.5t19 -20t28 -10.5t33 -3q42 0 65 14t34 33.5t13.5 39.5t2.5 32v53zM48 358q3 49 25 82.5t56 53.5t76 28.5t86 8.5q39 0 79 -5.5t73 -21.5t54 -45t21 -75
v-269q0 -35 4 -67t14 -48h-144q-4 12 -6.5 24.5t-3.5 25.5q-34 -35 -80 -49.5t-94 -14.5q-37 0 -69 9.5t-56 28.5t-37.5 48t-13.5 69q0 44 15 72.5t40 45.5t56.5 25.5t64.5 13.5t63 8t53.5 9t37.5 17.5t14 33.5t-7.5 36t-20 21.5t-29 10t-35.5 2.5q-42 0 -66 -18t-28 -60
h-142zM323 714h135v-117h-135v117zM117 714h135v-117h-135v117z" />
    <glyph glyph-name="atilde" unicode="&#xe3;" horiz-adv-x="574" 
d="M376 253q-9 -8 -22.5 -12.5t-29 -7.5t-33 -5t-33.5 -5q-17 -3 -32 -8t-26.5 -13.5t-18.5 -22t-7 -32.5q0 -20 7 -32.5t19 -20t28 -10.5t33 -3q42 0 65 14t34 33.5t13.5 39.5t2.5 32v53zM48 358q3 49 25 82.5t56 53.5t76 28.5t86 8.5q39 0 79 -5.5t73 -21.5t54 -45t21 -75
v-269q0 -35 4 -67t14 -48h-144q-4 12 -6.5 24.5t-3.5 25.5q-34 -35 -80 -49.5t-94 -14.5q-37 0 -69 9.5t-56 28.5t-37.5 48t-13.5 69q0 44 15 72.5t40 45.5t56.5 25.5t64.5 13.5t63 8t53.5 9t37.5 17.5t14 33.5t-7.5 36t-20 21.5t-29 10t-35.5 2.5q-42 0 -66 -18t-28 -60
h-142zM471 714q-5 -17 -12 -37t-19 -37t-31 -28.5t-50 -11.5q-23 0 -43 5.5t-39 11.5q-19 7 -36 12t-34 5q-20 0 -28.5 -11.5t-13.5 -30.5h-61q5 22 13 43.5t22 39t36 28.5t55 11q17 0 32.5 -5.5l31.5 -11.5q16 -7 32.5 -12.5t33.5 -5.5q23 0 33 10.5t9 24.5h69z" />
    <glyph glyph-name="aring" unicode="&#xe5;" horiz-adv-x="574" 
d="M376 253q-9 -8 -22.5 -12.5t-29 -7.5t-33 -5t-33.5 -5q-17 -3 -32 -8t-26.5 -13.5t-18.5 -22t-7 -32.5q0 -20 7 -32.5t19 -20t28 -10.5t33 -3q42 0 65 14t34 33.5t13.5 39.5t2.5 32v53zM48 358q3 49 25 82.5t56 53.5t76 28.5t86 8.5q39 0 79 -5.5t73 -21.5t54 -45t21 -75
v-269q0 -35 4 -67t14 -48h-144q-4 12 -6.5 24.5t-3.5 25.5q-34 -35 -80 -49.5t-94 -14.5q-37 0 -69 9.5t-56 28.5t-37.5 48t-13.5 69q0 44 15 72.5t40 45.5t56.5 25.5t64.5 13.5t63 8t53.5 9t37.5 17.5t14 33.5t-7.5 36t-20 21.5t-29 10t-35.5 2.5q-42 0 -66 -18t-28 -60
h-142zM224 656q0 -29 17 -49.5t46 -20.5t46.5 20.5t17.5 49.5t-17.5 49.5t-46.5 20.5t-46 -20.5t-17 -49.5zM165 656q0 25 9.5 47.5t26 39t38.5 26t48 9.5q25 0 47.5 -9.5t39.5 -26t26.5 -39t9.5 -47.5q0 -26 -9.5 -48t-26.5 -38.5t-39.5 -26t-47.5 -9.5q-26 0 -48 9.5
t-38.5 26t-26 38.5t-9.5 48z" />
    <glyph glyph-name="ccedilla" unicode="&#xe7;" horiz-adv-x="574" 
d="M406 335q-14 89 -105 89q-34 0 -57 -15.5t-37.5 -40t-20.5 -54.5t-6 -58t6 -57t19.5 -52.5t36.5 -38.5t56 -15q51 0 78.5 28.5t34.5 76.5h137q-13 -100 -75.5 -154t-161.5 -57l-28 -40h2q12 5 34 5q17 0 33.5 -4t29.5 -12.5t21 -22t8 -31.5q0 -29 -10 -48.5t-26.5 -31
t-37.5 -16t-43 -4.5q-24 0 -41 1.5t-30.5 4.5t-26 7t-26.5 9l21 48q16 -7 37 -12.5t47 -5.5q18 0 29 8t11 26q0 19 -11.5 25.5t-28.5 6.5q-22 0 -40 -7l-21 24l50 72q-51 5 -92.5 26.5t-71.5 56t-46 80t-16 99.5q0 60 17.5 111.5t51.5 89t83 58.5t112 21q46 0 88.5 -12
t76 -36.5t54.5 -61.5t24 -86h-139z" />
    <glyph glyph-name="eacute" unicode="&#xe9;" horiz-adv-x="574" 
d="M171 224q3 -69 35 -100t92 -31q43 0 74 21.5t38 45.5h125q-30 -93 -92 -133.5t-150 -40.5q-61 0 -110 20t-83 56t-52.5 86t-18.5 110q0 58 19 108t54 86.5t83.5 57.5t107.5 21q66 0 115 -25.5t80.5 -68.5t45.5 -98t10 -115h-373zM402 314q-10 54 -35.5 82t-77.5 28
q-35 0 -57 -11.5t-35.5 -28.5t-19 -36t-6.5 -34h231zM311 581h-99l96 142h157z" />
    <glyph glyph-name="egrave" unicode="&#xe8;" horiz-adv-x="574" 
d="M171 224q3 -69 35 -100t92 -31q43 0 74 21.5t38 45.5h125q-30 -93 -92 -133.5t-150 -40.5q-61 0 -110 20t-83 56t-52.5 86t-18.5 110q0 58 19 108t54 86.5t83.5 57.5t107.5 21q66 0 115 -25.5t80.5 -68.5t45.5 -98t10 -115h-373zM402 314q-10 54 -35.5 82t-77.5 28
q-35 0 -57 -11.5t-35.5 -28.5t-19 -36t-6.5 -34h231zM110 723h157l96 -142h-99z" />
    <glyph glyph-name="ecircumflex" unicode="&#xea;" horiz-adv-x="574" 
d="M171 224q3 -69 35 -100t92 -31q43 0 74 21.5t38 45.5h125q-30 -93 -92 -133.5t-150 -40.5q-61 0 -110 20t-83 56t-52.5 86t-18.5 110q0 58 19 108t54 86.5t83.5 57.5t107.5 21q66 0 115 -25.5t80.5 -68.5t45.5 -98t10 -115h-373zM402 314q-10 54 -35.5 82t-77.5 28
q-35 0 -57 -11.5t-35.5 -28.5t-19 -36t-6.5 -34h231zM223 723h130l110 -142h-117l-62 81l-64 -81h-108z" />
    <glyph glyph-name="edieresis" unicode="&#xeb;" horiz-adv-x="574" 
d="M171 224q3 -69 35 -100t92 -31q43 0 74 21.5t38 45.5h125q-30 -93 -92 -133.5t-150 -40.5q-61 0 -110 20t-83 56t-52.5 86t-18.5 110q0 58 19 108t54 86.5t83.5 57.5t107.5 21q66 0 115 -25.5t80.5 -68.5t45.5 -98t10 -115h-373zM402 314q-10 54 -35.5 82t-77.5 28
q-35 0 -57 -11.5t-35.5 -28.5t-19 -36t-6.5 -34h231zM323 714h135v-117h-135v117zM117 714h135v-117h-135v117z" />
    <glyph glyph-name="iacute" unicode="&#xed;" horiz-adv-x="258" 
d="M58 517h142v-517h-142v517zM153 581h-99l96 142h157z" />
    <glyph glyph-name="igrave" unicode="&#xec;" horiz-adv-x="258" 
d="M58 517h142v-517h-142v517zM-48 723h157l96 -142h-99z" />
    <glyph glyph-name="icircumflex" unicode="&#xee;" horiz-adv-x="258" 
d="M58 517h142v-517h-142v517zM65 723h130l110 -142h-117l-62 81l-64 -81h-108z" />
    <glyph glyph-name="idieresis" unicode="&#xef;" horiz-adv-x="258" 
d="M58 517h142v-517h-142v517zM165 714h135v-117h-135v117zM-41 714h135v-117h-135v117z" />
    <glyph glyph-name="ntilde" unicode="&#xf1;" horiz-adv-x="593" 
d="M54 517h135v-72h3q27 45 70 65.5t88 20.5q57 0 93.5 -15.5t57.5 -43t29.5 -67t8.5 -87.5v-318h-142v292q0 64 -20 95.5t-71 31.5q-58 0 -84 -34.5t-26 -113.5v-271h-142v517zM480 714q-5 -17 -12 -37t-19 -37t-31 -28.5t-50 -11.5q-23 0 -43 5.5t-39 11.5q-19 7 -36 12
t-34 5q-20 0 -28.5 -11.5t-13.5 -30.5h-61q5 22 13 43.5t22 39t36 28.5t55 11q17 0 32.5 -5.5l31.5 -11.5q16 -7 32.5 -12.5t33.5 -5.5q23 0 33 10.5t9 24.5h69z" />
    <glyph glyph-name="oacute" unicode="&#xf3;" horiz-adv-x="611" 
d="M38 258q0 62 19 112.5t54 86t84 55t110 19.5t110.5 -19.5t84.5 -55t54 -86t19 -112.5t-19 -112t-54 -85.5t-84.5 -55t-110.5 -19.5t-110 19.5t-84 55t-54 85.5t-19 112zM180 258q0 -31 6 -60.5t20.5 -53t38.5 -37.5t60 -14t60.5 14t39 37.5t20.5 53t6 60.5t-6 61
t-20.5 53t-39 37.5t-60.5 14.5t-60 -14.5t-38.5 -37.5t-20.5 -53t-6 -61zM329 581h-99l96 142h157z" />
    <glyph glyph-name="ograve" unicode="&#xf2;" horiz-adv-x="611" 
d="M38 258q0 62 19 112.5t54 86t84 55t110 19.5t110.5 -19.5t84.5 -55t54 -86t19 -112.5t-19 -112t-54 -85.5t-84.5 -55t-110.5 -19.5t-110 19.5t-84 55t-54 85.5t-19 112zM180 258q0 -31 6 -60.5t20.5 -53t38.5 -37.5t60 -14t60.5 14t39 37.5t20.5 53t6 60.5t-6 61
t-20.5 53t-39 37.5t-60.5 14.5t-60 -14.5t-38.5 -37.5t-20.5 -53t-6 -61zM128 723h157l96 -142h-99z" />
    <glyph glyph-name="ocircumflex" unicode="&#xf4;" horiz-adv-x="611" 
d="M38 258q0 62 19 112.5t54 86t84 55t110 19.5t110.5 -19.5t84.5 -55t54 -86t19 -112.5t-19 -112t-54 -85.5t-84.5 -55t-110.5 -19.5t-110 19.5t-84 55t-54 85.5t-19 112zM180 258q0 -31 6 -60.5t20.5 -53t38.5 -37.5t60 -14t60.5 14t39 37.5t20.5 53t6 60.5t-6 61
t-20.5 53t-39 37.5t-60.5 14.5t-60 -14.5t-38.5 -37.5t-20.5 -53t-6 -61zM241 723h130l110 -142h-117l-62 81l-64 -81h-108z" />
    <glyph glyph-name="odieresis" unicode="&#xf6;" horiz-adv-x="611" 
d="M38 258q0 62 19 112.5t54 86t84 55t110 19.5t110.5 -19.5t84.5 -55t54 -86t19 -112.5t-19 -112t-54 -85.5t-84.5 -55t-110.5 -19.5t-110 19.5t-84 55t-54 85.5t-19 112zM180 258q0 -31 6 -60.5t20.5 -53t38.5 -37.5t60 -14t60.5 14t39 37.5t20.5 53t6 60.5t-6 61
t-20.5 53t-39 37.5t-60.5 14.5t-60 -14.5t-38.5 -37.5t-20.5 -53t-6 -61zM341 714h135v-117h-135v117zM135 714h135v-117h-135v117z" />
    <glyph glyph-name="otilde" unicode="&#xf5;" horiz-adv-x="611" 
d="M38 258q0 62 19 112.5t54 86t84 55t110 19.5t110.5 -19.5t84.5 -55t54 -86t19 -112.5t-19 -112t-54 -85.5t-84.5 -55t-110.5 -19.5t-110 19.5t-84 55t-54 85.5t-19 112zM180 258q0 -31 6 -60.5t20.5 -53t38.5 -37.5t60 -14t60.5 14t39 37.5t20.5 53t6 60.5t-6 61
t-20.5 53t-39 37.5t-60.5 14.5t-60 -14.5t-38.5 -37.5t-20.5 -53t-6 -61zM489 714q-5 -17 -12 -37t-19 -37t-31 -28.5t-50 -11.5q-23 0 -43 5.5t-39 11.5q-19 7 -36 12t-34 5q-20 0 -28.5 -11.5t-13.5 -30.5h-61q5 22 13 43.5t22 39t36 28.5t55 11q17 0 32.5 -5.5
l31.5 -11.5q16 -7 32.5 -12.5t33.5 -5.5q23 0 33 10.5t9 24.5h69z" />
    <glyph glyph-name="uacute" unicode="&#xfa;" horiz-adv-x="593" 
d="M539 0h-135v72h-3q-27 -45 -70 -65.5t-88 -20.5q-57 0 -93.5 15.5t-57.5 43t-29.5 67t-8.5 87.5v318h142v-292q0 -64 20 -95.5t71 -31.5q58 0 84 34.5t26 113.5v271h142v-517zM320 581h-99l96 142h157z" />
    <glyph glyph-name="ugrave" unicode="&#xf9;" horiz-adv-x="593" 
d="M539 0h-135v72h-3q-27 -45 -70 -65.5t-88 -20.5q-57 0 -93.5 15.5t-57.5 43t-29.5 67t-8.5 87.5v318h142v-292q0 -64 20 -95.5t71 -31.5q58 0 84 34.5t26 113.5v271h142v-517zM119 723h157l96 -142h-99z" />
    <glyph glyph-name="ucircumflex" unicode="&#xfb;" horiz-adv-x="593" 
d="M539 0h-135v72h-3q-27 -45 -70 -65.5t-88 -20.5q-57 0 -93.5 15.5t-57.5 43t-29.5 67t-8.5 87.5v318h142v-292q0 -64 20 -95.5t71 -31.5q58 0 84 34.5t26 113.5v271h142v-517zM232 723h130l110 -142h-117l-62 81l-64 -81h-108z" />
    <glyph glyph-name="udieresis" unicode="&#xfc;" horiz-adv-x="593" 
d="M539 0h-135v72h-3q-27 -45 -70 -65.5t-88 -20.5q-57 0 -93.5 15.5t-57.5 43t-29.5 67t-8.5 87.5v318h142v-292q0 -64 20 -95.5t71 -31.5q58 0 84 34.5t26 113.5v271h142v-517zM332 714h135v-117h-135v117zM126 714h135v-117h-135v117z" />
    <glyph glyph-name="dagger" unicode="&#x2020;" horiz-adv-x="556" 
d="M210 400h-186v117h186v197h135v-197h187v-117h-187v-566h-135v566z" />
    <glyph glyph-name="degree" unicode="&#xb0;" horiz-adv-x="400" 
d="M52 566q0 31 11.5 58t31.5 47t47 31.5t58 11.5t58 -11.5t47 -31.5t31.5 -47t11.5 -58t-11.5 -58t-31.5 -47t-47 -31.5t-58 -11.5t-58 11.5t-47 31.5t-31.5 47t-11.5 58zM117 566q0 -18 7 -34t18.5 -28t26.5 -19t31 -7t31 7t26.5 19t18.5 28t7 34t-7 34t-18.5 28t-26.5 19
t-31 7t-31 -7t-26.5 -19t-18.5 -28t-7 -34z" />
    <glyph glyph-name="cent" unicode="&#xa2;" horiz-adv-x="556" 
d="M260 423q-27 -7 -45.5 -23t-30 -37.5t-16.5 -47t-5 -51.5q0 -27 4.5 -53.5t16 -50t30 -41t46.5 -26.5v330zM260 -14q-54 3 -98 24.5t-75.5 57t-48.5 82.5t-17 100q0 57 15.5 106t46 86.5t75 60.5t102.5 28v85h59v-85q41 0 80.5 -14t71 -39.5t51 -62t21.5 -81.5h-139
q-3 36 -27 61.5t-58 28.5v-331q18 3 34 13.5t27.5 25.5t18.5 33.5t7 37.5h139q-4 -48 -22.5 -86.5t-48.5 -66t-69.5 -44t-85.5 -20.5v-101h-59v101z" />
    <glyph glyph-name="sterling" unicode="&#xa3;" horiz-adv-x="556" 
d="M26 76q21 13 41.5 30.5t36 38.5t25.5 45.5t10 51.5q0 17 -5.5 33.5t-13.5 33.5h-99v85h64q-15 19 -30 56t-15 82q0 40 16.5 76t48.5 63.5t80 43.5t111 16q115 0 179 -64t64 -186h-135q-1 15 -4 37.5t-13.5 43.5t-32 36.5t-59.5 15.5q-45 0 -71.5 -25t-26.5 -67
q0 -12 1 -23t4.5 -25.5t12 -33.5t23.5 -46h133v-85h-105q5 -15 6.5 -30t1.5 -32q0 -47 -24.5 -80.5t-57.5 -59.5l2 -2q24 15 39 19t29 4q20 0 39.5 -3.5t39.5 -7.5q20 -5 39 -8.5t39 -3.5t40.5 7t47.5 36l60 -101q-36 -35 -77 -49.5t-79 -14.5t-63 5t-46 13q-22 8 -44 14
t-55 6q-27 0 -56.5 -7.5t-58.5 -30.5z" />
    <glyph glyph-name="section" unicode="&#xa7;" horiz-adv-x="556" 
d="M212 380q-6 3 -12.5 7t-14.5 3q-11 -1 -20.5 -7.5t-16 -16t-10.5 -21t-4 -22.5q0 -14 7.5 -27t24.5 -22l180 -98q5 -2 13 -4.5t17 -2.5q10 0 18.5 5.5t14.5 13.5t9.5 18t3.5 18q0 23 -13.5 38t-31.5 25zM370 538q0 37 -22.5 61.5t-62.5 24.5q-27 0 -51.5 -17t-24.5 -47
q0 -21 15 -37.5t39 -31.5t54.5 -28.5l61.5 -28.5t61.5 -32.5t53.5 -39t37.5 -49t14.5 -63.5q0 -51 -28 -90t-76 -56q29 -22 42 -52t13 -66q0 -42 -19 -73.5t-49.5 -52.5t-68.5 -31.5t-76 -10.5q-48 0 -89 11t-71.5 35t-47.5 60.5t-17 87.5h124q2 -45 27.5 -66t70.5 -21
q31 0 52.5 16.5t21.5 49.5q0 22 -14 39.5t-38 32.5t-54.5 29l-63.5 29t-64 33t-56 40.5t-40 51.5t-15 65q0 54 28 91t79 55q-21 23 -32 46t-11 55q0 42 18.5 74.5t48 54.5t67 33t75.5 11q44 0 82.5 -12.5t67 -37.5t45 -61t16.5 -82h-124z" />
    <glyph glyph-name="bullet" unicode="&#x2022;" horiz-adv-x="501" 
d="M72 357q0 37 14 69.5t38 56.5t56.5 38t69.5 14t69.5 -14t57 -38t38.5 -56.5t14 -69.5t-14 -69.5t-38.5 -57t-57 -38.5t-69.5 -14t-69.5 14t-56.5 38.5t-38 57t-14 69.5z" />
    <glyph glyph-name="paragraph" unicode="&#xb6;" horiz-adv-x="620" 
d="M221 357q-106 0 -162.5 47t-56.5 128q0 52 18 87t50 56t76 30t96 9h293v-880h-102v800h-110v-800h-102v523z" />
    <glyph glyph-name="germandbls" unicode="&#xdf;" horiz-adv-x="611" 
d="M56 491q0 42 8.5 84.5t34 77t71.5 56.5t121 22q45 0 86 -11.5t72.5 -35t50 -60t18.5 -85.5q0 -48 -25.5 -87t-67.5 -52v-2q33 -7 57 -23.5t40.5 -40.5t24.5 -53.5t8 -61.5q0 -47 -16 -89t-45 -74t-68.5 -51t-87.5 -19q-42 0 -82 6v116q10 -3 20 -4t21 -1q25 0 46.5 9.5
t37 26t24 38.5t8.5 47q0 54 -29.5 88t-92.5 34q-8 0 -17 -0.5t-18 -1.5v94q6 -1 11.5 -1.5t10.5 -0.5q20 0 39 5t33.5 16t23.5 28t9 40q0 31 -11 49t-26 27t-31.5 11t-27.5 2q-43 0 -66 -26.5t-23 -71.5v-516h-142v491z" />
    <glyph glyph-name="registered" unicode="&#xae;" horiz-adv-x="800" 
d="M16 358q0 85 31.5 154t84.5 117.5t122.5 75t145.5 26.5t145.5 -26.5t122.5 -75t84.5 -117.5t31.5 -154q0 -86 -31.5 -155t-84.5 -118t-122.5 -75.5t-145.5 -26.5t-145.5 26.5t-122.5 75.5t-84.5 118t-31.5 155zM118 358q0 -64 22 -118t60 -93.5t89.5 -61.5t110.5 -22
q58 0 109.5 22t89.5 61.5t60.5 93.5t22.5 118t-22.5 117.5t-60.5 92.5t-89.5 61t-109.5 22q-59 0 -110.5 -22t-89.5 -61t-60 -92.5t-22 -117.5zM251 568h158q79 0 121.5 -28t42.5 -96q0 -29 -8.5 -49.5t-23.5 -33.5t-35 -20t-43 -9l112 -183h-87l-102 179h-52v-179h-83v419z
M334 393h74q36 0 59 10t23 48q0 16 -8 26.5t-20.5 16t-28 7.5t-29.5 2h-70v-110z" />
    <glyph glyph-name="copyright" unicode="&#xa9;" horiz-adv-x="800" 
d="M16 357q0 85 31.5 154.5t84.5 118t122.5 75t145.5 26.5t145.5 -26.5t122.5 -75t84.5 -118t31.5 -154.5t-31.5 -154t-84.5 -118t-122.5 -75.5t-145.5 -26.5t-145.5 26.5t-122.5 75.5t-84.5 118t-31.5 154zM118 357q0 -64 22 -118t60 -93t89.5 -61t110.5 -22q58 0 109.5 22
t89.5 61t60.5 93t22.5 118t-22.5 118t-60.5 93t-89.5 61t-109.5 22q-59 0 -110.5 -22t-89.5 -61t-60 -93t-22 -118zM596 295q-6 -38 -22.5 -67t-41 -49.5t-55 -31t-63.5 -10.5q-49 0 -88.5 17t-67.5 47t-43.5 70.5t-15.5 87.5q0 48 14.5 89t42 71t67 47t89.5 17q34 0 65 -10
t55 -29.5t40 -48.5t21 -67h-78q-8 35 -36 55t-67 20q-57 0 -87 -39.5t-30 -102.5q0 -29 8.5 -55.5t24 -46t37.5 -31t49 -11.5q42 0 69 21t32 57h81z" />
    <glyph glyph-name="trademark" unicode="&#x2122;" horiz-adv-x="1000" 
d="M928 302h-96v292h-2l-106 -292h-69l-106 292h-2v-292h-96v412h136l103 -271l103 271h135v-412zM398 634h-117v-332h-102v332h-117v80h336v-80z" />
    <glyph glyph-name="acute" unicode="&#xb4;" horiz-adv-x="259" 
d="M153 581h-99l96 142h157z" />
    <glyph glyph-name="dieresis" unicode="&#xa8;" horiz-adv-x="259" 
d="M165 714h135v-117h-135v117zM-41 714h135v-117h-135v117z" />
    <glyph glyph-name="notequal" unicode="&#x2260;" horiz-adv-x="593" 
d="M271 99l-78 -152l-89 46l55 106h-122v102h173l61 117h-234v101h285l77 152l89 -45l-54 -107h122v-101h-174l-60 -117h234v-102h-285z" />
    <glyph glyph-name="AE" unicode="&#xc6;" horiz-adv-x="981" 
d="M280 276h172v306h-34zM330 714h606v-132h-332v-153h312v-122h-312v-175h340v-132h-492v159h-224l-72 -159h-167z" />
    <glyph glyph-name="Oslash" unicode="&#xd8;" horiz-adv-x="778" 
d="M120 105q-42 51 -62 114t-20 135q0 79 24 148t69 120t110 80t148 29q69 0 125.5 -20t99.5 -57l80 89l50 -44l-84 -93q39 -51 59.5 -114t20.5 -138q0 -77 -24 -145t-69 -118t-110.5 -79t-147.5 -29q-69 0 -125 20.5t-98 55.5l-83 -92l-49 43zM519 548q-23 23 -55 37
t-75 14q-53 0 -90 -20.5t-60 -55t-33.5 -78.5t-10.5 -91q0 -35 6.5 -69.5t21.5 -65.5zM261 164q23 -23 54.5 -36t73.5 -13q53 0 90 20.5t60 54.5t33.5 76.5t10.5 87.5q0 36 -6.5 70.5t-20.5 65.5z" />
    <glyph glyph-name="infinity" unicode="&#x221e;" horiz-adv-x="806" 
d="M761 262q0 -38 -11 -70.5t-32.5 -56.5t-52 -38t-69.5 -14q-30 0 -57 9.5t-51 25.5t-45 36t-40 41l-41.5 -41t-43 -35t-48.5 -24.5t-59 -9.5q-38 0 -69 13.5t-53 36.5t-33.5 55t-11.5 70q0 37 11.5 69t32.5 56t51.5 37.5t68.5 13.5q33 0 60 -10t50.5 -26.5t44 -38
l40.5 -43.5q19 22 40 43.5t45 38t51 27t58 10.5q38 0 68.5 -13.5t51.5 -37t32.5 -55.5t11.5 -69zM675 259q0 37 -21 61.5t-59 24.5q-20 0 -39 -9t-36.5 -22t-33 -28.5l-28.5 -28.5q13 -14 29 -28.5t33.5 -26.5t37 -19.5t40.5 -7.5q37 0 57 24.5t20 59.5zM348 258l-29 28
t-34 28t-37.5 21.5t-39.5 8.5q-36 0 -57 -25.5t-21 -59.5q0 -37 21.5 -60t59.5 -23q19 0 38.5 7.5t37.5 19.5t33.5 26.5t27.5 28.5z" />
    <glyph glyph-name="plusminus" unicode="&#xb1;" horiz-adv-x="600" 
d="M354 375h199v-107h-199v-131h-107v131h-199v107h199v131h107v-131zM48 107h505v-107h-505v107z" />
    <glyph glyph-name="lessequal" unicode="&#x2264;" horiz-adv-x="593" 
d="M37 272v103l519 179v-107l-381 -123l381 -117v-107zM37 -35v101h519v-101h-519z" />
    <glyph glyph-name="greaterequal" unicode="&#x2265;" horiz-adv-x="593" 
d="M37 100v107l380 117l-380 123v107l519 -179v-103zM37 -35v101h519v-101h-519z" />
    <glyph glyph-name="yen" unicode="&#xa5;" horiz-adv-x="556" 
d="M207 0v138h-157v95h157v46l-14 29h-143v95h95l-154 311h163l132 -311l129 311h162l-155 -311h95v-95h-143l-15 -29v-46h158v-95h-158v-138h-152z" />
    <glyph glyph-name="uni00B5" horiz-adv-x="593" 
d="M539 0h-135v72h-3q-14 -22 -31.5 -38t-35.5 -26.5t-34.5 -16t-28.5 -5.5q-30 0 -48 7t-27 17v-192h-142v699h142v-292q0 -64 20 -95.5t71 -31.5q58 0 84 34.5t26 113.5v271h142v-517z" />
    <glyph glyph-name="partialdiff" unicode="&#x2202;" horiz-adv-x="548" 
d="M507 359q0 -63 -10 -129t-38 -119.5t-77 -88t-127 -34.5q-49 0 -89 17.5t-68 48t-43.5 72t-15.5 89.5q0 47 15 87t43 69.5t67 46t87 16.5q43 0 79 -15t68 -43l1 30q1 37 -6.5 77.5t-26 75t-49 57t-75.5 22.5q-34 0 -63 -14t-55 -34l-57 66q41 32 79.5 48.5t91.5 16.5
q77 0 128.5 -32t83 -84t44.5 -116.5t13 -129.5zM396 287q-26 31 -56.5 49t-72.5 18q-32 0 -55 -12t-39 -32t-23.5 -46.5t-7.5 -54.5q0 -27 7 -52.5t21 -45t36.5 -31.5t52.5 -12q36 0 62.5 19t43.5 48.5t25 64t7 64.5z" />
    <glyph glyph-name="summation" unicode="&#x2211;" horiz-adv-x="643" 
d="M25 -214v86l306 419l-293 411v84h567v-98h-424l279 -396l-297 -409h455v-97h-593z" />
    <glyph glyph-name="product" unicode="&#x220f;" horiz-adv-x="737" 
d="M566 -214v902h-396v-902h-107v1000h611v-1000h-108z" />
    <glyph glyph-name="pi" unicode="&#x3c0;" horiz-adv-x="589" 
d="M566 13q-21 -10 -40.5 -15t-42.5 -5q-33 0 -53 10t-30.5 27.5t-13.5 41.5t-3 51v264h-211v-387h-101v387h-70v96h562v-96h-79v-249q0 -11 0.5 -21.5t4.5 -19t11.5 -13.5t21.5 -5q23 0 44 10v-76z" />
    <glyph glyph-name="integral" unicode="&#x222b;" horiz-adv-x="600" 
d="M474 713q0 -21 -15 -35t-36 -14q-22 0 -32 10t-15.5 22.5l-10 22.5t-13.5 10q-13 0 -16 -11t-3 -21q0 -33 1 -66.5t1 -66.5l1 -524q0 -39 -1.5 -83.5t-14.5 -82.5t-42 -63t-83 -25q-16 0 -34 4t-33 13t-25 22.5t-10 32.5q0 21 13 35t35 14q21 0 31.5 -10.5t16 -23
t9.5 -23t13 -10.5t13 5.5t5.5 13.5t1 16.5t-0.5 13.5q0 24 -1.5 48.5t-1.5 48.5v535q0 40 0.5 86.5t13 86t42 66t86.5 26.5q16 0 34.5 -4t34 -13t26 -23t10.5 -33z" />
    <glyph glyph-name="ordfeminine" unicode="&#xaa;" horiz-adv-x="344" 
d="M230 535q-11 -10 -31.5 -12.5t-35.5 -5.5q-21 -5 -36 -13t-15 -27q0 -22 15.5 -29.5t29.5 -7.5q25 0 39.5 7.5t22 18.5t9.5 24t2 25v20zM20 605q5 33 19.5 54t35.5 33t47 17t54 5q26 0 53 -3.5t48.5 -13t35 -27t13.5 -45.5v-166q0 -25 3 -44.5t9 -30.5h-101l-4 15.5
t-3 15.5q-22 -23 -51.5 -31.5t-56.5 -8.5q-47 0 -79.5 23.5t-32.5 76.5q0 28 10 45.5t26 28t36.5 15.5t41.5 8q22 3 42 4.5t34 5t22.5 10t8.5 18.5q0 26 -17.5 32.5t-42.5 6.5q-17 0 -32 -10.5t-17 -33.5h-102z" />
    <glyph glyph-name="ordmasculine" unicode="&#xba;" horiz-adv-x="367" 
d="M12 544q0 79 46.5 124.5t124.5 45.5t125 -45.5t47 -124.5t-47 -124t-125 -45t-124.5 45t-46.5 124zM119 544q0 -17 3.5 -33.5t11.5 -30t20 -22t29 -8.5t29.5 8.5t20.5 22t11.5 30t3.5 33.5t-3.5 34t-11.5 30.5t-20.5 22t-29.5 8.5t-29 -8.5t-20 -22t-11.5 -30.5t-3.5 -34
z" />
    <glyph glyph-name="uni2126" horiz-adv-x="593" 
d="M539 0h-135v72h-3q-14 -22 -31.5 -38t-35.5 -26.5t-34.5 -16t-28.5 -5.5q-30 0 -48 7t-27 17v-192h-142v699h142v-292q0 -64 20 -95.5t71 -31.5q58 0 84 34.5t26 113.5v271h142v-517z" />
    <glyph glyph-name="ae" unicode="&#xe6;" horiz-adv-x="907" 
d="M385 252q-10 -8 -24.5 -13t-30.5 -8t-33.5 -5.5t-33.5 -5.5t-31 -7.5t-26.5 -12.5t-18.5 -20.5t-7 -31.5q0 -20 7.5 -32.5t20 -20.5t28 -11t32.5 -3q19 0 40 6t38 19t28 33t11 49v64zM509 224q-1 -26 7 -51.5t24 -45.5t39 -33t53 -13q48 0 72 21.5t31 59.5h138
q-11 -41 -34 -74t-54 -55.5t-69.5 -34.5t-80.5 -12q-56 0 -108 20.5t-85 67.5q-18 -24 -42.5 -40.5t-52 -27t-57.5 -15.5t-59 -5q-37 0 -71.5 8t-61.5 26t-43.5 47.5t-16.5 72.5q0 44 15 72.5t39.5 46t55.5 26t63 13.5q45 7 78 11.5t54.5 11.5t31.5 18t10 31t-8 33t-21 20.5
t-29.5 10t-33.5 2.5q-42 0 -69.5 -17.5t-29.5 -62.5h-142q2 49 23.5 82.5t55 54t77 29.5t88.5 9q22 0 46.5 -3.5t47.5 -11.5t43 -21.5t34 -33.5q30 35 70 52.5t103 17.5q64 0 109.5 -25.5t74 -68t41.5 -98t13 -115.5h-369zM736 314q0 24 -7 46t-21.5 39t-35 27t-47.5 10
t-48.5 -10t-36.5 -27t-23 -39t-8 -46h227z" />
    <glyph glyph-name="oslash" unicode="&#xf8;" horiz-adv-x="611" 
d="M388 392q-30 32 -83 32q-36 0 -60 -14.5t-38.5 -37.5t-20.5 -53t-6 -61q0 -23 3.5 -45t11.5 -41zM220 127q14 -16 35 -25t50 -9q36 0 60.5 14t39 37.5t20.5 53t6 60.5q0 24 -4 47.5t-12 43.5zM104 69q-66 72 -66 189q0 62 19 112.5t54 86t84 55t110 19.5q95 0 163 -48
l53 61l37 -32l-54 -61q33 -35 51 -84t18 -109q0 -62 -19 -112t-54 -85.5t-84.5 -55t-110.5 -19.5q-97 0 -165 50l-59 -67l-37 32z" />
    <glyph glyph-name="questiondown" unicode="&#xbf;" horiz-adv-x="556" 
d="M522 51q-1 -54 -18.5 -99t-49 -78t-75.5 -51.5t-98 -18.5q-71 0 -118.5 19.5t-76.5 48.5t-41.5 62.5t-12.5 62.5q0 36 7 62.5t19 46t27 34t31 26.5l32 23.5t29.5 25t23.5 30t13 38.5v38h135v-45q-2 -33 -10.5 -57t-20.5 -42.5t-26.5 -32t-29.5 -25.5l-28 -22.5t-23 -23
t-16 -27.5t-6 -35q0 -46 22.5 -68t62.5 -22q26 0 45 10.5t31.5 28t18.5 41t6 50.5h147zM363 377h-157v154h157v-154z" />
    <glyph glyph-name="exclamdown" unicode="&#xa1;" horiz-adv-x="278" 
d="M218 377h-157v154h157v-154zM65 9l39 308h71l38 -308v-192h-148v192z" />
    <glyph glyph-name="logicalnot" unicode="&#xac;" horiz-adv-x="600" 
d="M552 99h-107v200h-397v107h504v-307z" />
    <glyph glyph-name="radical" unicode="&#x221a;" horiz-adv-x="531" 
d="M332 -214h-101l-153 319l-50 -23l-40 85l143 65l133 -281l170 835h109z" />
    <glyph glyph-name="florin" unicode="&#x192;" horiz-adv-x="556" 
d="M14 -60q19 -3 40 -3q38 -1 52 17.5t20 53.5l63 329h-92l18 95h91l24 127q9 47 24 80t39 53.5t59 29.5t84 9q43 0 75 -7l-18 -107q-11 5 -20.5 6t-19.5 1q-39 0 -54.5 -15t-21.5 -47l-25 -130h98l-16 -95h-100l-56 -310q-9 -50 -22 -87t-36 -61.5t-59.5 -36.5t-91.5 -12
q-19 0 -36 0.5t-38 2.5z" />
    <glyph glyph-name="approxequal" unicode="&#x2248;" horiz-adv-x="593" 
d="M565 444q-3 -32 -12.5 -62t-26.5 -53.5t-43 -37.5t-63 -14q-30 0 -66 11t-71 23.5l-66.5 23.5t-53.5 11q-29 0 -44.5 -21.5t-20.5 -47.5h-68q3 31 12 61t26.5 54t43 38.5t61.5 14.5q31 0 65 -10.5t67.5 -23t66.5 -23t62 -10.5t43.5 20t19.5 46h68zM563 241
q-3 -32 -12.5 -62t-26.5 -53.5t-43 -37.5t-63 -14q-30 0 -66 11t-71 23.5l-66.5 23.5t-53.5 11q-29 0 -45 -21.5t-20 -47.5h-68q3 31 12.5 61t26.5 54t42.5 38.5t61.5 14.5q32 0 65.5 -10.5t67 -23t66 -23t62.5 -10.5q29 0 44 20t20 46h67z" />
    <glyph glyph-name="uni2206" unicode="&#x2206;" horiz-adv-x="683" 
d="M9 0l272 712h110l284 -712h-666zM334 588l-180 -490h370z" />
    <glyph glyph-name="guillemotleft" unicode="&#xab;" horiz-adv-x="444" 
d="M245 205v135l157 123v-120l-90 -71l90 -72v-120zM42 205v135l157 123v-120l-90 -71l90 -72v-120z" />
    <glyph glyph-name="guillemotright" unicode="&#xbb;" horiz-adv-x="444" 
d="M402 340v-135l-157 -125v120l90 72l-90 71v120zM199 340v-135l-157 -125v120l90 72l-90 71v120z" />
    <glyph glyph-name="ellipsis" unicode="&#x2026;" horiz-adv-x="1000" 
d="M88 154h157v-154h-157v154zM421 154h157v-154h-157v154zM754 154h157v-154h-157v154z" />
    <glyph glyph-name="Agrave" unicode="&#xc0;" horiz-adv-x="685" 
d="M264 714h161l267 -714h-163l-54 159h-267l-56 -159h-159zM249 276h185l-90 262h-2zM165 920h157l96 -142h-99z" />
    <glyph glyph-name="Atilde" unicode="&#xc3;" horiz-adv-x="685" 
d="M264 714h161l267 -714h-163l-54 159h-267l-56 -159h-159zM249 276h185l-90 262h-2zM526 911q-5 -17 -12 -37t-19 -37t-31 -28.5t-50 -11.5q-23 0 -43 5.5t-39 11.5q-19 7 -36 12t-34 5q-20 0 -28.5 -11.5t-13.5 -30.5h-61q5 22 13 43.5t22 39t36 28.5t55 11
q17 0 32.5 -5.5l31.5 -11.5q16 -7 32.5 -12.5t33.5 -5.5q23 0 33 10.5t9 24.5h69z" />
    <glyph glyph-name="Otilde" unicode="&#xd5;" horiz-adv-x="778" 
d="M38 354q0 79 24 148t69 120t110 80t148 29q82 0 147.5 -29t110.5 -80t69 -120t24 -148q0 -77 -24 -145t-69 -118t-110.5 -79t-147.5 -29q-83 0 -148 29t-110 79t-69 118t-24 145zM195 354q0 -45 10.5 -87.5t33.5 -76.5t60 -54.5t90 -20.5t90 20.5t60 54.5t33.5 76.5
t10.5 87.5q0 47 -10.5 91t-33.5 78.5t-60 55t-90 20.5t-90 -20.5t-60 -55t-33.5 -78.5t-10.5 -91zM573 911q-5 -17 -12 -37t-19 -37t-31 -28.5t-50 -11.5q-23 0 -43 5.5t-39 11.5q-19 7 -36 12t-34 5q-20 0 -28.5 -11.5t-13.5 -30.5h-61q5 22 13 43.5t22 39t36 28.5t55 11
q17 0 32.5 -5.5l31.5 -11.5q16 -7 32.5 -12.5t33.5 -5.5q23 0 33 10.5t9 24.5h69z" />
    <glyph glyph-name="OE" unicode="&#x152;" horiz-adv-x="1093" 
d="M544 54h-2q-32 -35 -78 -53t-94 -18q-80 0 -141.5 30t-104 81t-64.5 118t-22 141t22.5 142.5t65.5 121t105 83.5t142 31q47 0 93 -15t76 -53h2v51h500v-132h-354v-153h324v-122h-324v-175h361v-132h-507v54zM538 448q0 34 -11.5 61.5t-32 47.5t-49 31t-61.5 11
q-52 0 -88 -21.5t-58.5 -56t-32.5 -78t-10 -88.5q0 -44 10 -87t32.5 -77t58 -55t85.5 -21q72 0 114.5 45t42.5 118v170z" />
    <glyph glyph-name="oe" unicode="&#x153;" horiz-adv-x="926" 
d="M755 314q-2 51 -30 80.5t-85 29.5q-54 0 -82 -32t-30 -78h227zM290 93q36 0 58 15.5t34.5 40t17 54t4.5 57.5q0 26 -4 55t-16 53t-33.5 40t-57.5 16q-33 0 -54.5 -15t-34.5 -39t-18.5 -54t-5.5 -60q0 -27 5 -55.5t18 -52.5t34 -39.5t53 -15.5zM528 224q0 -56 30.5 -93.5
t92.5 -37.5q39 0 64.5 18t39.5 53h138q-25 -85 -89.5 -131.5t-152.5 -46.5q-54 0 -105.5 20t-81.5 68q-14 -24 -34.5 -40.5t-45 -27t-51 -15.5t-52.5 -5q-60 0 -105.5 22.5t-76 60t-46 87.5t-15.5 105q0 57 18 106.5t51 85.5t80 57t105 21q51 0 100 -18.5t78 -63.5
q13 19 33 34.5t43.5 26t48.5 16t48 5.5q69 0 117 -25t78.5 -67t44.5 -98t14 -117h-369z" />
    <glyph glyph-name="endash" unicode="&#x2013;" 
d="M0 334h500v-122h-500v122z" />
    <glyph glyph-name="emdash" unicode="&#x2014;" horiz-adv-x="1000" 
d="M130 334h740v-122h-740v122z" />
    <glyph glyph-name="quotedblleft" unicode="&#x201c;" horiz-adv-x="463" 
d="M409 393h-142v153q-1 33 9.5 62t29.5 51t45.5 36.5t57.5 18.5v-66q-38 -13 -52 -38.5t-14 -62.5h66v-154zM196 393h-142v153q-1 33 9.5 62t29.5 51t45.5 36.5t57.5 18.5v-66q-38 -13 -52 -38.5t-14 -62.5h66v-154z" />
    <glyph glyph-name="quotedblright" unicode="&#x201d;" horiz-adv-x="463" 
d="M267 714h142v-153q1 -33 -9.5 -62t-29.5 -51t-45.5 -36.5t-57.5 -18.5v66q38 13 52 38.5t14 62.5h-66v154zM54 714h142v-153q1 -33 -9.5 -62t-29.5 -51t-45.5 -36.5t-57.5 -18.5v66q38 13 52 38.5t14 62.5h-66v154z" />
    <glyph glyph-name="quoteleft" unicode="&#x2018;" horiz-adv-x="278" 
d="M210 393h-142v153q-1 33 9.5 62t29.5 51t45.5 36.5t57.5 18.5v-66q-38 -13 -52 -38.5t-14 -62.5h66v-154z" />
    <glyph glyph-name="quoteright" unicode="&#x2019;" horiz-adv-x="278" 
d="M68 714h142v-153q1 -33 -9.5 -62t-29.5 -51t-45.5 -36.5t-57.5 -18.5v66q38 13 52 38.5t14 62.5h-66v154z" />
    <glyph glyph-name="divide" unicode="&#xf7;" horiz-adv-x="600" 
d="M48 306h505v-107h-505v107zM216 460q0 36 25.5 60.5t59.5 24.5q17 0 32 -6.5t26.5 -18t18.5 -27t7 -33.5q0 -16 -7 -31t-18 -27t-26.5 -19t-31.5 -7q-18 0 -33.5 6.5t-27 18t-18.5 27t-7 32.5zM216 45q0 18 7 33t18.5 26.5t27 18t32.5 6.5t32 -6.5t26.5 -18t18.5 -26.5
t7 -33q0 -16 -7 -31t-18 -27t-26.5 -19.5t-31.5 -7.5q-18 0 -33.5 7t-27 18.5t-18.5 27t-7 32.5z" />
    <glyph glyph-name="lozenge" unicode="&#x25ca;" horiz-adv-x="593" 
d="M343 -35h-95l-176 391l176 391h95l177 -391zM295 646l-119 -290l119 -291l122 291z" />
    <glyph glyph-name="ydieresis" unicode="&#xff;" horiz-adv-x="519" 
d="M309 -65q-23 -63 -64 -90t-114 -27q-22 0 -43.5 1.5t-43.5 3.5v117l41 -4t42 -1q18 2 30.5 11.5t18.5 23.5t6 30.5t-6 31.5l-182 485h152l117 -354h2l113 354h147zM295 714h135v-117h-135v117zM89 714h135v-117h-135v117z" />
    <glyph glyph-name="Ydieresis" unicode="&#x178;" horiz-adv-x="667" 
d="M254 278l-263 436h177l167 -282l166 282h175l-265 -440v-274h-157v278zM369 911h135v-117h-135v117zM163 911h135v-117h-135v117z" />
    <glyph glyph-name="fraction" unicode="&#x2044;" horiz-adv-x="167" 
d="M248 722h85l-412 -744h-87z" />
    <glyph glyph-name="Euro" unicode="&#x20ac;" horiz-adv-x="556" 
d="M515 547q-71 45 -131 45q-105 0 -140 -137h244l-31 -72h-224l-1 -42h213l-31 -72h-174q32 -158 148 -158q74 0 154 63l-1 -151q-67 -40 -154 -40q-127 0 -203 82q-70 73 -91 204h-77l31 72h40v26.5t1 15.5h-73l31 72h51q24 120 99 191q79 76 198 76q84 0 182 -50z" />
    <glyph glyph-name="guilsinglleft" unicode="&#x2039;" horiz-adv-x="241" 
d="M42 205v135l157 123v-120l-90 -71l90 -72v-120z" />
    <glyph glyph-name="guilsinglright" unicode="&#x203a;" horiz-adv-x="241" 
d="M199 340v-135l-157 -125v120l90 72l-90 71v120z" />
    <glyph glyph-name="fi" unicode="&#xfb01;" horiz-adv-x="611" 
d="M553 597h-142v117h142v-117zM411 517h142v-517h-142v517zM85 422h-85v95h85v40q0 69 43 113t130 44q19 0 38 -1.5t37 -2.5v-106q-26 3 -52 3q-29 0 -41.5 -13.5t-12.5 -45.5v-31h98v-95h-98v-422h-142v422z" />
    <glyph glyph-name="fl" unicode="&#xfb02;" horiz-adv-x="611" 
d="M411 714h142v-714h-142v714zM85 422h-85v95h85v40q0 69 43 113t130 44q19 0 38 -1.5t37 -2.5v-106q-26 3 -52 3q-29 0 -41.5 -13.5t-12.5 -45.5v-31h98v-95h-98v-422h-142v422z" />
    <glyph glyph-name="daggerdbl" unicode="&#x2021;" horiz-adv-x="556" 
d="M210 27h-186v117h186v256h-186v117h186v197h135v-197h187v-117h-187v-256h187v-117h-187v-193h-135v193z" />
    <glyph glyph-name="periodcentered" unicode="&#xb7;" horiz-adv-x="278" 
d="M55 287q0 36 25.5 60.5t59.5 24.5q17 0 32 -6.5t26.5 -18t18.5 -27t7 -33.5q0 -16 -7 -31t-18 -27t-26.5 -19t-31.5 -7q-18 0 -33.5 6.5t-27 18t-18.5 27t-7 32.5z" />
    <glyph glyph-name="quotesinglbase" unicode="&#x201a;" horiz-adv-x="278" 
d="M68 154h142v-153q1 -33 -9.5 -62t-29.5 -51t-45.5 -36.5t-57.5 -18.5v66q38 13 52 38.5t14 62.5h-66v154z" />
    <glyph glyph-name="quotedblbase" unicode="&#x201e;" horiz-adv-x="463" 
d="M267 154h142v-153q1 -33 -9.5 -62t-29.5 -51t-45.5 -36.5t-57.5 -18.5v66q38 13 52 38.5t14 62.5h-66v154zM54 154h142v-153q1 -33 -9.5 -62t-29.5 -51t-45.5 -36.5t-57.5 -18.5v66q38 13 52 38.5t14 62.5h-66v154z" />
    <glyph glyph-name="perthousand" unicode="&#x2030;" horiz-adv-x="1147" 
d="M530 172q0 -21 1.5 -43t7 -39t16.5 -28t31 -11q21 0 32.5 10t17 25.5t6 34.5t0.5 37q0 19 -1 38.5t-6 34.5t-16 24.5t-31 9.5q-21 0 -32.5 -9t-17.5 -23t-7 -30.5t-1 -30.5zM786 155q0 35 8.5 67t26 56t45.5 38t67 14q40 0 68 -13.5t45 -37t24.5 -55.5t7.5 -68
t-8.5 -67.5t-26 -54t-45 -35.5t-66.5 -13q-70 0 -108 47t-38 122zM876 172q0 -21 1.5 -43t7 -39t16.5 -28t31 -11q21 0 32.5 10t17 25.5t6 34.5t0.5 37q0 19 -1 38.5t-6 34.5t-16 24.5t-31 9.5q-21 0 -32.5 -9t-17.5 -23t-7 -30.5t-1 -30.5zM69 539q0 35 8.5 67t26 56
t45.5 38t67 14q40 0 68 -13.5t45 -37t24.5 -55.5t7.5 -68t-8.5 -67.5t-26 -54t-45 -35.5t-66.5 -13q-70 0 -108 47t-38 122zM159 556q0 -21 1.5 -43t7 -39t16.5 -28t31 -11q21 0 32.5 10t17 25.5t6 34.5t0.5 37q0 19 -1 38.5t-6 34.5t-16 24.5t-31 9.5q-21 0 -32.5 -9
t-17.5 -23t-7 -30.5t-1 -30.5zM564 722h85l-412 -744h-87zM440 155q0 35 8.5 67t26 56t45.5 38t67 14q40 0 68 -13.5t45 -37t24.5 -55.5t7.5 -68t-8.5 -67.5t-26 -54t-45 -35.5t-66.5 -13q-70 0 -108 47t-38 122z" />
    <glyph glyph-name="Acircumflex" unicode="&#xc2;" horiz-adv-x="685" 
d="M264 714h161l267 -714h-163l-54 159h-267l-56 -159h-159zM249 276h185l-90 262h-2zM278 920h130l110 -142h-117l-62 81l-64 -81h-108z" />
    <glyph glyph-name="Ecircumflex" unicode="&#xca;" horiz-adv-x="648" 
d="M69 714h534v-132h-377v-153h346v-122h-346v-175h385v-132h-542v714zM260 920h130l110 -142h-117l-62 81l-64 -81h-108z" />
    <glyph glyph-name="Aacute" unicode="&#xc1;" horiz-adv-x="685" 
d="M264 714h161l267 -714h-163l-54 159h-267l-56 -159h-159zM249 276h185l-90 262h-2zM366 778h-99l96 142h157z" />
    <glyph glyph-name="Edieresis" unicode="&#xcb;" horiz-adv-x="648" 
d="M69 714h534v-132h-377v-153h346v-122h-346v-175h385v-132h-542v714zM360 911h135v-117h-135v117zM154 911h135v-117h-135v117z" />
    <glyph glyph-name="Egrave" unicode="&#xc8;" horiz-adv-x="648" 
d="M69 714h534v-132h-377v-153h346v-122h-346v-175h385v-132h-542v714zM147 920h157l96 -142h-99z" />
    <glyph glyph-name="Iacute" unicode="&#xcd;" horiz-adv-x="295" 
d="M69 714h157v-714h-157v714zM171 778h-99l96 142h157z" />
    <glyph glyph-name="Icircumflex" unicode="&#xce;" horiz-adv-x="295" 
d="M69 714h157v-714h-157v714zM83 920h130l110 -142h-117l-62 81l-64 -81h-108z" />
    <glyph glyph-name="Idieresis" unicode="&#xcf;" horiz-adv-x="295" 
d="M69 714h157v-714h-157v714zM183 911h135v-117h-135v117zM-23 911h135v-117h-135v117z" />
    <glyph glyph-name="Igrave" unicode="&#xcc;" horiz-adv-x="295" 
d="M69 714h157v-714h-157v714zM-30 920h157l96 -142h-99z" />
    <glyph glyph-name="Oacute" unicode="&#xd3;" horiz-adv-x="778" 
d="M38 354q0 79 24 148t69 120t110 80t148 29q82 0 147.5 -29t110.5 -80t69 -120t24 -148q0 -77 -24 -145t-69 -118t-110.5 -79t-147.5 -29q-83 0 -148 29t-110 79t-69 118t-24 145zM195 354q0 -45 10.5 -87.5t33.5 -76.5t60 -54.5t90 -20.5t90 20.5t60 54.5t33.5 76.5
t10.5 87.5q0 47 -10.5 91t-33.5 78.5t-60 55t-90 20.5t-90 -20.5t-60 -55t-33.5 -78.5t-10.5 -91zM413 778h-99l96 142h157z" />
    <glyph glyph-name="Ocircumflex" unicode="&#xd4;" horiz-adv-x="778" 
d="M38 354q0 79 24 148t69 120t110 80t148 29q82 0 147.5 -29t110.5 -80t69 -120t24 -148q0 -77 -24 -145t-69 -118t-110.5 -79t-147.5 -29q-83 0 -148 29t-110 79t-69 118t-24 145zM195 354q0 -45 10.5 -87.5t33.5 -76.5t60 -54.5t90 -20.5t90 20.5t60 54.5t33.5 76.5
t10.5 87.5q0 47 -10.5 91t-33.5 78.5t-60 55t-90 20.5t-90 -20.5t-60 -55t-33.5 -78.5t-10.5 -91zM325 920h130l110 -142h-117l-62 81l-64 -81h-108z" />
    <glyph glyph-name="Ograve" unicode="&#xd2;" horiz-adv-x="778" 
d="M38 354q0 79 24 148t69 120t110 80t148 29q82 0 147.5 -29t110.5 -80t69 -120t24 -148q0 -77 -24 -145t-69 -118t-110.5 -79t-147.5 -29q-83 0 -148 29t-110 79t-69 118t-24 145zM195 354q0 -45 10.5 -87.5t33.5 -76.5t60 -54.5t90 -20.5t90 20.5t60 54.5t33.5 76.5
t10.5 87.5q0 47 -10.5 91t-33.5 78.5t-60 55t-90 20.5t-90 -20.5t-60 -55t-33.5 -78.5t-10.5 -91zM212 920h157l96 -142h-99z" />
    <glyph glyph-name="Uacute" unicode="&#xda;" horiz-adv-x="741" 
d="M675 270q0 -145 -81 -216t-224 -71q-145 0 -224.5 70.5t-79.5 216.5v444h157v-444q0 -29 5 -57t21 -50t44.5 -35t76.5 -13q84 0 116 37.5t32 117.5v444h157v-444zM394 778h-99l96 142h157z" />
    <glyph glyph-name="Ucircumflex" unicode="&#xdb;" horiz-adv-x="741" 
d="M675 270q0 -145 -81 -216t-224 -71q-145 0 -224.5 70.5t-79.5 216.5v444h157v-444q0 -29 5 -57t21 -50t44.5 -35t76.5 -13q84 0 116 37.5t32 117.5v444h157v-444zM306 920h130l110 -142h-117l-62 81l-64 -81h-108z" />
    <glyph glyph-name="Ugrave" unicode="&#xd9;" horiz-adv-x="741" 
d="M675 270q0 -145 -81 -216t-224 -71q-145 0 -224.5 70.5t-79.5 216.5v444h157v-444q0 -29 5 -57t21 -50t44.5 -35t76.5 -13q84 0 116 37.5t32 117.5v444h157v-444zM193 920h157l96 -142h-99z" />
    <glyph glyph-name="dotlessi" unicode="&#x131;" horiz-adv-x="258" 
d="M58 517h142v-517h-142v517z" />
    <glyph glyph-name="circumflex" unicode="&#x2c6;" horiz-adv-x="259" 
d="M65 723h130l110 -142h-117l-62 81l-64 -81h-108z" />
    <glyph glyph-name="tilde" unicode="&#x2dc;" horiz-adv-x="259" 
d="M313 714q-5 -17 -12 -37t-19 -37t-31 -28.5t-50 -11.5q-23 0 -43 5.5t-39 11.5q-19 7 -36 12t-34 5q-20 0 -28.5 -11.5t-13.5 -30.5h-61q5 22 13 43.5t22 39t36 28.5t55 11q17 0 32.5 -5.5l31.5 -11.5q16 -7 32.5 -12.5t33.5 -5.5q23 0 33 10.5t9 24.5h69z" />
    <glyph glyph-name="macron" unicode="&#xaf;" horiz-adv-x="259" 
d="M-57 691h373v-75h-373v75z" />
    <glyph glyph-name="breve" unicode="&#x2d8;" horiz-adv-x="259" 
d="M26 727q3 -20 13 -34t24.5 -22t30.5 -11.5t31 -3.5q45 0 73 16.5t37 54.5h63q-10 -78 -56.5 -112t-121.5 -34q-72 0 -112.5 37t-46.5 109h65z" />
    <glyph glyph-name="dotaccent" unicode="&#x2d9;" horiz-adv-x="259" 
d="M62 714h135v-117h-135v117z" />
    <glyph glyph-name="ring" unicode="&#x2da;" horiz-adv-x="259" 
d="M66 656q0 -29 17 -49.5t46 -20.5t46.5 20.5t17.5 49.5t-17.5 49.5t-46.5 20.5t-46 -20.5t-17 -49.5zM7 656q0 25 9.5 47.5t26 39t38.5 26t48 9.5q25 0 47.5 -9.5t39.5 -26t26.5 -39t9.5 -47.5q0 -26 -9.5 -48t-26.5 -38.5t-39.5 -26t-47.5 -9.5q-26 0 -48 9.5t-38.5 26
t-26 38.5t-9.5 48z" />
    <glyph glyph-name="cedilla" unicode="&#xb8;" horiz-adv-x="259" 
d="M33 -148q16 -7 37 -12.5t47 -5.5q18 0 29 8t11 26q0 19 -11.5 25.5t-28.5 6.5q-22 0 -40 -7l-21 24l59 85h49l-39 -55h2q12 5 34 5q17 0 33.5 -4t29.5 -12.5t21 -22t8 -31.5q0 -29 -10 -48.5t-26.5 -31t-37.5 -16t-43 -4.5q-24 0 -41 1.5t-30.5 4.5t-26 7t-26.5 9z" />
    <glyph glyph-name="hungarumlaut" unicode="&#x2dd;" horiz-adv-x="259" 
d="M43 581h-99l91 142h157zM250 581h-99l91 142h157z" />
    <glyph glyph-name="ogonek" unicode="&#x2db;" horiz-adv-x="259" 
d="M250 -150q-30 -38 -65 -53t-69 -15q-9 0 -27 2t-36 11t-31 27t-13 50q0 7 2 19t13 28.5t34 37.5t65 46h65q-48 -44 -65.5 -72.5t-17.5 -54.5q0 -15 12 -24.5t27 -9.5q16 0 30 5.5t28 24.5z" />
    <glyph glyph-name="caron" unicode="&#x2c7;" horiz-adv-x="259" 
d="M195 581h-130l-111 142h112l64 -81l65 81h110z" />
    <glyph glyph-name="Lslash" unicode="&#x141;" horiz-adv-x="593" 
d="M69 214l-80 -56v112l80 56v388h157v-278l211 148v-112l-211 -148v-192h348v-132h-505v214z" />
    <glyph glyph-name="Scaron" unicode="&#x160;" horiz-adv-x="649" 
d="M176 237q0 -36 13 -61t34.5 -40.5t50 -23t60.5 -7.5q21 0 45 3.5t45 13.5t35 27.5t14 44.5q0 29 -18.5 47t-48.5 30t-68 21t-77 20q-40 10 -78 24t-68 37.5t-48.5 57.5t-18.5 84q0 55 23.5 95.5t61.5 67.5t86 40t96 13q56 0 107.5 -12.5t91.5 -40.5t63.5 -71.5
t23.5 -105.5h-152q-2 32 -13.5 53t-30.5 33t-44 17t-53 5q-19 0 -38 -4t-34.5 -14t-25.5 -25.5t-10 -37.5q0 -21 8 -34t31.5 -24t65 -22l108.5 -28q20 -5 55.5 -15t70.5 -33t60.5 -61.5t25.5 -98.5q0 -49 -19 -91t-56.5 -72.5t-93 -48t-128.5 -17.5q-59 0 -114.5 15t-98 46
t-67.5 79t-24 114h152zM390 778h-130l-111 142h112l64 -81l65 81h110z" />
    <glyph glyph-name="Yacute" unicode="&#xdd;" horiz-adv-x="667" 
d="M254 278l-263 436h177l167 -282l166 282h175l-265 -440v-274h-157v278zM357 778h-99l96 142h157z" />
    <glyph glyph-name="Zcaron" unicode="&#x17d;" horiz-adv-x="648" 
d="M23 124l383 458h-353v132h562v-124l-383 -458h393v-132h-602v124zM390 778h-130l-111 142h112l64 -81l65 81h110z" />
    <glyph glyph-name="Eth" unicode="&#xd0;" horiz-adv-x="741" 
d="M69 311h-66v116h66v287h308q69 0 128.5 -22t103 -66t68 -110.5t24.5 -154.5q0 -78 -20 -144t-60.5 -114t-101 -75.5t-142.5 -27.5h-308v311zM226 427h160v-117h-160v-178h140q34 0 66 11t57 36.5t40 66.5t15 100q0 54 -10.5 97.5t-34.5 74.5t-63.5 47.5t-97.5 16.5h-112
v-155z" />
    <glyph glyph-name="Thorn" unicode="&#xde;" horiz-adv-x="667" 
d="M69 714h157v-97h165q67 0 114 -19.5t76.5 -51.5t43 -73.5t13.5 -84.5q0 -44 -13.5 -85t-43 -73t-76.5 -51.5t-114 -19.5h-165v-159h-157v714zM226 281h122q27 0 52 4t44 15.5t30.5 32.5t11.5 55t-11.5 55t-30.5 32.5t-44 15.5t-52 4h-122v-214z" />
    <glyph glyph-name="lslash" unicode="&#x142;" horiz-adv-x="258" 
d="M58 286l-67 -53v102l67 53v326h142v-214l67 53v-102l-67 -53v-398h-142v286z" />
    <glyph glyph-name="scaron" unicode="&#x161;" horiz-adv-x="537" 
d="M164 168q0 -23 9.5 -39.5t24.5 -27t34.5 -15.5t40.5 -5q15 0 31.5 3.5t30 11t22.5 20t9 31.5q0 32 -42.5 48t-118.5 32q-31 7 -60.5 16.5t-52.5 25t-37 38.5t-14 58q0 49 19.5 81.5t51.5 51t72 26t82 7.5t81.5 -8t70.5 -27t51.5 -50.5t24.5 -79.5h-135q-3 41 -31 55.5
t-66 14.5q-12 0 -26 -1.5t-25.5 -6.5t-19.5 -14.5t-8 -25.5q0 -19 14 -31t36.5 -19.5t51.5 -13.5t59 -13q31 -7 60.5 -17t52.5 -26.5t37 -41t14 -60.5q0 -51 -20.5 -85.5t-53.5 -55.5t-75.5 -30t-86.5 -9q-45 0 -88 9t-76.5 30.5t-55 56.5t-23.5 86h135zM334 581h-130
l-111 142h112l64 -81l65 81h110z" />
    <glyph glyph-name="yacute" unicode="&#xfd;" horiz-adv-x="519" 
d="M309 -65q-23 -63 -64 -90t-114 -27q-22 0 -43.5 1.5t-43.5 3.5v117l41 -4t42 -1q18 2 30.5 11.5t18.5 23.5t6 30.5t-6 31.5l-182 485h152l117 -354h2l113 354h147zM283 581h-99l96 142h157z" />
    <glyph glyph-name="zcaron" unicode="&#x17e;" horiz-adv-x="519" 
d="M22 107l269 303h-249v107h436v-107l-269 -303h288v-107h-475v107zM325 581h-130l-111 142h112l64 -81l65 81h110z" />
    <glyph glyph-name="eth" unicode="&#xf0;" horiz-adv-x="611" 
d="M305 93q36 0 60.5 14t39 37.5t20.5 53t6 60.5q0 28 -7 55t-22 49t-39.5 35.5t-58.5 13.5q-35 0 -58.5 -13.5t-38 -35.5t-21 -49.5t-6.5 -54.5q0 -31 6 -60.5t20.5 -53t38.5 -37.5t60 -14zM240 647q-22 16 -43 28t-41 22l92 69q54 -30 99 -66l123 62l52 -59l-114 -57
q81 -78 124 -167t41 -206q0 -62 -19 -114.5t-54 -90.5t-84.5 -60t-110.5 -22t-110 19.5t-84 54t-54 82.5t-19 105q0 46 13.5 92.5t41.5 83.5t71.5 60t103.5 23q29 0 64.5 -8t70.5 -32h2q-18 42 -47.5 73.5t-54.5 53.5l-112 -56l-58 56z" />
    <glyph glyph-name="thorn" unicode="&#xfe;" horiz-adv-x="611" 
d="M54 714h142v-263h2q26 42 65 61t82 19q61 0 105 -23t73 -61t43 -88.5t14 -105.5q0 -52 -14 -100t-42.5 -85t-71 -59.5t-99.5 -22.5q-48 0 -88.5 20t-66.5 58h-2v-246h-142v896zM438 257q0 31 -6.5 61t-21.5 53.5t-38.5 38t-57.5 14.5q-35 0 -58.5 -14.5t-38 -37.5
t-20.5 -53.5t-6 -61.5q0 -32 6.5 -61.5t21 -52t38 -36.5t58.5 -14t58.5 14t38 36.5t20.5 52t6 61.5z" />
    <glyph glyph-name="brokenbar" unicode="&#xa6;" horiz-adv-x="223" 
d="M58 161h107v-250h-107v250zM165 411h-107v250h107v-250z" />
    <glyph glyph-name="currency" unicode="&#xa4;" horiz-adv-x="556" 
d="M118 349q0 -35 12.5 -65t34.5 -52.5t51 -35.5t62 -13q34 0 63.5 13.5t51 36.5t33.5 53t12 63t-12 63t-33.5 53t-51 36.5t-63.5 13.5q-33 0 -62.5 -13t-51 -35.5t-34 -53t-12.5 -64.5zM80 203q-25 29 -37.5 66.5t-12.5 79.5t12 80.5t38 67.5l-56 54l51 52l55 -55
q29 23 68.5 36t79.5 13q42 0 81 -13t69 -36l54 55l50 -52l-54 -54q24 -27 36 -66.5t12 -81.5t-12 -79.5t-36 -66.5l54 -57l-50 -51l-54 57q-29 -25 -68 -38t-82 -13q-42 0 -80.5 12.5t-67.5 38.5l-55 -57l-51 51z" />
    <glyph glyph-name="onesuperior" unicode="&#xb9;" horiz-adv-x="392" 
d="M289 273h-102v274h-110v75q24 -1 45.5 3t39 13.5t29 26t14.5 40.5h84v-432z" />
    <glyph glyph-name="twosuperior" unicode="&#xb2;" horiz-adv-x="392" 
d="M28 540q-1 77 44 125.5t137 48.5q31 0 59.5 -8.5t50 -25.5t34 -42.5t12.5 -58.5q0 -47 -23.5 -76.5t-57.5 -51.5t-70 -42.5t-62 -55.5h209v-80h-334q0 40 11 68.5t30 51t44.5 40.5t54.5 36l31.5 20t31 22t24 26.5t9.5 34.5q0 26 -16.5 44t-44.5 18q-21 0 -35 -9
t-22.5 -23t-12 -30.5t-2.5 -31.5h-102z" />
    <glyph glyph-name="threesuperior" unicode="&#xb3;" horiz-adv-x="392" 
d="M164 534q14 0 30.5 0.5t31 5t24 14t9.5 27.5q0 25 -19 39t-43 14q-32 0 -50 -21t-17 -51h-96q2 70 44.5 111t117.5 41q30 0 58.5 -7.5t51 -23t36 -38.5t13.5 -54q0 -30 -16.5 -54t-49.5 -32v-2q38 -7 59.5 -33t21.5 -61q0 -36 -14 -63t-37.5 -45.5t-55 -27.5t-66.5 -9
q-81 0 -129 41t-46 119h96q2 -32 20.5 -56t56.5 -24q30 0 51.5 17.5t21.5 45.5q0 21 -10 33t-25.5 17t-34 6t-34.5 1v70z" />
    <glyph glyph-name="onequarter" unicode="&#xbc;" horiz-adv-x="892" 
d="M566 722h85l-412 -744h-87zM236 273h-102v274h-110v75q24 -1 45.5 3t39 13.5t29 26t14.5 40.5h84v-432zM689 89h-192v93l188 238h100v-251h57v-80h-57v-89h-96v89zM689 313h-2l-114 -144h116v144z" />
    <glyph glyph-name="onehalf" unicode="&#xbd;" horiz-adv-x="889" 
d="M566 722h85l-412 -744h-87zM236 273h-102v274h-110v75q24 -1 45.5 3t39 13.5t29 26t14.5 40.5h84v-432zM509 267q-1 77 44 125.5t137 48.5q31 0 59.5 -8.5t50 -25.5t34 -42.5t12.5 -58.5q0 -47 -23.5 -76.5t-57.5 -51.5t-70 -42.5t-62 -55.5h209v-80h-334q0 40 11 68.5
t30 51t44.5 40.5t54.5 36l31.5 20t31 22t24 26.5t9.5 34.5q0 26 -16.5 44t-44.5 18q-21 0 -35 -9t-22.5 -23t-12 -30.5t-2.5 -31.5h-102z" />
    <glyph glyph-name="threequarters" unicode="&#xbe;" horiz-adv-x="889" 
d="M653 722h85l-412 -744h-87zM181 534q14 0 30.5 0.5t31 5t24 14t9.5 27.5q0 25 -19 39t-43 14q-32 0 -50 -21t-17 -51h-96q2 70 44.5 111t117.5 41q30 0 58.5 -7.5t51 -23t36 -38.5t13.5 -54q0 -30 -16.5 -54t-49.5 -32v-2q38 -7 59.5 -33t21.5 -61q0 -36 -14 -63
t-37.5 -45.5t-55 -27.5t-66.5 -9q-81 0 -129 41t-46 119h96q2 -32 20.5 -56t56.5 -24q30 0 51.5 17.5t21.5 45.5q0 21 -10 33t-25.5 17t-34 6t-34.5 1v70zM709 89h-192v93l188 238h100v-251h57v-80h-57v-89h-96v89zM709 313h-2l-114 -144h116v144z" />
    <glyph glyph-name="minus" unicode="&#x2212;" horiz-adv-x="600" 
d="M48 306h505v-107h-505v107z" />
    <glyph glyph-name="multiply" unicode="&#xd7;" horiz-adv-x="600" 
d="M64 93l161 160l-159 160l76 76l159 -160l160 160l76 -76l-161 -160l161 -160l-76 -76l-160 161l-161 -161z" />
    <glyph glyph-name="estimated" unicode="&#x212e;" horiz-adv-x="750" 
d="M193 326v-228q72 -74 181 -74q78 0 135.5 35.5t105.5 114.5l44 -26q-29 -45 -58.5 -77t-63.5 -52.5t-74 -30t-89 -9.5q-74 0 -133.5 27t-101.5 74t-65 110.5t-23 135.5q0 73 23 136t65 109.5t101.5 73t133.5 26.5q72 0 131.5 -25.5t102 -71.5t66 -109t24.5 -139h-505z
M556 371v181q-78 75 -183 75q-107 0 -180 -75v-181h363z" />
    <glyph glyph-name="afii61289" horiz-adv-x="508" 
d="M445 37q-33 -25 -70.5 -38.5t-75.5 -13.5q-69 0 -107 35.5t-38 98.5v111l-74 -69q-9 14 -14 21l-12 17l99 87v272q0 41 12 75t33.5 58.5t50 38t61.5 13.5q60 0 94 -36.5t34 -99.5q0 -78 -48.5 -157t-147.5 -170v-143q0 -28 7.5 -46.5t20 -29.5t28 -15.5t31.5 -4.5
q43 0 90 33zM374 599q0 42 -18 69t-46 27q-29 0 -48.5 -29t-19.5 -86v-247q69 75 100.5 143t31.5 123z" />
    <glyph glyph-name="uni25CC" unicode="&#x25cc;" horiz-adv-x="911" 
d="M484 671q0 -12 -8 -20t-20 -8q-11 0 -19.5 8t-8.5 20q0 11 8.5 19.5t19.5 8.5q12 0 20 -8.5t8 -19.5zM611 644q0 -11 -8 -19.5t-20 -8.5q-11 0 -19.5 8.5t-8.5 19.5q0 12 8.5 20t19.5 8q12 0 20 -8t8 -20zM716 573q0 -11 -8 -19.5t-20 -8.5t-20 8.5t-8 19.5q0 12 8 20.5
t20 8.5t20 -8.5t8 -20.5zM786 467q0 -11 -8 -19.5t-20 -8.5q-11 0 -19.5 8.5t-8.5 19.5q0 12 8.5 20t19.5 8q12 0 20 -8t8 -20zM811 344q0 -12 -8 -20t-20 -8q-11 0 -19.5 8t-8.5 20q0 11 8.5 19.5t19.5 8.5q12 0 20 -8.5t8 -19.5zM786 217q0 -12 -8 -20t-20 -8
q-11 0 -19.5 8t-8.5 20q0 11 8.5 19.5t19.5 8.5q12 0 20 -8.5t8 -19.5zM716 112q0 -11 -8 -19.5t-20 -8.5t-20 8.5t-8 19.5t8 19.5t20 8.5t20 -8.5t8 -19.5zM608 40q0 -11 -8 -19.5t-20 -8.5q-11 0 -19.5 8.5t-8.5 19.5q0 12 8.5 20t19.5 8q12 0 20 -8t8 -20zM484 17
q0 -12 -8 -20.5t-20 -8.5q-11 0 -19.5 8.5t-8.5 20.5q0 11 8.5 19.5t19.5 8.5q12 0 20 -8.5t8 -19.5zM358 42q0 -12 -8.5 -20t-19.5 -8q-12 0 -20 8t-8 20q0 11 8 19.5t20 8.5q11 0 19.5 -8.5t8.5 -19.5zM253 112q0 -11 -8 -19.5t-20 -8.5t-20 8.5t-8 19.5t8 19.5t20 8.5
t20 -8.5t8 -19.5zM181 220q0 -12 -8.5 -20t-19.5 -8q-12 0 -20 8t-8 20q0 11 8 19.5t20 8.5q11 0 19.5 -8.5t8.5 -19.5zM156 344q0 -12 -8 -20t-20 -8t-20 8t-8 20q0 11 8 19.5t20 8.5t20 -8.5t8 -19.5zM182 471q0 -12 -8 -20t-20 -8q-11 0 -19.5 8t-8.5 20q0 11 8.5 19.5
t19.5 8.5q12 0 20 -8.5t8 -19.5zM253 573q0 -11 -8 -19.5t-20 -8.5t-20 8.5t-8 19.5q0 12 8 20.5t20 8.5t20 -8.5t8 -20.5zM361 646q0 -12 -8.5 -20t-19.5 -8q-12 0 -20 8t-8 20q0 11 8 19.5t20 8.5q11 0 19.5 -8.5t8.5 -19.5z" />
    <glyph glyph-name="uni200C" unicode="&#x200c;" horiz-adv-x="33" 
d="M33 2h-33v1319h33v-1319z" />
    <glyph glyph-name="uni200D" unicode="&#x200d;" horiz-adv-x="33" 
d="M78 1227l-45 46v-1273h-33v1276l-49 -49l-17 18l63 63l-63 64l17 17l64 -63l63 63l18 -17l-63 -63v-1l63 -63z" />
    <glyph glyph-name="uni200E" unicode="&#x200e;" horiz-adv-x="32" 
d="M109 1227v61h-77v-1286h-32v1319h109v68l81 -81z" />
    <glyph glyph-name="uni200F" unicode="&#x200f;" horiz-adv-x="33" 
d="M33 1321v-1319h-33v1286h-77v-61l-81 81l81 81v-68h110z" />
    <glyph glyph-name="uni202A" unicode="&#x202a;" 
 />
    <glyph glyph-name="uni202B" unicode="&#x202b;" 
 />
    <glyph glyph-name="uni202C" unicode="&#x202c;" 
 />
    <glyph glyph-name="uni202D" unicode="&#x202d;" 
 />
    <glyph glyph-name="uni202E" unicode="&#x202e;" 
 />
    <glyph glyph-name="uni2002" unicode="&#x2002;" 
 />
    <glyph glyph-name="uni2003" unicode="&#x2003;" horiz-adv-x="1000" 
 />
    <glyph glyph-name="uni2009" unicode="&#x2009;" horiz-adv-x="100" 
 />
    <glyph glyph-name="uni200A" unicode="&#x200a;" horiz-adv-x="20" 
 />
    <glyph glyph-name="uni0647" unicode="&#x647;" horiz-adv-x="441" 
d="M196 293q-20 0 -33.5 -9.5t-22 -24.5t-12.5 -34t-4 -37q0 -35 16 -56.5t58 -21.5q34 0 52 19.5t18 54.5q0 45 -18.5 77t-53.5 32zM0 180q0 40 13.5 81.5t39 74.5t61.5 54t82 21q42 0 77.5 -16t61.5 -45.5t41 -72.5t15 -97q0 -35 -11 -68t-35 -58.5t-61.5 -41.5t-90.5 -16
q-43 0 -78.5 11t-61 33.5t-39.5 57.5t-14 82z" />
    <glyph glyph-name="uni06BE" unicode="&#x6be;" horiz-adv-x="669" 
d="M134 115q-14 39 -14 77q0 48 17 90t48 68q-16 -1 -33 -1.5t-34 -2.5v91q29 4 57.5 6t56.5 2q187 0 287 -90t100 -262v-93h-495q-12 0 -15 -15.5t-4 -38.5h-82q-11 29 -17 54.5t-6 38.5q0 26 10 41t25 23t33.5 10t36.5 2h29zM493 115q0 91 -33.5 141.5t-99.5 72.5
q23 -29 33 -63.5t10 -58.5q0 -30 -4.5 -52.5t-11.5 -39.5h106zM263 120q11 0 18.5 9.5t11.5 23t5.5 28.5t1.5 26q0 15 -2 31t-7 29.5t-12.5 22.5t-19.5 9q-10 0 -17.5 -8.5t-12.5 -22t-7.5 -30.5t-2.5 -33q0 -12 2 -27t7 -28t13.5 -21.5t21.5 -8.5z" />
    <glyph glyph-name="uniFBA5" horiz-adv-x="439" 
d="M127 260q0 -12 3 -25.5t11 -24t21.5 -17.5t34.5 -7q13 0 26.5 1t27.5 6v138h-50q-37 0 -55.5 -19.5t-18.5 -51.5zM406 0q-24 0 -46.5 3.5t-41.5 12.5t-33.5 24.5t-22.5 40.5q-17 -4 -35 -6.5t-36 -2.5q-25 0 -58 7.5t-62.5 27.5t-50 55.5t-20.5 91.5q0 55 19.5 93t50 62
t68 34.5t73.5 10.5h170v-299q0 -23 6 -31.5t28 -8.5h24q8 0 15 -1.5t12.5 -7t8.5 -16.5t3 -30q0 -34 -9.5 -47t-29.5 -13h-33zM315 558h-195v70h40q-5 7 -7 20t-2 21q0 23 7.5 40.5t20.5 29t29.5 17.5t33.5 6q16 0 29 -3t23 -7v-66q-26 6 -37 6q-19 0 -27.5 -9t-8.5 -22
q0 -14 8.5 -23.5t32.5 -9.5h53v-70z" />
    <glyph glyph-name="uni06C2" unicode="&#x6c2;" horiz-adv-x="441" 
d="M196 293q-20 0 -33.5 -9.5t-22 -24.5t-12.5 -34t-4 -37q0 -35 16 -56.5t58 -21.5q34 0 52 19.5t18 54.5q0 45 -18.5 77t-53.5 32zM0 180q0 40 13.5 81.5t39 74.5t61.5 54t82 21q42 0 77.5 -16t61.5 -45.5t41 -72.5t15 -97q0 -35 -11 -68t-35 -58.5t-61.5 -41.5t-90.5 -16
q-43 0 -78.5 11t-61 33.5t-39.5 57.5t-14 82zM283 502h-195v70h40q-5 7 -7 20t-2 21q0 23 7.5 40.5t20.5 29t29.5 17.5t33.5 6q16 0 29 -3t23 -7v-66q-26 6 -37 6q-19 0 -27.5 -9t-8.5 -22q0 -14 8.5 -23.5t32.5 -9.5h53v-70z" />
    <glyph glyph-name="uni06C3" unicode="&#x6c3;" horiz-adv-x="441" 
d="M196 293q-20 0 -33.5 -9.5t-22 -24.5t-12.5 -34t-4 -37q0 -35 16 -56.5t58 -21.5q34 0 52 19.5t18 54.5q0 45 -18.5 77t-53.5 32zM0 180q0 40 13.5 81.5t39 74.5t61.5 54t82 21q42 0 77.5 -16t61.5 -45.5t41 -72.5t15 -97q0 -35 -11 -68t-35 -58.5t-61.5 -41.5t-90.5 -16
q-43 0 -78.5 11t-61 33.5t-39.5 57.5t-14 82zM48 571q0 29 21 50t50 21t50 -21t21 -50t-21 -50t-50 -21t-50 21t-21 50zM211 571q0 29 21 50t50 21t50 -21t21 -50t-21 -50t-50 -21t-50 21t-21 50z" />
    <glyph glyph-name="uni06D5" unicode="&#x6d5;" horiz-adv-x="441" 
d="M196 293q-20 0 -33.5 -9.5t-22 -24.5t-12.5 -34t-4 -37q0 -35 16 -56.5t58 -21.5q34 0 52 19.5t18 54.5q0 45 -18.5 77t-53.5 32zM0 180q0 40 13.5 81.5t39 74.5t61.5 54t82 21q42 0 77.5 -16t61.5 -45.5t41 -72.5t15 -97q0 -35 -11 -68t-35 -58.5t-61.5 -41.5t-90.5 -16
q-43 0 -78.5 11t-61 33.5t-39.5 57.5t-14 82z" />
    <glyph glyph-name="uni0640" unicode="&#x640;" horiz-adv-x="148" 
d="M0 0q-8 0 -15 1.5t-12.5 7t-8.5 16.5t-3 30q0 34 9.5 47t29.5 13h148q8 0 15 -1.5t12.5 -7t8.5 -16.5t3 -30q0 -34 -9.5 -47t-29.5 -13h-148z" />
    <glyph glyph-name="uni0640.narrow" horiz-adv-x="115" 
d="M0 0q-8 0 -15 1.5t-12.5 7t-8.5 16.5t-3 30q0 34 9.5 47t29.5 13h115q8 0 15 -1.5t12.5 -7t8.5 -16.5t3 -30q0 -34 -9.5 -47t-29.5 -13h-115z" />
    <glyph glyph-name="uni0640.long" horiz-adv-x="196" 
d="M0 0q-8 0 -15 1.5t-12.5 7t-8.5 16.5t-3 30q0 34 9.5 47t29.5 13h196q8 0 15 -1.5t12.5 -7t8.5 -16.5t3 -30q0 -34 -9.5 -47t-29.5 -13h-196z" />
    <glyph glyph-name="uni064B" unicode="&#x64b;" horiz-adv-x="0" 
d="M120 800l-240 -34v48l240 34v-48zM120 715l-240 -33v48l240 34v-49z" />
    <glyph glyph-name="uni064C" unicode="&#x64c;" horiz-adv-x="0" 
d="M42 813q10 0 18 2t13 4v7q0 25 -10 38.5t-25 13.5q-17 0 -25 -12t-8 -24q0 -18 13.5 -23.5t23.5 -5.5zM1 740q26 0 42 10.5t23 25.5q-15 -5 -33 -5q-32 0 -52 18.5t-20 50.5q0 35 22.5 58t54.5 23q33 0 56 -22t23 -73q0 -37 -9.5 -62t-25.5 -40t-38 -21.5t-46 -6.5
q-42 0 -67 17.5t-42 43.5q-11 -5 -14 -7t-5 -4l-42 -23l-10.5 21.5t-11.5 21.5l99 55q17 -35 39 -58t57 -23z" />
    <glyph glyph-name="uni064D" unicode="&#x64d;" horiz-adv-x="0" 
d="M120 -195l-240 -34v48l240 34v-48zM120 -280l-240 -33v48l240 34v-49z" />
    <glyph glyph-name="uni064E" unicode="&#x64e;" horiz-adv-x="0" 
d="M120 715l-240 -33v48l240 34v-49z" />
    <glyph glyph-name="uni064F" unicode="&#x64f;" horiz-adv-x="0" 
d="M8 813q10 0 18 2t13 4v7q0 25 -10 38.5t-25 13.5q-17 0 -25.5 -12t-8.5 -24q0 -18 14 -23.5t24 -5.5zM-44 740q33 0 51 10.5t25 25.5q-15 -5 -33 -5q-32 0 -52 18.5t-20 50.5q0 35 22 58t55 23q32 0 55 -22t23 -73q0 -37 -9.5 -61.5t-26 -39.5t-40 -21.5t-50.5 -6.5
q-12 0 -25 1t-23 4v43q13 -3 27.5 -4t20.5 -1z" />
    <glyph glyph-name="uni0650" unicode="&#x650;" horiz-adv-x="0" 
d="M120 -195l-240 -34v48l240 34v-48z" />
    <glyph glyph-name="uni0651" unicode="&#x651;" horiz-adv-x="0" 
d="M62 688q-14 0 -29.5 5.5t-27.5 22.5q-13 -19 -30.5 -23.5t-28.5 -4.5q-72 0 -72 83v69h50v-63q0 -40 26 -40q11 0 20 7t9 32v46h50v-45q0 -24 9.5 -31t18.5 -7q16 0 20.5 9t4.5 26v66h50v-69q0 -83 -70 -83z" />
    <glyph glyph-name="uni0652" unicode="&#x652;" horiz-adv-x="0" 
d="M-81 777q0 33 23.5 57t56.5 24t57 -24t24 -57q0 -34 -24 -57t-57 -23t-56.5 23t-23.5 57zM-42 778q0 -17 12.5 -29.5t29.5 -12.5t29.5 12.5t12.5 29.5t-12.5 29t-29.5 12t-29.5 -12t-12.5 -29z" />
    <glyph glyph-name="uni0653" unicode="&#x653;" horiz-adv-x="0" 
d="M-171 842q29 28 52 37t43 9t46.5 -9.5t48.5 -20.5t42 -17t34 -6q19 0 31 14.5t17 30.5l52 -23q-17 -45 -39 -68.5t-61 -23.5q-28 0 -52 7.5t-47 18.5q-22 10 -42 17.5t-37 7.5q-14 0 -26 -4.5t-30 -17.5z" />
    <glyph glyph-name="uni0654" unicode="&#x654;" horiz-adv-x="0" 
d="M79 774h-195v70h40q-5 7 -7 20t-2 21q0 23 7.5 40.5t20.5 29t29.5 17.5t33.5 6q16 0 29 -3t23 -7v-66q-26 6 -37 6q-19 0 -27.5 -9t-8.5 -22q0 -14 8.5 -23.5t32.5 -9.5h53v-70z" />
    <glyph glyph-name="uni0655" unicode="&#x655;" horiz-adv-x="0" 
d="M79 -260h-195v70h40q-5 7 -7 19.5t-2 20.5q0 23 7.5 40.5t20.5 29.5t29.5 18t33.5 6q16 0 29 -3t23 -7v-67q-26 6 -37 6q-19 0 -27.5 -9t-8.5 -22t8.5 -22.5t32.5 -9.5h53v-70z" />
    <glyph glyph-name="uni0670" unicode="&#x670;" horiz-adv-x="0" 
d="M-24 860h51v-203h-51v203z" />
    <glyph glyph-name="uni0656" unicode="&#x656;" horiz-adv-x="0" 
d="M-24 -95h51v-203h-51v203z" />
    <glyph glyph-name="uni0658" unicode="&#x658;" horiz-adv-x="0" 
d="M104 817v-82q0 -54 -28.5 -80t-74.5 -26q-48 0 -76.5 27t-28.5 79v82h64v-84q0 -20 11 -31.5t30 -11.5q18 0 28.5 11.5t10.5 31.5v84h64z" />
    <glyph glyph-name="uni0615" horiz-adv-x="0" 
d="M187 539v8q0 17 -6.5 30t-29.5 13q-22 0 -40 -14t-29 -37h105zM75 613q20 20 39 28.5t43 8.5q40 0 63 -25.5t23 -70.5v-74h-269v59h45v199h56v-125z" />
    <glyph glyph-name="uni064C0651" horiz-adv-x="123" 
d="M62 688q-14 0 -29.5 5.5t-27.5 22.5q-13 -19 -30.5 -23.5t-28.5 -4.5q-72 0 -72 83v69h50v-63q0 -40 26 -40q11 0 20 7t9 32v46h50v-45q0 -24 9.5 -31t18.5 -7q16 0 20.5 9t4.5 26v66h50v-69q0 -83 -70 -83zM67 1009q10 0 18 2t13 4v7q0 25 -10 38.5t-25 13.5
q-17 0 -25 -12t-8 -24q0 -18 13.5 -23.5t23.5 -5.5zM26 936q26 0 42 10.5t23 25.5q-15 -5 -33 -5q-32 0 -52 18.5t-20 50.5q0 35 22.5 58t54.5 23q33 0 56 -22t23 -73q0 -37 -9.5 -62t-25.5 -40t-38 -21.5t-46 -6.5q-42 0 -67 17.5t-42 43.5q-11 -5 -14 -7t-5 -4l-42 -23
l-10.5 21.5t-11.5 21.5l99 55q17 -35 39 -58t57 -23z" />
    <glyph glyph-name="uni064D0651" horiz-adv-x="123" 
d="M50 898q-14 0 -29.5 5.5t-27.5 22.5q-13 -19 -30.5 -23.5t-28.5 -4.5q-72 0 -72 83v69h50v-63q0 -40 26 -40q11 0 20 7t9 32v46h50v-45q0 -24 9.5 -31t18.5 -7q16 0 20.5 9t4.5 26v66h50v-69q0 -83 -70 -83zM120 799l-240 -34v48l240 34v-48zM118 707l-240 -34v48l240 34
v-48z" />
    <glyph glyph-name="uni064B0651" horiz-adv-x="123" 
d="M62 688q-14 0 -29.5 5.5t-27.5 22.5q-13 -19 -30.5 -23.5t-28.5 -4.5q-72 0 -72 83v69h50v-63q0 -40 26 -40q11 0 20 7t9 32v46h50v-45q0 -24 9.5 -31t18.5 -7q16 0 20.5 9t4.5 26v66h50v-69q0 -83 -70 -83zM120 1020l-240 -34v48l240 34v-48zM120 935l-240 -33v48
l240 34v-49z" />
    <glyph glyph-name="uni064E0651" horiz-adv-x="123" 
d="M62 688q-14 0 -29.5 5.5t-27.5 22.5q-13 -19 -30.5 -23.5t-28.5 -4.5q-72 0 -72 83v69h50v-63q0 -40 26 -40q11 0 20 7t9 32v46h50v-45q0 -24 9.5 -31t18.5 -7q16 0 20.5 9t4.5 26v66h50v-69q0 -83 -70 -83zM126 930l-240 -33v48l240 34v-49z" />
    <glyph glyph-name="uni064F0651" horiz-adv-x="123" 
d="M62 688q-14 0 -29.5 5.5t-27.5 22.5q-13 -19 -30.5 -23.5t-28.5 -4.5q-72 0 -72 83v69h50v-63q0 -40 26 -40q11 0 20 7t9 32v46h50v-45q0 -24 9.5 -31t18.5 -7q16 0 20.5 9t4.5 26v66h50v-69q0 -83 -70 -83zM27 1007q10 0 18 2t13 4v7q0 25 -10 38.5t-25 13.5
q-17 0 -25.5 -12t-8.5 -24q0 -18 14 -23.5t24 -5.5zM-25 934q33 0 51 10.5t25 25.5q-15 -5 -33 -5q-32 0 -52 18.5t-20 50.5q0 35 22 58t55 23q32 0 55 -22t23 -73q0 -37 -9.5 -61.5t-26 -39.5t-40 -21.5t-50.5 -6.5q-12 0 -25 1t-23 4v43q13 -3 27.5 -4t20.5 -1z" />
    <glyph glyph-name="uni06500651" horiz-adv-x="123" 
d="M58 808q-14 0 -29.5 5.5t-27.5 22.5q-13 -19 -30.5 -23.5t-28.5 -4.5q-72 0 -72 83v69h50v-63q0 -40 26 -40q11 0 20 7t9 32v46h50v-45q0 -24 9.5 -31t18.5 -7q16 0 20.5 9t4.5 26v66h50v-69q0 -83 -70 -83zM120 715l-240 -33v48l240 34v-49z" />
    <glyph glyph-name="uni06510670" horiz-adv-x="123" 
d="M62 688q-14 0 -29.5 5.5t-27.5 22.5q-13 -19 -30.5 -23.5t-28.5 -4.5q-72 0 -72 83v69h50v-63q0 -40 26 -40q11 0 20 7t9 32v46h50v-45q0 -24 9.5 -31t18.5 -7q16 0 20.5 9t4.5 26v66h50v-69q0 -83 -70 -83zM-22 1078h51v-203h-51v203z" />
    <glyph glyph-name="uni06540651" horiz-adv-x="352" 
d="M79 774h-195v70h40q-5 7 -7 20t-2 21q0 23 7.5 40.5t20.5 29t29.5 17.5t33.5 6q16 0 29 -3t23 -7v-66q-26 6 -37 6q-19 0 -27.5 -9t-8.5 -22q0 -14 8.5 -23.5t32.5 -9.5h53v-70zM120 1138l-240 -34v48l240 34v-48zM120 1053l-240 -33v48l240 34v-49z" />
    <glyph glyph-name="uni0654064E" horiz-adv-x="352" 
d="M79 774h-195v70h40q-5 7 -7 20t-2 21q0 23 7.5 40.5t20.5 29t29.5 17.5t33.5 6q16 0 29 -3t23 -7v-66q-26 6 -37 6q-19 0 -27.5 -9t-8.5 -22q0 -14 8.5 -23.5t32.5 -9.5h53v-70zM120 1038l-240 -33v48l240 34v-49z" />
    <glyph glyph-name="uni0654064C" horiz-adv-x="352" 
d="M79 774h-195v70h40q-5 7 -7 20t-2 21q0 23 7.5 40.5t20.5 29t29.5 17.5t33.5 6q16 0 29 -3t23 -7v-66q-26 6 -37 6q-19 0 -27.5 -9t-8.5 -22q0 -14 8.5 -23.5t32.5 -9.5h53v-70zM56 1164q10 0 18 2t13 4v7q0 25 -10 38.5t-25 13.5q-17 0 -25 -12t-8 -24q0 -18 13.5 -23.5
t23.5 -5.5zM15 1091q26 0 42 10.5t23 25.5q-15 -5 -33 -5q-32 0 -52 18.5t-20 50.5q0 35 22.5 58t54.5 23q33 0 56 -22t23 -73q0 -37 -9.5 -62t-25.5 -40t-38 -21.5t-46 -6.5q-42 0 -67 17.5t-42 43.5q-11 -5 -14 -7t-5 -4l-42 -23l-10.5 21.5t-11.5 21.5l99 55
q17 -35 39 -58t57 -23z" />
    <glyph glyph-name="uni0654064F" horiz-adv-x="352" 
d="M79 774h-195v70h40q-5 7 -7 20t-2 21q0 23 7.5 40.5t20.5 29t29.5 17.5t33.5 6q16 0 29 -3t23 -7v-66q-26 6 -37 6q-19 0 -27.5 -9t-8.5 -22q0 -14 8.5 -23.5t32.5 -9.5h53v-70zM12 1160q10 0 18 2t13 4v7q0 25 -10 38.5t-25 13.5q-17 0 -25.5 -12t-8.5 -24
q0 -18 14 -23.5t24 -5.5zM-40 1087q33 0 51 10.5t25 25.5q-15 -5 -33 -5q-32 0 -52 18.5t-20 50.5q0 35 22 58t55 23q32 0 55 -22t23 -73q0 -37 -9.5 -61.5t-26 -39.5t-40 -21.5t-50.5 -6.5q-12 0 -25 1t-23 4v43q13 -3 27.5 -4t20.5 -1z" />
    <glyph glyph-name="uni06540652" horiz-adv-x="352" 
d="M79 774h-195v70h40q-5 7 -7 20t-2 21q0 23 7.5 40.5t20.5 29t29.5 17.5t33.5 6q16 0 29 -3t23 -7v-66q-26 6 -37 6q-19 0 -27.5 -9t-8.5 -22q0 -14 8.5 -23.5t32.5 -9.5h53v-70zM-81 1115q0 33 23.5 57t56.5 24t57 -24t24 -57q0 -34 -24 -57t-57 -23t-56.5 23t-23.5 57z
M-42 1116q0 -17 12.5 -29.5t29.5 -12.5t29.5 12.5t12.5 29.5t-12.5 29t-29.5 12t-29.5 -12t-12.5 -29z" />
    <glyph glyph-name="uni06550650" horiz-adv-x="352" 
d="M79 -260h-195v70h40q-5 7 -7 19.5t-2 20.5q0 23 7.5 40.5t20.5 29.5t29.5 18t33.5 6q16 0 29 -3t23 -7v-67q-26 6 -37 6q-19 0 -27.5 -9t-8.5 -22t8.5 -22.5t32.5 -9.5h53v-70zM120 -346l-240 -34v48l240 34v-48z" />
    <glyph glyph-name="uni0655064D" horiz-adv-x="352" 
d="M79 -260h-195v70h40q-5 7 -7 19.5t-2 20.5q0 23 7.5 40.5t20.5 29.5t29.5 18t33.5 6q16 0 29 -3t23 -7v-67q-26 6 -37 6q-19 0 -27.5 -9t-8.5 -22t8.5 -22.5t32.5 -9.5h53v-70zM121 -346l-240 -34v48l240 34v-48zM121 -431l-240 -33v48l240 34v-49z" />
    <glyph glyph-name="uni064406440647" horiz-adv-x="1141" 
d="M193 72q-26 0 -59 7.5t-63 27.5t-50.5 55.5t-20.5 91.5q0 55 19.5 93t50 62t68.5 34.5t75 10.5h169v-299q0 -23 6 -31.5t28 -8.5h120q33 0 46.5 10.5t13.5 47.5v541h131v-530q0 -18 2.5 -31.5t10 -21.5t22.5 -12t39 -4h146v599h129v-714h-275q-29 0 -55 9.5t-44 41.5
q-12 -17 -28.5 -27.5t-35.5 -15.5t-39.5 -6.5t-41.5 -1.5h-150q-24 0 -46.5 3.5t-41.5 12.5t-33.5 24.5t-22.5 40.5q-17 -4 -34.5 -6.5t-35.5 -2.5zM128 260q0 -25 14.5 -44.5t56.5 -19.5q14 0 26.5 1t26.5 6v128h-49q-38 0 -56.5 -19.5t-18.5 -51.5z" />
    <glyph glyph-name="uniFDFA.Farsi" horiz-adv-x="1057" 
d="M441 437l31 11.5t18 9.5t8 11t2 16q0 12 -5.5 29t-13.5 36.5t-18.5 39.5l-20.5 38l9 35q2 8 6 8t11 -14l62 -131q9 -20 16.5 -32.5t19 -19.5t30 -9.5t49.5 -2.5q49 0 69.5 8t26.5 16q5 7 1 17q-2 7 4 7q5 0 10 -8t12 -17t17.5 -17t27.5 -8q27 33 54.5 51.5t53.5 18.5
q21 0 35.5 -10t28.5 -42q4 -8 6.5 -12.5t7.5 -6.5l-10 -33q-2 -8 -9.5 -9.5t-16.5 -2.5l-109 -5h-12h-21t-17 2q-14 -21 -20.5 -29.5t-10.5 -8.5t-2 8.5t14 33.5q-9 7 -20.5 21t-16.5 33h-2q-3 -14 -8.5 -24t-18 -16.5t-35 -10t-59.5 -3.5q-25 0 -42.5 2.5t-29.5 9t-19.5 18
t-12.5 29.5h-2q-3 -12 -11 -23t-15 -16v-2q12 0 28 -6t16 -13l-10 -36q-34 -27 -70.5 -43t-69.5 -16q-48 0 -74.5 29.5t-22.5 98.5q-22 5 -45 44q-13 -50 -45 -50q-22 0 -35 10.5t-24 33.5q-21 -15 -38 -19.5t-28.5 -3t-18 7t-6.5 10.5q0 16 6.5 29t14.5 18q22 13 27 17
t5 10q0 3 -2.5 8t-10.5 13l6 29q2 11 6 11q7 0 18 -18t35 -72q7 -16 19.5 -24t24.5 -9t21 3.5t9 12.5q0 5 -4.5 16t-11 23.5t-14.5 26t-15 23.5l8 25q4 11 9 11q2 0 7 -8t11.5 -20l14 -26l13.5 -26q18 -36 32 -47.5t28 -11.5l19 3l-45.5 56.5t-25 34.5t-10.5 20.5t-2 13.5
q0 11 5.5 25.5t11.5 14.5q4 0 10 -12q2 -8 12.5 -20t21.5 -20q12 -11 12 -13q0 -7 -20 -7l23 -32.5t16.5 -28t10 -27t3.5 -30.5q0 -19 -16 -25t-31 -1q1 -19 11.5 -34t25.5 -25t31.5 -15t30.5 -4q22 1 47 6.5t50 16.5v4q-35 3 -51 7t-20 7zM174 89q5 15 7 15t6.5 -6
t11.5 -23l45 -99q7 -16 18 -27.5t29 -18.5t44.5 -10.5t64.5 -3.5q94 0 153.5 7.5t93 16t46.5 16t15 7.5q3 0 8.5 -4.5l12.5 -10t15 -10t17 -4.5l13 2q0 24 2.5 34.5t6.5 10.5t4 -7q0 -14 12.5 -28t34.5 -14l-18 26q2 13 5.5 22t7.5 9t9.5 -5.5t10 -14t7.5 -18t3 -16.5
q0 -20 -7 -32t-17.5 -16t-22.5 -0.5t-21 13.5q-9 -12 -20.5 -15t-23 0.5t-22 12t-17.5 18.5q-17 -10 -50.5 -19t-75.5 -16t-89.5 -11t-93.5 -4q-42 0 -71 3.5t-48.5 11.5t-31.5 21t-19 32h-2q-4 -14 -13 -25.5t-22 -11.5q-8 -25 -17.5 -36.5t-23.5 -11.5q-11 0 -21 9t-12 34
h-2q-6 -12 -18.5 -21.5t-26 -16.5t-25 -10.5t-15.5 -3.5q-5 0 -5 2q0 4 12 9q6 2 18 12.5t24.5 25.5t22.5 32t11 33q5 3 9.5 12.5t4.5 18.5t6 11q4 0 11.5 -7t20.5 -26q8 -12 14.5 -16t14.5 -4q19 0 19 16q0 7 -4.5 20.5t-11 29t-14.5 31t-15 26.5zM739 390q4 11 6 11
t5 -3.5t5 -7.5l65 -150q7 -18 20.5 -32t28.5 -14q0 12 3.5 25.5t10.5 25t16.5 19.5t21.5 8q10 0 19.5 -6.5t16.5 -15.5t11.5 -17t4.5 -11q0 -5 -3 -5t-7 3l-10 7q-13 11 -33 11q-11 0 -19 -4.5t-8 -13.5q0 -6 4 -11t9 -8.5t10 -6t7 -2.5l53 3q13 0 13 -8q0 -9 -11 -31
q-6 -1 -22 -3t-33.5 -3.5t-33 -3t-21.5 -1.5q-19 0 -33.5 8.5t-27.5 40.5h-2q-8 -29 -19 -39.5t-21 -10.5q-17 0 -28.5 9.5t-12.5 20.5h-2q-4 -18 -18 -26t-36 -8t-44 11t-30 31q-22 -14 -42.5 -20t-37.5 -6q-16 1 -25.5 6.5t-9.5 15.5q0 2 1.5 8t3.5 12.5t5 12t6 7.5l57 42
l-15 25l6 28q1 4 2.5 7.5t5.5 3.5q6 0 10 -10l48 -91q7 -13 22.5 -21.5t33 -11.5t33 -0.5t21.5 10.5l5 28q1 10 5 10q5 0 5 -9q0 -8 6 -17t14.5 -14.5t18 -6t16.5 8.5q0 13 -2 26.5t-8 31.5t-17.5 42l-29.5 59zM96 236q3 3 5 9.5t3 11.5q2 13 5 13q5 0 10 -12l33 -67
q7 -14 16 -23t27 -9q13 0 13 4q0 6 -10.5 24.5l-22.5 39.5l-22.5 40.5t-10.5 27.5q0 4 1.5 10.5t4 12.5t5 10.5t4.5 4.5q5 0 8 -7q2 -6 12 -19.5t21 -24.5q7 -6 9 -9t2 -4q0 -7 -18 -7l19.5 -37t11.5 -24.5t5.5 -18t1.5 -16.5q0 -55 -37 -55q-22 0 -34.5 10t-19.5 33
q-27 -17 -49 -17q-17 0 -23.5 3.5t-6.5 9.5q0 7 1.5 17t4.5 14q4 6 16 17t26 19zM401 417l-2 12q-1 6 -3.5 13.5t-6.5 18t-11 25.5l-17 37q-25 52 -36.5 78.5t-10.5 35.5q2 25 7 36.5t8 11.5q4 0 7 -8q1 -2 5.5 -8l10.5 -13.5t13 -14.5t13 -11q12 -9 12 -12q0 -5 -33 -1
q15 -33 25 -57t16 -42.5t8.5 -34t2.5 -30.5q0 -8 -0.5 -16t-4.5 -18zM251 270q25 -50 34.5 -76.5t9.5 -45.5q0 -7 -3 -23t-5 -23q-3 -8 -7 -8l-2 1v8q0 16 -2 29.5t-7 24.5l-47 93q-6 14 -12 30.5t-6 21.5q0 3 1.5 10t4 13.5t5.5 11.5t6 5q2 0 7 -9q1 -4 6.5 -11.5
l11.5 -15.5t12 -14.5t10 -8.5q8 -5 10.5 -8t2.5 -5q0 -4 -10 -4q-3 0 -8.5 1.5t-9.5 4.5zM441 181q0 -23 -6 -37.5t-14.5 -23t-17 -11.5t-14.5 -3q-27 0 -49.5 2t-22.5 4q0 3 5 4.5t16 4.5q9 1 23 7.5t28 14.5t24 17t10 15q0 3 -3 6.5t-7 5.5q-5 -2 -13 -2.5t-15 1t-12 6
t-5 12.5q0 3 1.5 12t5.5 18.5t9.5 16.5t13.5 7q12 0 27.5 -19.5t15.5 -57.5zM984 -83q0 -23 -6 -37.5t-14.5 -23t-17 -11.5t-13.5 -3q-10 0 -22.5 1t-23.5 2.5t-18.5 3t-8.5 2.5q-5 2 -5 3q0 3 5 3q18 2 37 8t34.5 13.5t25 16t9.5 16.5q0 3 -3.5 7t-6.5 5q-5 -1 -12.5 -1.5
t-14.5 1t-12 5.5t-5 12q0 18 8 35.5t21 17.5q12 0 27.5 -18.5t15.5 -57.5zM938 666q-20 -12 -47 -25.5l-55.5 -26.5l-55.5 -25l-48 -21q9 -6 7.5 -16.5t-7.5 -20.5t-13.5 -18t-11.5 -9h-5l-1 2q0 3 2 6.5t4 7.5l4 9q2 6 2 9q0 6 -3.5 8.5t-8 3t-8 0.5t-3.5 2q0 3 3.5 8.5
t17.5 16.5l19 15l225 99zM377 5l154 61q23 10 42 20l32 17q6 4 8 2t-1 -6l-12 -16q-12 -10 -40.5 -25t-60.5 -29l-104 -43q6 -9 4 -18t-7.5 -16.5t-13 -12t-12.5 -4.5q11 14 9 26.5t-13 14.5q-4 0 -4.5 3t1.5 5zM574 636q20 7 46 17.5l53.5 22.5l54 24.5t47.5 23.5
q-9 -26 -42 -41l-181 -83zM683 104l41 -21l14 28l40 -24l-22 -38l-35 19l-17 -26l-40 19zM172 392q10 0 23 5.5l26 11.5t23 11.5t13 5.5q8 0 14.5 -5t6.5 -11q0 -5 -2.5 -9.5t-4.5 -7.5q-6 7 -16 7q-6 0 -14.5 -5.5l-18.5 -11.5t-21 -11.5t-21 -5.5q0 -17 -1.5 -24t-4.5 -8
q-2 14 -13 27t-24 18q-7 25 2 25q4 0 13.5 -6t19.5 -6zM910 494q-20 0 -41.5 -13t-29.5 -25h34q27 0 53.5 1t43.5 4q-2 4 -8.5 9.5t-15.5 11t-19 9t-17 3.5zM971 92l13.5 7t10.5 6q-1 -9 -7 -19.5t-14 -13.5l-135 -64l9 27zM615 -143q7 0 10.5 -5.5t9.5 -5.5q11 0 15.5 8.5
t6.5 8.5q4 0 4 -6.5t8 -6.5l4 1q0 11 7 14q3 -3 3 -10q0 -18 -12 -21t-18 5q-6 -11 -23 -11q-9 0 -10.5 5.5t-9.5 5.5q-4 0 -10.5 -5t-17.5 -11q-10 -7 -24.5 -12t-34.5 -5q-30 0 -30 5q0 3 9 3q20 0 38.5 6.5t33.5 15t25.5 15t15.5 6.5zM990 379l-12 -22q-2 -5 -15 -11
l-134 -61l11 25zM169 675q7 0 7 7q0 4 -2.5 8.5t-2.5 7.5q0 9 5 9q4 0 6 -6q4 -15 9 -19t13 -3q-2 2 -4.5 9t-2.5 9q0 9 8 15q13 -18 13 -33q0 -9 -3.5 -13.5t-8 -5.5t-10 0.5t-8.5 3.5q-3 -6 -10 -8.5t-14 0t-12.5 9t-5.5 18.5q0 16 9 16q0 -24 14 -24zM393 285l-17 -12.5
t-35 -20.5l-52 -28l10 25q8 3 23 11l32 17t32 18.5t23 15.5zM562 247q-6 -12 -21 -24.5t-33 -21.5v-2q20 -1 39 -1t39 3zM115 539q-6 -10 -17 -20t-19 -15q5 -5 22.5 -4t31.5 3zM116 204l-35 -30q15 -3 26 -3q6 0 12.5 1.5t11.5 2.5zM134 -59q0 -14 5.5 -30.5t19.5 -16.5
q7 0 14 4z" />
    <glyph glyph-name="uni0660" unicode="&#x660;" 
d="M253 84l-119 120l119 113l117 -115z" />
    <glyph glyph-name="uni0661" unicode="&#x661;" 
d="M188 594h128v-594h-128v594z" />
    <glyph glyph-name="uni0662" unicode="&#x662;" 
d="M196 0h-126v594h128v-101q11 -5 34 -7t41 -2q37 0 50 16t13 34v60h125v-52q0 -44 -14 -75.5t-38 -52.5t-55.5 -31t-67.5 -10t-56.5 2.5t-33.5 5.5v-381z" />
    <glyph glyph-name="uni0663" unicode="&#x663;" 
d="M146 0h-127v594h129v-101q5 -2 18.5 -4.5t18.5 -2.5q19 0 23.5 14.5t4.5 33.5v60h113v-52q0 -29 -4 -49q18 -7 33 -7q14 0 21 8t7 40v60h112v-52q0 -44 -10.5 -75.5t-28.5 -52.5t-42 -31t-52 -10q-21 0 -44 8t-45 20q-31 -28 -81 -28q-11 0 -25 1t-21 3v-377z" />
    <glyph glyph-name="uni0664" unicode="&#x664;" 
d="M278 239q-26 0 -44.5 -11.5t-18.5 -49.5q0 -32 17 -47.5t47 -15.5h154v-115h-156q-41 0 -75.5 9t-60 29t-40 51.5t-14.5 77.5q0 36 16 73.5t51 63.5q-26 27 -34.5 57.5t-8.5 57.5q0 88 49.5 131t143.5 43h95v-115h-96q-34 0 -48.5 -16.5t-14.5 -43.5q0 -28 15.5 -45.5
t47.5 -17.5h95v-116h-120z" />
    <glyph glyph-name="uni0665" unicode="&#x665;" 
d="M253 0q-37 0 -72 11t-62 37t-43.5 69t-16.5 108q0 104 16 175t42.5 114.5t62 62t74.5 18.5t74 -18.5t62 -61.5t43 -114t16 -176q0 -65 -17 -108t-44.5 -69t-62.5 -37t-72 -11zM254 121q29 0 49.5 30t20.5 104q0 51 -4 93t-12 72t-21.5 46.5t-32.5 16.5q-21 0 -34.5 -16.5
t-21.5 -46.5t-11.5 -72t-3.5 -94q0 -74 20.5 -103.5t50.5 -29.5z" />
    <glyph glyph-name="uni0666" unicode="&#x666;" 
d="M392 0h-127v462h-205v132h332v-594z" />
    <glyph glyph-name="uni0667" unicode="&#x667;" 
d="M249 187h3l98 401h137l-178 -588h-116l-178 588h134z" />
    <glyph glyph-name="uni0668" unicode="&#x668;" 
d="M251 401h-3l-97 -402h-137l178 588h116l178 -588h-134z" />
    <glyph glyph-name="uni0669" unicode="&#x669;" 
d="M408 594v-594h-126v263h-28q-38 0 -70 10.5t-55 31t-36.5 51t-13.5 71.5q0 79 45 123t129 44h155zM205 429q0 -20 8.5 -36t34.5 -16h34v101h-34q-27 0 -35 -14.5t-8 -34.5z" />
    <glyph glyph-name="uni0660.pnum" horiz-adv-x="316" 
d="M162 84l-119 120l119 113l117 -115z" />
    <glyph glyph-name="uni0661.pnum" horiz-adv-x="278" 
d="M78 594h128v-594h-128v594z" />
    <glyph glyph-name="uni0662.pnum" horiz-adv-x="476" 
d="M201 0h-126v594h128v-101q11 -5 34 -7t41 -2q37 0 50 16t13 34v60h125v-52q0 -44 -14 -75.5t-38 -52.5t-55.5 -31t-67.5 -10t-56.5 2.5t-33.5 5.5v-381z" />
    <glyph glyph-name="uni0663.pnum" horiz-adv-x="561" 
d="M202 0h-127v594h129v-101q5 -2 18.5 -4.5t18.5 -2.5q19 0 23.5 14.5t4.5 33.5v60h113v-52q0 -29 -4 -49q18 -7 33 -7q14 0 21 8t7 40v60h112v-52q0 -44 -10.5 -75.5t-28.5 -52.5t-42 -31t-52 -10q-21 0 -44 8t-45 20q-31 -28 -81 -28q-11 0 -25 1t-21 3v-377z" />
    <glyph glyph-name="uni0664.pnum" horiz-adv-x="426" 
d="M244 239q-26 0 -44.5 -11.5t-18.5 -49.5q0 -32 17 -47.5t47 -15.5h154v-115h-156q-41 0 -75.5 9t-60 29t-40 51.5t-14.5 77.5q0 36 16 73.5t51 63.5q-26 27 -34.5 57.5t-8.5 57.5q0 88 49.5 131t143.5 43h95v-115h-96q-34 0 -48.5 -16.5t-14.5 -43.5q0 -28 15.5 -45.5
t47.5 -17.5h95v-116h-120z" />
    <glyph glyph-name="uni0665.pnum" horiz-adv-x="490" 
d="M247 0q-37 0 -72 11t-62 37t-43.5 69t-16.5 108q0 104 16 175t42.5 114.5t62 62t74.5 18.5t74 -18.5t62 -61.5t43 -114t16 -176q0 -65 -17 -108t-44.5 -69t-62.5 -37t-72 -11zM248 121q29 0 49.5 30t20.5 104q0 51 -4 93t-12 72t-21.5 46.5t-32.5 16.5q-21 0 -34.5 -16.5
t-21.5 -46.5t-11.5 -72t-3.5 -94q0 -74 20.5 -103.5t50.5 -29.5z" />
    <glyph glyph-name="uni0666.pnum" horiz-adv-x="417" 
d="M345 0h-127v462h-205v132h332v-594z" />
    <glyph glyph-name="uni0667.pnum" horiz-adv-x="492" 
d="M247 187h3l98 401h137l-178 -588h-116l-178 588h134z" />
    <glyph glyph-name="uni0668.pnum" horiz-adv-x="492" 
d="M250 401h-3l-97 -402h-137l178 588h116l178 -588h-134z" />
    <glyph glyph-name="uni0669.pnum" horiz-adv-x="414" 
d="M342 594v-594h-126v263h-28q-38 0 -70 10.5t-55 31t-36.5 51t-13.5 71.5q0 79 45 123t129 44h155zM139 429q0 -20 8.5 -36t34.5 -16h34v101h-34q-27 0 -35 -14.5t-8 -34.5z" />
    <glyph glyph-name="uni06F0" unicode="&#x6f0;" 
d="M253 84l-119 120l119 113l117 -115z" />
    <glyph glyph-name="uni06F1" unicode="&#x6f1;" 
d="M188 594h128v-594h-128v594z" />
    <glyph glyph-name="uni06F2" unicode="&#x6f2;" 
d="M196 0h-126v594h128v-101q11 -5 34 -7t41 -2q37 0 50 16t13 34v60h125v-52q0 -44 -14 -75.5t-38 -52.5t-55.5 -31t-67.5 -10t-56.5 2.5t-33.5 5.5v-381z" />
    <glyph glyph-name="uni06F3" unicode="&#x6f3;" 
d="M146 0h-127v594h129v-101q5 -2 18.5 -4.5t18.5 -2.5q19 0 23.5 14.5t4.5 33.5v60h113v-52q0 -29 -4 -49q18 -7 33 -7q14 0 21 8t7 40v60h112v-52q0 -44 -10.5 -75.5t-28.5 -52.5t-42 -31t-52 -10q-21 0 -44 8t-45 20q-31 -28 -81 -28q-11 0 -25 1t-21 3v-377z" />
    <glyph glyph-name="uni06F4" unicode="&#x6f4;" 
d="M165 0h-126v594h128v-137q14 -4 29.5 -6.5t34.5 -4.5q-8 13 -14 27t-9.5 27t-5 24t-1.5 17q0 66 35 95t95 29h43v-95q-39 -1 -57 -19.5t-18 -38.5q0 -17 5 -32t13 -29q40 9 53 32.5t14 62.5h105q-1 -62 -17.5 -102t-46.5 -64t-72.5 -33.5t-94.5 -9.5q-54 0 -93 10v-347z
" />
    <glyph glyph-name="uni06F5" unicode="&#x6f5;" 
d="M57 219q0 104 16 175.5t43 116t62.5 64t74.5 19.5t74 -19.5t62 -63.5t43 -115.5t16 -176.5q0 -46 -7.5 -86t-22.5 -69.5t-37 -46.5t-50 -17q-20 0 -37.5 4t-39.5 21q-17 -13 -36 -18.5t-40 -5.5q-58 0 -89.5 54.5t-31.5 163.5zM320 227q0 118 -17 185t-50 67
q-35 0 -51.5 -67t-16.5 -185q0 -48 5.5 -76t19.5 -28q8 0 13 3.5t10 8.5q1 0 2 1l3 2q3 2 7.5 5.5t7.5 3.5q5 0 9.5 -3.5t8.5 -7.5l11 -8.5t16 -4.5q14 0 18 28t4 76z" />
    <glyph glyph-name="uni06F6" unicode="&#x6f6;" 
d="M398 299l-162 -299h-141l149 276q-64 16 -91 59.5t-27 96.5q0 36 12 66t34.5 51t54 33t69.5 12h101v-111h-82q-18 0 -30 -5t-18.5 -12.5t-9 -16.5t-2.5 -16q0 -21 15 -38t57 -17h71v-79z" />
    <glyph glyph-name="uni06F7" unicode="&#x6f7;" 
d="M249 187h3l98 401h137l-178 -588h-116l-178 588h134z" />
    <glyph glyph-name="uni06F8" unicode="&#x6f8;" 
d="M251 401h-3l-97 -402h-137l178 588h116l178 -588h-134z" />
    <glyph glyph-name="uni06F9" unicode="&#x6f9;" 
d="M408 594v-594h-126v263h-28q-38 0 -70 10.5t-55 31t-36.5 51t-13.5 71.5q0 79 45 123t129 44h155zM205 429q0 -20 8.5 -36t34.5 -16h34v101h-34q-27 0 -35 -14.5t-8 -34.5z" />
    <glyph glyph-name="uni06F0.pnum" horiz-adv-x="316" 
d="M162 84l-119 120l119 113l117 -115z" />
    <glyph glyph-name="uni06F1.pnum" horiz-adv-x="278" 
d="M78 594h128v-594h-128v594z" />
    <glyph glyph-name="uni06F2.pnum" horiz-adv-x="476" 
d="M201 0h-126v594h128v-101q11 -5 34 -7t41 -2q37 0 50 16t13 34v60h125v-52q0 -44 -14 -75.5t-38 -52.5t-55.5 -31t-67.5 -10t-56.5 2.5t-33.5 5.5v-381z" />
    <glyph glyph-name="uni06F3.pnum" horiz-adv-x="561" 
d="M202 0h-127v594h129v-101q5 -2 18.5 -4.5t18.5 -2.5q19 0 23.5 14.5t4.5 33.5v60h113v-52q0 -29 -4 -49q18 -7 33 -7q14 0 21 8t7 40v60h112v-52q0 -44 -10.5 -75.5t-28.5 -52.5t-42 -31t-52 -10q-21 0 -44 8t-45 20q-31 -28 -81 -28q-11 0 -25 1t-21 3v-377z" />
    <glyph glyph-name="uni06F4.pnum" horiz-adv-x="505" 
d="M171 0h-126v594h128v-137q14 -4 29.5 -6.5t34.5 -4.5q-8 13 -14 27t-9.5 27t-5 24t-1.5 17q0 66 35 95t95 29h43v-95q-39 -1 -57 -19.5t-18 -38.5q0 -17 5 -32t13 -29q40 9 53 32.5t14 62.5h105q-1 -62 -17.5 -102t-46.5 -64t-72.5 -33.5t-94.5 -9.5q-54 0 -93 10v-347z
" />
    <glyph glyph-name="uni06F5.pnum" horiz-adv-x="491" 
d="M53 219q0 104 16 175.5t43 116t62.5 64t74.5 19.5t74 -19.5t62 -63.5t43 -115.5t16 -176.5q0 -46 -7.5 -86t-22.5 -69.5t-37 -46.5t-50 -17q-20 0 -37.5 4t-39.5 21q-17 -13 -36 -18.5t-40 -5.5q-58 0 -89.5 54.5t-31.5 163.5zM316 227q0 118 -17 185t-50 67
q-35 0 -51.5 -67t-16.5 -185q0 -48 5.5 -76t19.5 -28q8 0 13 3.5t10 8.5q1 0 2 1l3 2q3 2 7.5 5.5t7.5 3.5q5 0 9.5 -3.5t8.5 -7.5l11 -8.5t16 -4.5q14 0 18 28t4 76z" />
    <glyph glyph-name="uni06F6.pnum" horiz-adv-x="363" 
d="M316 299l-162 -299h-141l149 276q-64 16 -91 59.5t-27 96.5q0 36 12 66t34.5 51t54 33t69.5 12h101v-111h-82q-18 0 -30 -5t-18.5 -12.5t-9 -16.5t-2.5 -16q0 -21 15 -38t57 -17h71v-79z" />
    <glyph glyph-name="uni06F7.pnum" horiz-adv-x="492" 
d="M247 187h3l98 401h137l-178 -588h-116l-178 588h134z" />
    <glyph glyph-name="uni06F8.pnum" horiz-adv-x="492" 
d="M250 401h-3l-97 -402h-137l178 588h116l178 -588h-134z" />
    <glyph glyph-name="uni06F9.pnum" horiz-adv-x="414" 
d="M342 594v-594h-126v263h-28q-38 0 -70 10.5t-55 31t-36.5 51t-13.5 71.5q0 79 45 123t129 44h155zM139 429q0 -20 8.5 -36t34.5 -16h34v101h-34q-27 0 -35 -14.5t-8 -34.5z" />
    <glyph glyph-name="uni06F4.Urdu" 
d="M210 0h-128v455q0 31 10 58t28 46t44 30t58 11q42 0 69.5 -18.5t46.5 -40.5q34 28 95 60l60 -103q-29 -16 -51 -29.5t-39.5 -25.5t-32.5 -23.5l-30 -23.5q-5 -5 -11 -9t-11 -9q-28 51 -48 73t-35 22q-12 0 -18.5 -7.5t-6.5 -30.5v-435z" />
    <glyph glyph-name="uni06F7.Urdu" 
d="M77 103l237 491h127l-225 -479h210v-115h-350z" />
    <glyph glyph-name="uni06F4.Urdupnum" horiz-adv-x="491" 
d="M201 0h-128v455q0 31 10 58t28 46t44 30t58 11q42 0 69.5 -18.5t46.5 -40.5q34 28 95 60l60 -103q-29 -16 -51 -29.5t-39.5 -25.5t-32.5 -23.5l-30 -23.5q-5 -5 -11 -9t-11 -9q-28 51 -48 73t-35 22q-12 0 -18.5 -7.5t-6.5 -30.5v-435z" />
    <glyph glyph-name="uni06F7.Urdupnum" horiz-adv-x="415" 
d="M24 103l237 491h127l-225 -479h210v-115h-350z" />
    <glyph glyph-name="uni066A" unicode="&#x66a;" horiz-adv-x="637" 
d="M580 554l-426 -586l-98 72l104.5 143l108 149l108 149l104.5 143zM166 374l-119 119l59 58l60 57l116 -116zM468 -8l-118 119l118 114l118 -116z" />
    <glyph glyph-name="uni066B" unicode="&#x66b;" horiz-adv-x="316" 
d="M40 157h160v-155q0 -35 -13 -63t-35 -49t-51 -35t-60 -20v75q29 6 49.5 32t20.5 58h-71v157z" />
    <glyph glyph-name="uni066C" unicode="&#x66c;" horiz-adv-x="321" 
d="M40 157h160v-155q0 -35 -13 -63t-35 -49t-51 -35t-60 -20v75q29 6 49.5 32t20.5 58h-71v157z" />
    <glyph glyph-name="uni060C" unicode="&#x60c;" horiz-adv-x="346" 
d="M214 0h-160v155q0 34 13 62t34.5 49t50.5 35t61 20v-74q-30 -6 -50.5 -32.5t-20.5 -57.5h72v-157z" />
    <glyph glyph-name="uni061B" unicode="&#x61b;" horiz-adv-x="344" 
d="M73 154h157v-154h-157v154zM229 236h-160v155q0 34 13 62t34.5 49t50.5 35t61 20v-74q-30 -6 -50.5 -32.5t-20.5 -57.5h72v-157z" />
    <glyph glyph-name="uni061F" unicode="&#x61f;" horiz-adv-x="590" 
d="M385 458q-1 24 -6.5 45t-16.5 36.5t-27.5 25t-40.5 9.5q-35 0 -54.5 -18.5t-19.5 -60.5q0 -33 18 -54t46 -41q14 -11 27.5 -23.5t24.5 -29t18 -38t9 -51.5v-42h-125v36q-7 33 -26.5 54.5t-45.5 38.5l-9 6q-15 12 -29.5 26t-26 32.5t-18.5 42.5t-7 56q0 26 11 56.5
t37.5 57t69.5 44t107 17.5q49 0 88.5 -17.5t68 -47.5t44.5 -71t18 -89h-135zM223 154h157v-154h-157v154z" />
    <glyph glyph-name="uniFD3E" unicode="&#xfd3e;" horiz-adv-x="611" 
d="M499 277q0 9 -20 20q-10 5 -20.5 9.5t-23.5 6.5v57l-76 -57l1 -2h43v-21q21 -3 34 -13q-13 -9 -34 -12v-20h-44l-3 -2l79 -58v57q64 18 64 35zM330 279q0 22 -15 37.5t-37 15.5t-37 -15t-15 -37t15 -37q15 -16 37 -16t37 15.5t15 36.5zM195 241v2h-47v22q-15 3 -31 12
q12 9 31 12v20h47v2l-77 60v-58q-65 -21 -65 -35q0 -20 65 -37v-56zM372 121l-61 63v-29h-23v-33h-2l-19 33h-24v32l-52 -74l69 16q4 -17 11.5 -39t18 -44.5t23.5 -43t28 -35.5v47q-17 37 -24 63t-12 53l64 -12zM217 327q13 0 13 11q0 7 -9 18l-62 86q-6 9 -6 15q0 11 12 11
q5 0 6 -1l73 -13q8 31 27.5 66.5t44.5 69.5t53.5 65t54.5 55t47 38t31 14q6 0 8 -5q0 -1 0.5 -2t0.5 -2q0 -6 -6 -13q-69 -73 -114 -146.5t-52 -140.5l50 7q2 0 6 0.5t5 0.5q11 0 11 -10q0 -4 -6 -13l-68 -77q-12 -14 -12 -21q0 -9 11 -9q4 0 16 5l80 60q13 10 19 10
q7 0 9 -14v-61q8 -3 19 -8t21.5 -12t17.5 -15.5t7 -18.5q0 -26 -65 -55v-57q0 -21 -9 -21q-5 0 -15 8l-84 64q-8 6 -17 6q-11 0 -11 -10q0 -7 12 -20l68 -77q6 -9 6 -13q0 -10 -11 -10q-1 0 -5 0.5t-6 0.5l-50 7q7 -67 52 -139.5t114 -147.5q6 -6 6 -13q0 -1 -0.5 -2
t-0.5 -2q-2 -5 -8 -5q-10 0 -31 14t-47 38t-54.5 55t-53.5 65t-44.5 69t-27.5 67l-73 -13q-1 -1 -6 -1q-12 0 -12 11q0 6 6 15l62 86q9 12 9 17q0 13 -11 13q-9 0 -22 -13l-72 -62q-13 -10 -19 -10q-14 0 -14 25v56q-64 24 -64 53q0 24 64 55v62q0 20 14 20q5 0 16 -9
l80 -69q11 -8 16 -8zM370 435l-64 -12q5 27 12 53t24 63v47q-15 -15 -28 -35.5t-23.5 -43t-18 -44.5t-11.5 -39l-69 16l52 -74v32h24l19 33h2v-33h23v-29l61 63z" />
    <glyph glyph-name="uniFD3F" unicode="&#xfd3f;" horiz-adv-x="611" 
d="M110 277q0 -17 64 -35v-57l79 58l-3 2h-44v20q-21 3 -34 12q13 10 34 13v21h43l1 2l-76 57v-57q-13 -2 -23.5 -6.5l-21.5 -9.5q-19 -10 -19 -20zM279 279q0 -21 15 -36.5t37 -15.5q21 0 37 16q15 15 15 37t-15 37t-37 15t-37 -15.5t-15 -37.5zM491 185v56q65 17 65 37
q0 14 -65 35v58l-77 -60v-2h47v-20q19 -3 31 -12q-16 -9 -31 -12v-22h-47v-2zM240 118l64 12q-5 -27 -12 -53t-24 -63v-47q15 15 27.5 35.5t23 43t18 44.5t12.5 39l69 -16l-52 74v-32h-24l-19 -33h-2v33h-23v29l-61 -63zM392 327q5 0 16 8l80 69q10 9 16 9q14 0 14 -20v-62
q64 -31 64 -55q0 -29 -64 -53v-56q0 -25 -14 -25q-6 0 -19 10l-72 62q-13 13 -22 13q-11 0 -11 -13q0 -5 9 -17l62 -86q6 -9 6 -15q0 -11 -12 -11q-5 0 -6 1l-73 13q-8 -31 -27.5 -66.5t-45 -69.5t-54 -65t-54.5 -55t-46.5 -38t-30.5 -14q-6 0 -8 5q0 1 -0.5 2t-0.5 2
q0 7 6 13q69 75 114 147.5t52 139.5l-50 -7q-2 0 -3.5 -0.5t-3.5 -0.5h-4q-11 0 -11 10q0 4 6 13l68 77q12 13 12 20q0 10 -11 10q-10 0 -17 -6l-84 -64q-10 -8 -15 -8q-9 0 -9 21v57q-65 29 -65 55q0 10 7 18.5t17 15.5t21.5 12t19.5 8v61q2 14 9 14q6 0 19 -10l80 -60
q12 -5 16 -5q11 0 11 9q0 7 -12 21l-68 77q-6 9 -6 13q0 10 11 10q1 -1 4 -1h7l50 -7q-7 67 -52 140.5t-114 146.5q-6 7 -6 13q0 1 0.5 2t0.5 2q2 5 8 5q10 0 30.5 -14t46.5 -38t54.5 -55t54 -65t45 -69.5t27.5 -66.5l73 13q1 1 6 1q12 0 12 -11q0 -6 -6 -15l-62 -86
q-9 -11 -9 -18q0 -11 13 -11zM236 432l61 -63v29h23v33h2l19 -33h24v-32l52 74l-69 -16q-5 17 -12.5 39t-18 44.5t-23 43t-27.5 35.5v-47q17 -37 24 -63t12 -53l-64 12z" />
    <glyph glyph-name="uni06D4" unicode="&#x6d4;" horiz-adv-x="280" 
d="M247 0h-135q-25 0 -45 4.5t-34.5 20.5t-22 45t-7.5 79q38 -17 70 -25.5t52 -8.5h122v-115z" />
    </font>
</defs>
</svg>
