<?xml version="1.0" standalone="no"?>
<!DOCTYPE svg PUBLIC "-//W3C//DTD SVG 1.1//EN" "http://www.w3.org/Graphics/SVG/1.1/DTD/svg11.dtd" >
<svg>
<metadata>
Created by FontForge 20090622 at Mon Apr 17 15:45:18 2017
 By deploy user
Copyright &#194;&#169; 2012 Monotype Imaging Inc. All rights reserved. This software is the property of Monotype Imaging Inc., and may not be reproduced, used, displayed, modified, disclosed or transferred without the express written approval of Monotype Imaging Inc. and/or its affiliated companies.
</metadata>
<defs>
<font id="HelveticaNeueW23forSKY-Reg" horiz-adv-x="1139" >
  <font-face 
    font-family="Helvetica Neue W23 for SKY Reg"
    font-weight="400"
    font-stretch="normal"
    units-per-em="2048"
    panose-1="2 11 6 4 2 2 2 2 2 4"
    ascent="1638"
    descent="-410"
    x-height="1059"
    cap-height="1462"
    bbox="-393 -683 2812 2845"
    underline-thickness="102"
    underline-position="-103"
    unicode-range="U+000D-U+FEFC"
  />
<missing-glyph horiz-adv-x="1049" 
d="M1049 1470v-1470h-1049v1470h1049zM946 102v1264h-844v-1264h844zM530 1247q110 0 182 -74t72 -194q0 -82 -33 -136q-34 -54 -98 -112q-34 -30 -54.5 -54t-28.5 -41q-15 -35 -15 -157h-94l-4 40q0 117 34 175q35 60 94 114q34 31 64 70q31 40 31 93q0 71 -47 123
q-47 51 -109 51q-67 0 -111.5 -47.5t-56.5 -146.5l-102 16q14 138 85 209t191 71zM455 377h114v-137h-114v137z" />
    <glyph glyph-name="uniFEFB" unicode="&#xfedf;&#xfe8e;" horiz-adv-x="1257" arabic-form="isolated" 
d="M1117 1429v-1429h-1047v170h412l-167 989h174l167 -989h287v1259h174z" />
    <glyph glyph-name="uniFEFC" unicode="&#xfee0;&#xfe8e;" horiz-adv-x="1303" arabic-form="final" 
d="M70 0v170h410l-165 989h176l165 -989h120q37 0 68 4t52.5 19t33.5 45t12 81v1110h176v-1034q0 -51 7 -93t26.5 -71t54 -45t88.5 -16q42 0 62 -19.5t20 -62.5q0 -51 -19.5 -69.5t-62.5 -18.5q-33 0 -64.5 8.5t-58 24t-47 36.5t-32.5 46q-20 -37 -51.5 -59.5t-67.5 -35
t-74.5 -16.5t-72.5 -4h-756z" />
    <glyph glyph-name="uniFEF5" unicode="&#xfedf;&#xfe82;" horiz-adv-x="1257" arabic-form="isolated" 
d="M1117 1429v-1429h-1047v170h412l-153 945h174l153 -945h287v1259h174zM42 1378q48 29 94.5 41.5t82.5 12.5q51 0 96 -16.5t89.5 -36t90.5 -36t99 -16.5q28 0 63 6.5t83 28.5l23 -91q-47 -26 -89 -37.5t-95 -11.5q-60 0 -111.5 16.5t-97 36.5l-86.5 36.5t-81 16.5
q-34 0 -69 -9.5t-69 -29.5z" />
    <glyph glyph-name="uniFEF6" unicode="&#xfee0;&#xfe82;" horiz-adv-x="1303" arabic-form="final" 
d="M70 0v170h410l-157 945h176l157 -945h120q37 0 68 4t52.5 19t33.5 45t12 81v1110h176v-1034q0 -51 7 -93t26.5 -71t54 -45t88.5 -16q42 0 62 -19.5t20 -62.5q0 -51 -19.5 -69.5t-62.5 -18.5q-33 0 -64.5 8.5t-58 24t-47 36.5t-32.5 46q-20 -37 -51.5 -59.5t-67.5 -35
t-74.5 -16.5t-72.5 -4h-756zM51 1382q48 29 94.5 41.5t82.5 12.5q51 0 96 -16.5t89.5 -36t90.5 -36t99 -16.5q28 0 63 6.5t83 28.5l23 -91q-47 -26 -89 -37.5t-95 -11.5q-60 0 -111.5 16.5t-97 36.5l-86.5 36.5t-81 16.5q-34 0 -69 -9.5t-69 -29.5z" />
    <glyph glyph-name="uniFEF7" unicode="&#xfedf;&#xfe84;" horiz-adv-x="1257" arabic-form="isolated" 
d="M585 1224h-375v93h92q-14 23 -21.5 48t-7.5 56q0 45 15 79t39.5 57t56 34.5t64.5 11.5q34 0 59.5 -4.5t38.5 -13.5v-94q-41 18 -88 18q-25 0 -42.5 -8t-29 -20.5t-17 -29t-5.5 -34.5q0 -42 26 -71t80 -29h115v-93zM1117 1429v-1429h-1047v170h412l-153 945h174l153 -945
h287v1259h174z" />
    <glyph glyph-name="uniFEF8" unicode="&#xfee0;&#xfe84;" horiz-adv-x="1303" arabic-form="final" 
d="M585 1224h-375v93h92q-14 23 -21.5 48t-7.5 56q0 45 15 79t39.5 57t56 34.5t64.5 11.5q34 0 59.5 -4.5t38.5 -13.5v-94q-41 18 -88 18q-25 0 -42.5 -8t-29 -20.5t-17 -29t-5.5 -34.5q0 -42 26 -71t80 -29h115v-93zM70 0v170h410l-157 945h176l157 -945h120q37 0 68 4
t52.5 19t33.5 45t12 81v1110h176v-1034q0 -51 9 -93t30 -71t57 -45t90 -16q42 0 62 -19.5t20 -62.5q0 -51 -19.5 -69.5t-62.5 -18.5q-33 0 -66 8.5t-61.5 24t-50.5 36.5t-34 46q-20 -37 -51.5 -59.5t-67.5 -35t-74.5 -16.5t-72.5 -4h-756z" />
    <glyph glyph-name="uniFEF9" unicode="&#xfedf;&#xfe88;" horiz-adv-x="1257" arabic-form="isolated" 
d="M1117 1429v-1429h-1047v170h412l-167 989h174l167 -989h287v1259h174zM687 -500h-375v94h92q-14 23 -21.5 48.5t-7.5 54.5q0 45 15 79.5t39.5 57.5t56 35t64.5 12q34 0 59.5 -4.5t38.5 -13.5v-97q-39 19 -88 19q-25 0 -42.5 -8t-29 -20.5t-17 -29t-5.5 -34.5
q0 -41 26 -70t80 -29h115v-94z" />
    <glyph glyph-name="uniFEFA" unicode="&#xfee0;&#xfe88;" horiz-adv-x="1303" arabic-form="final" 
d="M70 0v170h410l-165 989h176l165 -989h120q37 0 68 4t52.5 19t33.5 45t12 81v1110h176v-1034q0 -51 7 -93t26.5 -71t54 -45t88.5 -16q42 0 62 -19.5t20 -62.5q0 -51 -19.5 -69.5t-62.5 -18.5q-33 0 -64.5 8.5t-58 24t-47 36.5t-32.5 46q-20 -37 -51.5 -59.5t-67.5 -35
t-74.5 -16.5t-72.5 -4h-756zM686 -500h-375v94h92q-14 23 -21.5 48.5t-7.5 54.5q0 45 15 79.5t39.5 57.5t56 35t64.5 12q34 0 59.5 -4.5t38.5 -13.5v-97q-39 19 -88 19q-25 0 -42.5 -8t-29 -20.5t-17 -29t-5.5 -34.5q0 -41 26 -70t80 -29h115v-94z" />
    <glyph glyph-name="uni06440671" unicode="&#xfedf;&#xfb51;" horiz-adv-x="1257" 
d="M1117 1429v-1429h-1047v170h412l-167 989h174l167 -989h287v1259h174zM519 1394v29q0 17 -3.5 32.5t-12 27.5t-23.5 19t-37 7q-21 0 -42 -9.5t-39 -25t-32.5 -36.5t-23.5 -44h213zM304 1492q31 44 67 65t83 21q60 0 93.5 -37.5t33.5 -105.5v-108h-416v67h73v164h66v-66z
" />
    <glyph glyph-name="uni06440671.fina" unicode="&#xfee0;&#xfb51;" horiz-adv-x="1303" 
d="M70 0v170h410l-165 989h176l165 -989h120q37 0 68 4t52.5 19t33.5 45t12 81v1110h176v-1034q0 -51 7 -93t26.5 -71t54 -45t88.5 -16q42 0 62 -19.5t20 -62.5q0 -51 -19.5 -69.5t-62.5 -18.5q-33 0 -64.5 8.5t-58 24t-47 36.5t-32.5 46q-20 -37 -51.5 -59.5t-67.5 -35
t-74.5 -16.5t-72.5 -4h-756zM519 1394v29q0 17 -3.5 32.5t-12 27.5t-23.5 19t-37 7q-21 0 -42 -9.5t-39 -25t-32.5 -36.5t-23.5 -44h213zM304 1492q31 44 67 65t83 21q60 0 93.5 -37.5t33.5 -105.5v-108h-416v67h73v164h66v-66z" />
    <glyph glyph-name="uni0621" unicode="&#x621;" horiz-adv-x="733" arabic-form="isolated" 
d="M670 0h-617v147h150q-35 42 -51.5 89t-16.5 104q0 78 26 136t68 96.5t96 57.5t111 19q60 0 102.5 -5t59.5 -11v-160q-32 14 -68.5 20.5t-76.5 6.5q-46 0 -78.5 -14.5t-53.5 -38.5t-30.5 -53.5t-9.5 -59.5q0 -39 11.5 -73.5t35.5 -59.5t61 -39.5t88 -14.5h193v-147z" />
    <glyph glyph-name="uni0622" unicode="&#x622;" horiz-adv-x="454" arabic-form="isolated" 
d="M314 1238v-1238h-174v1238h174zM-123 1522q48 29 94.5 41.5t82.5 12.5q51 0 96 -16.5t89.5 -36t90.5 -36t99 -16.5q28 0 63 6.5t83 28.5l23 -91q-47 -26 -89 -37.5t-95 -11.5q-60 0 -111.5 16.5t-97 36.5l-86.5 36.5t-81 16.5q-34 0 -69 -9.5t-69 -29.5z" />
    <glyph glyph-name="uniFE82" unicode="&#x622;" horiz-adv-x="463" arabic-form="final" 
d="M545 88q0 -51 -19 -69.5t-63 -18.5h-30q-65 0 -119 13.5t-92.5 46.5t-60 87.5t-21.5 135.5v954h174v-909q0 -43 5.5 -73t21.5 -49t44.5 -27.5t74.5 -8.5h4q42 0 61.5 -19.5t19.5 -62.5zM-123 1522q48 29 94.5 41.5t82.5 12.5q51 0 96 -16.5t89.5 -36t90.5 -36t99 -16.5
q28 0 63 6.5t83 28.5l23 -91q-47 -26 -89 -37.5t-95 -11.5q-60 0 -111.5 16.5t-97 36.5l-86.5 36.5t-81 16.5q-34 0 -69 -9.5t-69 -29.5z" />
    <glyph glyph-name="uni0623" unicode="&#x623;" horiz-adv-x="454" arabic-form="isolated" 
d="M314 1238v-1238h-174v1238h174zM415 1330h-375v93h92q-14 23 -21.5 48t-7.5 56q0 45 15 79t39.5 57t56 34.5t64.5 11.5q34 0 59.5 -4.5t38.5 -13.5v-94q-41 18 -88 18q-25 0 -42.5 -8t-29 -20.5t-17 -29t-5.5 -34.5q0 -42 26 -71t80 -29h115v-93z" />
    <glyph glyph-name="uniFE84" unicode="&#x623;" horiz-adv-x="463" arabic-form="final" 
d="M545 88q0 -51 -19 -69.5t-63 -18.5h-30q-65 0 -119 13.5t-92.5 46.5t-60 87.5t-21.5 135.5v954h174v-909q0 -43 5.5 -73t21.5 -49t44.5 -27.5t74.5 -8.5h4q42 0 61.5 -19.5t19.5 -62.5zM415 1330h-375v93h92q-14 23 -21.5 48t-7.5 56q0 45 15 79t39.5 57t56 34.5
t64.5 11.5q34 0 59.5 -4.5t38.5 -13.5v-94q-41 18 -88 18q-25 0 -42.5 -8t-29 -20.5t-17 -29t-5.5 -34.5q0 -42 26 -71t80 -29h115v-93z" />
    <glyph glyph-name="uni0624" unicode="&#x624;" horiz-adv-x="1035" arabic-form="isolated" 
d="M912 59q0 -147 -36.5 -243.5t-110 -154t-184.5 -80.5t-260 -23h-86v170h63q121 0 205.5 11.5t137 42t76 83.5t23.5 135v59q-37 -21 -96.5 -40t-146.5 -19q-79 0 -148 21t-120 67t-80 118t-29 174q0 82 26.5 161t78 140t127 98.5t173.5 37.5q109 0 183 -39.5t119.5 -110
t65 -168.5t19.5 -215v-225zM284 399q0 -59 17 -103t47 -73t72 -44t93 -15q77 0 136.5 20.5t90.5 44.5v94q0 71 -11.5 131.5t-38 105t-69 70t-104.5 25.5q-63 0 -107.5 -24t-72 -61.5t-40.5 -83t-13 -87.5zM718 1026h-446v109h104q-47 56 -47 139q0 57 18.5 99t49 70t70 42
t81.5 14q44 0 75.5 -5.5t43.5 -10.5v-111q-23 9 -49 14t-57 5q-32 0 -55.5 -10.5t-39 -28t-23 -39t-7.5 -43.5q0 -57 35 -96t106 -39h141v-109z" />
    <glyph glyph-name="uniFE86" unicode="&#x624;" horiz-adv-x="1056" arabic-form="final" 
d="M908 0q-8 -125 -45 -209.5t-107.5 -136t-178 -74t-256.5 -22.5h-86v170h63q121 0 204.5 11.5t135.5 42t76 83.5t26 135h-231q-83 0 -154 21t-123.5 66t-82 116t-29.5 171q0 85 27.5 164.5t79.5 141.5t127.5 99.5t170.5 37.5q107 0 181 -37.5t119.5 -107.5t66 -168.5
t20.5 -219.5v-114h144q42 0 62 -19.5t20 -62.5q0 -51 -19.5 -69.5t-62.5 -18.5h-148zM284 391q0 -103 61 -162t176 -59h219v153q0 75 -12 136.5t-39 105t-70.5 67t-105.5 23.5q-59 0 -102 -23.5t-71 -61t-42 -84.5t-14 -95zM738 1026h-446v109h104q-47 56 -47 139
q0 57 18.5 99t49 70t70 42t81.5 14q44 0 75.5 -5.5t43.5 -10.5v-111q-23 9 -49 14t-57 5q-32 0 -55.5 -10.5t-39 -28t-23 -39t-7.5 -43.5q0 -57 35 -96t106 -39h141v-109z" />
    <glyph glyph-name="uni0625" unicode="&#x625;" horiz-adv-x="454" arabic-form="isolated" 
d="M314 1429v-1429h-174v1429h174zM395 -500h-375v94h92q-14 23 -21.5 48.5t-7.5 54.5q0 45 15 79.5t39.5 57.5t56 35t64.5 12q34 0 59.5 -4.5t38.5 -13.5v-97q-39 19 -88 19q-25 0 -42.5 -8t-29 -20.5t-17 -29t-5.5 -34.5q0 -41 26 -70t80 -29h115v-94z" />
    <glyph glyph-name="uniFE88" unicode="&#x625;" horiz-adv-x="463" arabic-form="final" 
d="M545 88q0 -51 -19 -69.5t-63 -18.5h-30q-65 0 -119 13.5t-92.5 46.5t-60 87.5t-21.5 135.5v1146h174v-1101q0 -43 5.5 -73t21.5 -49t44.5 -27.5t74.5 -8.5h4q42 0 61.5 -19.5t19.5 -62.5zM409 -500h-375v94h92q-14 23 -21.5 48.5t-7.5 54.5q0 45 15 79.5t39.5 57.5t56 35
t64.5 12q34 0 59.5 -4.5t38.5 -13.5v-97q-39 19 -88 19q-25 0 -42.5 -8t-29 -20.5t-17 -29t-5.5 -34.5q0 -41 26 -70t80 -29h115v-94z" />
    <glyph glyph-name="uni0626" unicode="&#x626;" horiz-adv-x="1559" arabic-form="isolated" 
d="M224 156q0 -87 25 -155t87.5 -115t168 -72t267.5 -25q92 0 181.5 9t160.5 30t115 56.5t44 89.5q0 35 -18.5 61t-49.5 46.5t-70 38l-79.5 36.5t-79.5 41.5t-70 53.5t-49.5 72t-18.5 97q0 78 28 150t84.5 127t141 87.5t197.5 32.5q34 0 65 -4.5t55 -10.5t40 -11.5t20 -8.5
v-172q-42 13 -90 21t-94 8q-68 0 -119.5 -14t-86 -39.5t-51.5 -61t-17 -78.5q0 -37 19.5 -63.5t51 -47t72.5 -38l83 -35t83 -38.5t72.5 -49.5t51 -66t19.5 -89.5q0 -85 -35.5 -158t-116 -127t-210 -84.5t-316.5 -30.5q-211 0 -352.5 38t-226.5 105t-120.5 158.5t-35.5 198.5
v205h174v-168zM515 516h-446v109h104q-47 56 -47 139q0 57 18.5 99t49 70t70 42t81.5 14q44 0 75.5 -5.5t43.5 -10.5v-111q-23 9 -49 14t-57 5q-32 0 -55.5 -10.5t-39 -28t-23 -39t-7.5 -43.5q0 -57 35 -96t106 -39h141v-109z" />
    <glyph glyph-name="uniFE8B" unicode="&#x626;" horiz-adv-x="627" arabic-form="initial" 
d="M0 0q-42 0 -62 19.5t-20 62.5q0 51 19.5 69.5t62.5 18.5h313v618h174v-788h-487zM593 1026h-446v109h104q-47 56 -47 139q0 57 18.5 99t49 70t70 42t81.5 14q44 0 75.5 -5.5t43.5 -10.5v-111q-23 9 -49 14t-57 5q-32 0 -55.5 -10.5t-39 -28t-23 -39t-7.5 -43.5
q0 -57 35 -96t106 -39h141v-109z" />
    <glyph glyph-name="uniFE8C" unicode="&#x626;" horiz-adv-x="680" arabic-form="medial" 
d="M0 0q-42 0 -62 19.5t-20 62.5q0 51 19.5 69.5t62.5 18.5h154q37 0 68 4t52.5 19t33.5 45t12 81v469h176v-393q0 -51 8.5 -93t29.5 -71t56.5 -45t89.5 -16q42 0 62 -19.5t20 -62.5q0 -51 -19.5 -69.5t-62.5 -18.5q-33 0 -66 8.5t-61 24t-49.5 36.5t-33.5 46
q-20 -37 -51.5 -59.5t-67.5 -35t-74.5 -16.5t-72.5 -4h-204zM625 1026h-446v109h104q-47 56 -47 139q0 57 18.5 99t49 70t70 42t81.5 14q44 0 75.5 -5.5t43.5 -10.5v-111q-23 9 -49 14t-57 5q-32 0 -55.5 -10.5t-39 -28t-23 -39t-7.5 -43.5q0 -57 35 -96t106 -39h141v-109z
" />
    <glyph glyph-name="uniFE8A" unicode="&#x626;" horiz-adv-x="1504" arabic-form="final" 
d="M1483 0q3 -5 6 -16t3 -19q0 -62 -39.5 -118t-123.5 -98t-216.5 -67t-318.5 -25q-207 0 -349 37.5t-229.5 103.5t-126.5 155.5t-39 193.5v177h174v-146q0 -183 146 -267t428 -84q105 0 202.5 8t172.5 27t120 50.5t45 78.5q0 30 -29 62.5t-105 79.5l-277 174l86 140
l251 -161l54 -34t66 -38t66.5 -31t55.5 -13q42 0 62 -19.5t20 -62.5q0 -51 -19.5 -69.5t-62.5 -18.5h-23zM515 516h-446v109h104q-47 56 -47 139q0 57 18.5 99t49 70t70 42t81.5 14q44 0 75.5 -5.5t43.5 -10.5v-111q-23 9 -49 14t-57 5q-32 0 -55.5 -10.5t-39 -28t-23 -39
t-7.5 -43.5q0 -57 35 -96t106 -39h141v-109z" />
    <glyph glyph-name="uni0627" unicode="&#x627;" horiz-adv-x="454" arabic-form="isolated" 
d="M314 1429v-1429h-174v1429h174z" />
    <glyph glyph-name="uniFE8E" unicode="&#x627;" horiz-adv-x="463" arabic-form="final" 
d="M545 88q0 -51 -19 -69.5t-63 -18.5h-30q-65 0 -119 13.5t-92.5 46.5t-60 87.5t-21.5 135.5v1146h174v-1101q0 -43 5.5 -73t21.5 -49t44.5 -27.5t74.5 -8.5h4q42 0 61.5 -19.5t19.5 -62.5z" />
    <glyph glyph-name="uni0628" unicode="&#x628;" horiz-adv-x="1845" arabic-form="isolated" 
d="M1705 0h-1241q-119 0 -198.5 16t-127.5 52t-68 93t-20 138v317h174v-256q0 -63 15 -100.5t52.5 -57.5t101 -26t161.5 -6h977v618h174v-788zM793 -333q0 22 8.5 41.5t23.5 34.5t34.5 23.5t42.5 8.5q22 0 41.5 -8.5t34.5 -23.5t23.5 -34.5t8.5 -41.5q0 -23 -8.5 -42.5
t-23.5 -34.5t-34.5 -23.5t-41.5 -8.5q-23 0 -42.5 8.5t-34.5 23.5t-23.5 34.5t-8.5 42.5z" />
    <glyph glyph-name="uniFE91" unicode="&#x628;" horiz-adv-x="627" arabic-form="initial" 
d="M0 0q-42 0 -62 19.5t-20 62.5q0 51 19.5 69.5t62.5 18.5h313v618h174v-788h-487zM260 -327q0 22 8.5 41.5t23.5 34.5t34.5 23.5t42.5 8.5q22 0 41.5 -8.5t34.5 -23.5t23.5 -34.5t8.5 -41.5q0 -23 -8.5 -42.5t-23.5 -34.5t-34.5 -23.5t-41.5 -8.5q-23 0 -42.5 8.5
t-34.5 23.5t-23.5 34.5t-8.5 42.5z" />
    <glyph glyph-name="uniFE92" unicode="&#x628;" horiz-adv-x="680" arabic-form="medial" 
d="M0 0q-42 0 -62 19.5t-20 62.5q0 51 19.5 69.5t62.5 18.5h154q37 0 68 4t52.5 19t33.5 45t12 81v469h176v-393q0 -51 8.5 -93t29.5 -71t56.5 -45t89.5 -16q42 0 62 -19.5t20 -62.5q0 -51 -19.5 -69.5t-62.5 -18.5q-33 0 -66 8.5t-61 24t-49.5 36.5t-33.5 46
q-20 -37 -51.5 -59.5t-67.5 -35t-74.5 -16.5t-72.5 -4h-204zM264 -327q0 22 8.5 41.5t23.5 34.5t34.5 23.5t42.5 8.5q22 0 41.5 -8.5t34.5 -23.5t23.5 -34.5t8.5 -41.5q0 -23 -8.5 -42.5t-23.5 -34.5t-34.5 -23.5t-41.5 -8.5q-23 0 -42.5 8.5t-34.5 23.5t-23.5 34.5
t-8.5 42.5z" />
    <glyph glyph-name="uniFE90" unicode="&#x628;" horiz-adv-x="1890" arabic-form="final" 
d="M464 0q-119 0 -198.5 16t-127.5 52t-68 93t-20 138v317h174v-256q0 -63 15 -100.5t52.5 -57.5t101 -26t161.5 -6h811q37 0 68 4t52.5 19t33.5 45t12 81v469h176v-393q0 -51 7 -93t26.5 -71t54 -45t88.5 -16q42 0 62 -19.5t20 -62.5q0 -51 -19.5 -69.5t-62.5 -18.5
q-33 0 -64.5 8.5t-58 24t-47 36.5t-32.5 46q-20 -37 -51.5 -59.5t-67.5 -35t-74.5 -16.5t-72.5 -4h-951zM779 -334q0 22 8.5 41.5t23.5 34.5t34.5 23.5t42.5 8.5q22 0 41.5 -8.5t34.5 -23.5t23.5 -34.5t8.5 -41.5q0 -23 -8.5 -42.5t-23.5 -34.5t-34.5 -23.5t-41.5 -8.5
q-23 0 -42.5 8.5t-34.5 23.5t-23.5 34.5t-8.5 42.5z" />
    <glyph glyph-name="uni0629" unicode="&#x629;" horiz-adv-x="954" arabic-form="isolated" 
d="M440 651q-51 0 -94.5 -22t-75 -59.5t-49 -87.5t-17.5 -107q0 -56 19 -97t51 -67.5t74.5 -39.5t89.5 -13q45 0 86.5 12.5t73.5 39.5t51 68t19 98q0 63 -18.5 114t-50 87t-73 55t-86.5 19zM30 358q0 101 30 185.5t84 145t129.5 94.5t166.5 34t165.5 -33.5t127.5 -91.5
t82 -136.5t29 -169.5q0 -103 -30.5 -178t-84.5 -123.5t-128 -71.5t-161 -23q-90 0 -165 23t-129.5 69t-85 115t-30.5 161zM181 1133q0 22 8.5 41.5t23.5 34.5t34.5 23.5t42.5 8.5q22 0 41.5 -8.5t34.5 -23.5t23.5 -34.5t8.5 -41.5q0 -23 -8.5 -42.5t-23.5 -34.5t-34.5 -23.5
t-41.5 -8.5q-23 0 -42.5 8.5t-34.5 23.5t-23.5 34.5t-8.5 42.5zM447 1133q0 22 8.5 41.5t23.5 34.5t34.5 23.5t42.5 8.5q22 0 41.5 -8.5t34.5 -23.5t23.5 -34.5t8.5 -41.5q0 -23 -8.5 -42.5t-23.5 -34.5t-34.5 -23.5t-41.5 -8.5q-23 0 -42.5 8.5t-34.5 23.5t-23.5 34.5
t-8.5 42.5z" />
    <glyph glyph-name="uniFE94" unicode="&#x629;" horiz-adv-x="969" arabic-form="final" 
d="M204 535q0 -42 12 -77.5t38 -61t67 -40t100 -14.5q22 0 48 2.5t51.5 7.5t49.5 11.5t44 15.5v364h-182q-50 0 -91.5 -12t-72 -37.5t-47.5 -65t-17 -93.5zM407 168q-37 0 -79 5.5t-84 20.5t-80.5 40t-68.5 64.5t-47.5 94t-17.5 127.5q0 110 36.5 185.5t96.5 122t136 67
t155 20.5h332v-587q0 -43 5.5 -73t21 -49t44 -27.5t74.5 -8.5h38q42 0 62 -19.5t20 -62.5q0 -51 -19 -69.5t-63 -18.5h-64q-53 0 -101 9t-86.5 32.5t-65 63t-34.5 100.5q-45 -16 -101 -26.5t-110 -10.5zM239 1289q0 22 8.5 41.5t23.5 34.5t34.5 23.5t42.5 8.5
q22 0 41.5 -8.5t34.5 -23.5t23.5 -34.5t8.5 -41.5q0 -23 -8.5 -42.5t-23.5 -34.5t-34.5 -23.5t-41.5 -8.5q-23 0 -42.5 8.5t-34.5 23.5t-23.5 34.5t-8.5 42.5zM505 1289q0 22 8.5 41.5t23.5 34.5t34.5 23.5t42.5 8.5q22 0 41.5 -8.5t34.5 -23.5t23.5 -34.5t8.5 -41.5
q0 -23 -8.5 -42.5t-23.5 -34.5t-34.5 -23.5t-41.5 -8.5q-23 0 -42.5 8.5t-34.5 23.5t-23.5 34.5t-8.5 42.5z" />
    <glyph glyph-name="uni062A" unicode="&#x62a;" horiz-adv-x="1845" arabic-form="isolated" 
d="M1705 0h-1241q-119 0 -198.5 16t-127.5 52t-68 93t-20 138v317h174v-256q0 -63 15 -100.5t52.5 -57.5t101 -26t161.5 -6h977v618h174v-788zM648 1011q0 22 8.5 41.5t23.5 34.5t34.5 23.5t42.5 8.5q22 0 41.5 -8.5t34.5 -23.5t23.5 -34.5t8.5 -41.5q0 -23 -8.5 -42.5
t-23.5 -34.5t-34.5 -23.5t-41.5 -8.5q-23 0 -42.5 8.5t-34.5 23.5t-23.5 34.5t-8.5 42.5zM914 1011q0 22 8.5 41.5t23.5 34.5t34.5 23.5t42.5 8.5q22 0 41.5 -8.5t34.5 -23.5t23.5 -34.5t8.5 -41.5q0 -23 -8.5 -42.5t-23.5 -34.5t-34.5 -23.5t-41.5 -8.5q-23 0 -42.5 8.5
t-34.5 23.5t-23.5 34.5t-8.5 42.5z" />
    <glyph glyph-name="uniFE97" unicode="&#x62a;" horiz-adv-x="627" arabic-form="initial" 
d="M0 0q-42 0 -62 19.5t-20 62.5q0 51 19.5 69.5t62.5 18.5h313v618h174v-788h-487zM137 1133q0 22 8.5 41.5t23.5 34.5t34.5 23.5t42.5 8.5q22 0 41.5 -8.5t34.5 -23.5t23.5 -34.5t8.5 -41.5q0 -23 -8.5 -42.5t-23.5 -34.5t-34.5 -23.5t-41.5 -8.5q-23 0 -42.5 8.5
t-34.5 23.5t-23.5 34.5t-8.5 42.5zM403 1133q0 22 8.5 41.5t23.5 34.5t34.5 23.5t42.5 8.5q22 0 41.5 -8.5t34.5 -23.5t23.5 -34.5t8.5 -41.5q0 -23 -8.5 -42.5t-23.5 -34.5t-34.5 -23.5t-41.5 -8.5q-23 0 -42.5 8.5t-34.5 23.5t-23.5 34.5t-8.5 42.5z" />
    <glyph glyph-name="uniFE98" unicode="&#x62a;" horiz-adv-x="680" arabic-form="medial" 
d="M0 0q-42 0 -62 19.5t-20 62.5q0 51 19.5 69.5t62.5 18.5h154q37 0 68 4t52.5 19t33.5 45t12 81v469h176v-393q0 -51 8.5 -93t29.5 -71t56.5 -45t89.5 -16q42 0 62 -19.5t20 -62.5q0 -51 -19.5 -69.5t-62.5 -18.5q-33 0 -66 8.5t-61 24t-49.5 36.5t-33.5 46
q-20 -37 -51.5 -59.5t-67.5 -35t-74.5 -16.5t-72.5 -4h-204zM162 1133q0 22 8.5 41.5t23.5 34.5t34.5 23.5t42.5 8.5q22 0 41.5 -8.5t34.5 -23.5t23.5 -34.5t8.5 -41.5q0 -23 -8.5 -42.5t-23.5 -34.5t-34.5 -23.5t-41.5 -8.5q-23 0 -42.5 8.5t-34.5 23.5t-23.5 34.5
t-8.5 42.5zM428 1133q0 22 8.5 41.5t23.5 34.5t34.5 23.5t42.5 8.5q22 0 41.5 -8.5t34.5 -23.5t23.5 -34.5t8.5 -41.5q0 -23 -8.5 -42.5t-23.5 -34.5t-34.5 -23.5t-41.5 -8.5q-23 0 -42.5 8.5t-34.5 23.5t-23.5 34.5t-8.5 42.5z" />
    <glyph glyph-name="uniFE96" unicode="&#x62a;" horiz-adv-x="1890" arabic-form="final" 
d="M464 0q-119 0 -198.5 16t-127.5 52t-68 93t-20 138v317h174v-256q0 -63 15 -100.5t52.5 -57.5t101 -26t161.5 -6h811q37 0 68 4t52.5 19t33.5 45t12 81v469h176v-393q0 -51 7 -93t26.5 -71t54 -45t88.5 -16q42 0 62 -19.5t20 -62.5q0 -51 -19.5 -69.5t-62.5 -18.5
q-33 0 -64.5 8.5t-58 24t-47 36.5t-32.5 46q-20 -37 -51.5 -59.5t-67.5 -35t-74.5 -16.5t-72.5 -4h-951zM642 1011q0 22 8.5 41.5t23.5 34.5t34.5 23.5t42.5 8.5q22 0 41.5 -8.5t34.5 -23.5t23.5 -34.5t8.5 -41.5q0 -23 -8.5 -42.5t-23.5 -34.5t-34.5 -23.5t-41.5 -8.5
q-23 0 -42.5 8.5t-34.5 23.5t-23.5 34.5t-8.5 42.5zM908 1011q0 22 8.5 41.5t23.5 34.5t34.5 23.5t42.5 8.5q22 0 41.5 -8.5t34.5 -23.5t23.5 -34.5t8.5 -41.5q0 -23 -8.5 -42.5t-23.5 -34.5t-34.5 -23.5t-41.5 -8.5q-23 0 -42.5 8.5t-34.5 23.5t-23.5 34.5t-8.5 42.5z" />
    <glyph glyph-name="uni062B" unicode="&#x62b;" horiz-adv-x="1845" arabic-form="isolated" 
d="M1705 0h-1241q-119 0 -198.5 16t-127.5 52t-68 93t-20 138v317h174v-256q0 -63 15 -100.5t52.5 -57.5t101 -26t161.5 -6h977v618h174v-788zM642 1011q0 22 8.5 41.5t23.5 34.5t34.5 23.5t42.5 8.5q22 0 41.5 -8.5t34.5 -23.5t23.5 -34.5t8.5 -41.5q0 -23 -8.5 -42.5
t-23.5 -34.5t-34.5 -23.5t-41.5 -8.5q-23 0 -42.5 8.5t-34.5 23.5t-23.5 34.5t-8.5 42.5zM908 1011q0 22 8.5 41.5t23.5 34.5t34.5 23.5t42.5 8.5q22 0 41.5 -8.5t34.5 -23.5t23.5 -34.5t8.5 -41.5q0 -23 -8.5 -42.5t-23.5 -34.5t-34.5 -23.5t-41.5 -8.5q-23 0 -42.5 8.5
t-34.5 23.5t-23.5 34.5t-8.5 42.5zM779 1256q0 22 8.5 42t23.5 35t34.5 23.5t42.5 8.5q22 0 41.5 -8.5t34.5 -23.5t23.5 -35t8.5 -42t-8.5 -41.5t-23.5 -34.5t-34.5 -23.5t-41.5 -8.5q-23 0 -42.5 8.5t-34.5 23.5t-23.5 34.5t-8.5 41.5z" />
    <glyph glyph-name="uniFE9B" unicode="&#x62b;" horiz-adv-x="627" arabic-form="initial" 
d="M0 0q-42 0 -62 19.5t-20 62.5q0 51 19.5 69.5t62.5 18.5h313v618h174v-788h-487zM139 1133q0 22 8.5 41.5t23.5 34.5t34.5 23.5t42.5 8.5q22 0 41.5 -8.5t34.5 -23.5t23.5 -34.5t8.5 -41.5q0 -23 -8.5 -42.5t-23.5 -34.5t-34.5 -23.5t-41.5 -8.5q-23 0 -42.5 8.5
t-34.5 23.5t-23.5 34.5t-8.5 42.5zM405 1133q0 22 8.5 41.5t23.5 34.5t34.5 23.5t42.5 8.5q22 0 41.5 -8.5t34.5 -23.5t23.5 -34.5t8.5 -41.5q0 -23 -8.5 -42.5t-23.5 -34.5t-34.5 -23.5t-41.5 -8.5q-23 0 -42.5 8.5t-34.5 23.5t-23.5 34.5t-8.5 42.5zM276 1378q0 22 8.5 42
t23.5 35t34.5 23.5t42.5 8.5q22 0 41.5 -8.5t34.5 -23.5t23.5 -35t8.5 -42t-8.5 -41.5t-23.5 -34.5t-34.5 -23.5t-41.5 -8.5q-23 0 -42.5 8.5t-34.5 23.5t-23.5 34.5t-8.5 41.5z" />
    <glyph glyph-name="uniFE9C" unicode="&#x62b;" horiz-adv-x="680" arabic-form="medial" 
d="M0 0q-42 0 -62 19.5t-20 62.5q0 51 19.5 69.5t62.5 18.5h154q37 0 68 4t52.5 19t33.5 45t12 81v469h176v-393q0 -51 8.5 -93t29.5 -71t56.5 -45t89.5 -16q42 0 62 -19.5t20 -62.5q0 -51 -19.5 -69.5t-62.5 -18.5q-33 0 -66 8.5t-61 24t-49.5 36.5t-33.5 46
q-20 -37 -51.5 -59.5t-67.5 -35t-74.5 -16.5t-72.5 -4h-204zM166 1133q0 22 8.5 41.5t23.5 34.5t34.5 23.5t42.5 8.5q22 0 41.5 -8.5t34.5 -23.5t23.5 -34.5t8.5 -41.5q0 -23 -8.5 -42.5t-23.5 -34.5t-34.5 -23.5t-41.5 -8.5q-23 0 -42.5 8.5t-34.5 23.5t-23.5 34.5
t-8.5 42.5zM432 1133q0 22 8.5 41.5t23.5 34.5t34.5 23.5t42.5 8.5q22 0 41.5 -8.5t34.5 -23.5t23.5 -34.5t8.5 -41.5q0 -23 -8.5 -42.5t-23.5 -34.5t-34.5 -23.5t-41.5 -8.5q-23 0 -42.5 8.5t-34.5 23.5t-23.5 34.5t-8.5 42.5zM303 1378q0 22 8.5 42t23.5 35t34.5 23.5
t42.5 8.5q22 0 41.5 -8.5t34.5 -23.5t23.5 -35t8.5 -42t-8.5 -41.5t-23.5 -34.5t-34.5 -23.5t-41.5 -8.5q-23 0 -42.5 8.5t-34.5 23.5t-23.5 34.5t-8.5 41.5z" />
    <glyph glyph-name="uniFE9A" unicode="&#x62b;" horiz-adv-x="1890" arabic-form="final" 
d="M464 0q-119 0 -198.5 16t-127.5 52t-68 93t-20 138v317h174v-256q0 -63 15 -100.5t52.5 -57.5t101 -26t161.5 -6h811q37 0 68 4t52.5 19t33.5 45t12 81v469h176v-393q0 -51 7 -93t26.5 -71t54 -45t88.5 -16q42 0 62 -19.5t20 -62.5q0 -51 -19.5 -69.5t-62.5 -18.5
q-33 0 -64.5 8.5t-58 24t-47 36.5t-32.5 46q-20 -37 -51.5 -59.5t-67.5 -35t-74.5 -16.5t-72.5 -4h-951zM644 1011q0 22 8.5 41.5t23.5 34.5t34.5 23.5t42.5 8.5q22 0 41.5 -8.5t34.5 -23.5t23.5 -34.5t8.5 -41.5q0 -23 -8.5 -42.5t-23.5 -34.5t-34.5 -23.5t-41.5 -8.5
q-23 0 -42.5 8.5t-34.5 23.5t-23.5 34.5t-8.5 42.5zM910 1011q0 22 8.5 41.5t23.5 34.5t34.5 23.5t42.5 8.5q22 0 41.5 -8.5t34.5 -23.5t23.5 -34.5t8.5 -41.5q0 -23 -8.5 -42.5t-23.5 -34.5t-34.5 -23.5t-41.5 -8.5q-23 0 -42.5 8.5t-34.5 23.5t-23.5 34.5t-8.5 42.5z
M781 1256q0 22 8.5 42t23.5 35t34.5 23.5t42.5 8.5q22 0 41.5 -8.5t34.5 -23.5t23.5 -35t8.5 -42t-8.5 -41.5t-23.5 -34.5t-34.5 -23.5t-41.5 -8.5q-23 0 -42.5 8.5t-34.5 23.5t-23.5 34.5t-8.5 41.5z" />
    <glyph glyph-name="uni062C" unicode="&#x62c;" horiz-adv-x="1234" arabic-form="isolated" 
d="M947 170q0 130 -34.5 221t-93.5 147t-138.5 81.5t-169.5 25.5q-30 0 -62.5 -3t-63.5 -8t-59.5 -11.5t-49.5 -12.5v164q40 13 107.5 28t148.5 15q104 0 188.5 -24.5t150.5 -68t113.5 -105t78.5 -135.5t46 -159t15 -175v-150h-732q-40 0 -74 -7t-58.5 -21.5t-38.5 -36.5
t-14 -53q0 -32 23 -63t64 -61.5t98 -61t126 -61.5l-82 -154q-98 39 -173.5 85t-127 97t-78.5 106.5t-27 112.5q0 77 29.5 132t82.5 89.5t125.5 50.5t159.5 16h520zM683 -333q0 22 8.5 41.5t23.5 34.5t34.5 23.5t42.5 8.5q22 0 41.5 -8.5t34.5 -23.5t23.5 -34.5t8.5 -41.5
q0 -23 -8.5 -42.5t-23.5 -34.5t-34.5 -23.5t-41.5 -8.5q-23 0 -42.5 8.5t-34.5 23.5t-23.5 34.5t-8.5 42.5z" />
    <glyph glyph-name="uniFE9F" unicode="&#x62c;" horiz-adv-x="1107" arabic-form="initial" 
d="M821 170q0 130 -34.5 221t-93.5 147t-138.5 81.5t-169.5 25.5q-30 0 -62.5 -3t-63.5 -8t-59.5 -11.5t-49.5 -12.5v164q40 13 107.5 28t148.5 15q156 0 268 -53.5t184 -144.5t105.5 -212t33.5 -257v-150h-997q-42 0 -62 19.5t-20 62.5q0 51 19.5 69.5t62.5 18.5h821z
M323 -329q0 22 8.5 41.5t23.5 34.5t34.5 23.5t42.5 8.5q22 0 41.5 -8.5t34.5 -23.5t23.5 -34.5t8.5 -41.5q0 -23 -8.5 -42.5t-23.5 -34.5t-34.5 -23.5t-41.5 -8.5q-23 0 -42.5 8.5t-34.5 23.5t-23.5 34.5t-8.5 42.5z" />
    <glyph glyph-name="uniFEA0" unicode="&#x62c;" horiz-adv-x="1113" arabic-form="medial" 
d="M0 0q-42 0 -62 19.5t-20 62.5q0 51 19.5 69.5t62.5 18.5h821q0 130 -34.5 221t-93.5 147t-138.5 81.5t-169.5 25.5q-30 0 -62.5 -3t-63.5 -8t-59.5 -11.5t-49.5 -12.5v164q40 13 107.5 28t148.5 15q153 0 264 -51.5t183 -140t107 -206t37 -249.5h117q42 0 62 -19.5
t20 -62.5q0 -51 -19 -69.5t-63 -18.5h-1114zM323 -329q0 22 8.5 41.5t23.5 34.5t34.5 23.5t42.5 8.5q22 0 41.5 -8.5t34.5 -23.5t23.5 -34.5t8.5 -41.5q0 -23 -8.5 -42.5t-23.5 -34.5t-34.5 -23.5t-41.5 -8.5q-23 0 -42.5 8.5t-34.5 23.5t-23.5 34.5t-8.5 42.5z" />
    <glyph glyph-name="uniFE9E" unicode="&#x62c;" horiz-adv-x="1240" arabic-form="final" 
d="M393 0q-40 0 -74 -7t-58.5 -21.5t-38.5 -36.5t-14 -53q0 -32 23 -63t64 -61.5t98 -61t126 -61.5l-82 -154q-98 39 -173.5 85t-127 97t-78.5 106.5t-27 112.5q0 77 29.5 132t82.5 89.5t125.5 50.5t159.5 16h519q0 130 -34.5 221t-93.5 147t-138.5 81.5t-169.5 25.5
q-30 0 -62.5 -3t-63.5 -8t-59.5 -11.5t-49.5 -12.5v164q40 13 107.5 28t148.5 15q153 0 264 -51.5t183 -140t107 -206t38 -249.5h115q42 0 61.5 -19.5t19.5 -62.5q0 -51 -19 -69.5t-62 -18.5h-846zM683 -333q0 22 8.5 41.5t23.5 34.5t34.5 23.5t42.5 8.5q22 0 41.5 -8.5
t34.5 -23.5t23.5 -34.5t8.5 -41.5q0 -23 -8.5 -42.5t-23.5 -34.5t-34.5 -23.5t-41.5 -8.5q-23 0 -42.5 8.5t-34.5 23.5t-23.5 34.5t-8.5 42.5z" />
    <glyph glyph-name="uni062D" unicode="&#x62d;" horiz-adv-x="1234" arabic-form="isolated" 
d="M947 170q0 130 -34.5 221t-93.5 147t-138.5 81.5t-169.5 25.5q-30 0 -62.5 -3t-63.5 -8t-59.5 -11.5t-49.5 -12.5v164q40 13 107.5 28t148.5 15q104 0 188.5 -24.5t150.5 -68t113.5 -105t78.5 -135.5t46 -159t15 -175v-150h-732q-40 0 -74 -7t-58.5 -21.5t-38.5 -36.5
t-14 -53q0 -32 23 -63t64 -61.5t98 -61t126 -61.5l-82 -154q-98 39 -173.5 85t-127 97t-78.5 106.5t-27 112.5q0 77 29.5 132t82.5 89.5t125.5 50.5t159.5 16h520z" />
    <glyph glyph-name="uniFEA3" unicode="&#x62d;" horiz-adv-x="1107" arabic-form="initial" 
d="M821 170q0 130 -34.5 221t-93.5 147t-138.5 81.5t-169.5 25.5q-30 0 -62.5 -3t-63.5 -8t-59.5 -11.5t-49.5 -12.5v164q40 13 107.5 28t148.5 15q156 0 268 -53.5t184 -144.5t105.5 -212t33.5 -257v-150h-997q-42 0 -62 19.5t-20 62.5q0 51 19.5 69.5t62.5 18.5h821z" />
    <glyph glyph-name="uniFEA4" unicode="&#x62d;" horiz-adv-x="1113" arabic-form="medial" 
d="M0 0q-42 0 -62 19.5t-20 62.5q0 51 19.5 69.5t62.5 18.5h821q0 130 -34.5 221t-93.5 147t-138.5 81.5t-169.5 25.5q-30 0 -62.5 -3t-63.5 -8t-59.5 -11.5t-49.5 -12.5v164q40 13 107.5 28t148.5 15q153 0 264 -51.5t183 -140t107 -206t37 -249.5h117q42 0 62 -19.5
t20 -62.5q0 -51 -19 -69.5t-63 -18.5h-1114z" />
    <glyph glyph-name="uniFEA2" unicode="&#x62d;" horiz-adv-x="1240" arabic-form="final" 
d="M393 0q-40 0 -74 -7t-58.5 -21.5t-38.5 -36.5t-14 -53q0 -32 23 -63t64 -61.5t98 -61t126 -61.5l-82 -154q-98 39 -173.5 85t-127 97t-78.5 106.5t-27 112.5q0 77 29.5 132t82.5 89.5t125.5 50.5t159.5 16h519q0 130 -34.5 221t-93.5 147t-138.5 81.5t-169.5 25.5
q-30 0 -62.5 -3t-63.5 -8t-59.5 -11.5t-49.5 -12.5v164q40 13 107.5 28t148.5 15q153 0 264 -51.5t183 -140t107 -206t38 -249.5h115q42 0 61.5 -19.5t19.5 -62.5q0 -51 -19 -69.5t-62 -18.5h-846z" />
    <glyph glyph-name="uni062E" unicode="&#x62e;" horiz-adv-x="1234" arabic-form="isolated" 
d="M947 170q0 130 -34.5 221t-93.5 147t-138.5 81.5t-169.5 25.5q-30 0 -62.5 -3t-63.5 -8t-59.5 -11.5t-49.5 -12.5v164q40 13 107.5 28t148.5 15q104 0 188.5 -24.5t150.5 -68t113.5 -105t78.5 -135.5t46 -159t15 -175v-150h-732q-40 0 -74 -7t-58.5 -21.5t-38.5 -36.5
t-14 -53q0 -32 23 -63t64 -61.5t98 -61t126 -61.5l-82 -154q-98 39 -173.5 85t-127 97t-78.5 106.5t-27 112.5q0 77 29.5 132t82.5 89.5t125.5 50.5t159.5 16h520zM521 1133q0 22 8.5 41.5t23.5 34.5t34.5 23.5t42.5 8.5q22 0 41.5 -8.5t34.5 -23.5t23.5 -34.5t8.5 -41.5
q0 -23 -8.5 -42.5t-23.5 -34.5t-34.5 -23.5t-41.5 -8.5q-23 0 -42.5 8.5t-34.5 23.5t-23.5 34.5t-8.5 42.5z" />
    <glyph glyph-name="uniFEA7" unicode="&#x62e;" horiz-adv-x="1107" arabic-form="initial" 
d="M821 170q0 130 -34.5 221t-93.5 147t-138.5 81.5t-169.5 25.5q-30 0 -62.5 -3t-63.5 -8t-59.5 -11.5t-49.5 -12.5v164q40 13 107.5 28t148.5 15q156 0 268 -53.5t184 -144.5t105.5 -212t33.5 -257v-150h-997q-42 0 -62 19.5t-20 62.5q0 51 19.5 69.5t62.5 18.5h821z
M313 1130q0 22 8.5 41.5t23.5 34.5t34.5 23.5t42.5 8.5q22 0 41.5 -8.5t34.5 -23.5t23.5 -34.5t8.5 -41.5q0 -23 -8.5 -42.5t-23.5 -34.5t-34.5 -23.5t-41.5 -8.5q-23 0 -42.5 8.5t-34.5 23.5t-23.5 34.5t-8.5 42.5z" />
    <glyph glyph-name="uniFEA8" unicode="&#x62e;" horiz-adv-x="1113" arabic-form="medial" 
d="M0 0q-42 0 -62 19.5t-20 62.5q0 51 19.5 69.5t62.5 18.5h821q0 130 -34.5 221t-93.5 147t-138.5 81.5t-169.5 25.5q-30 0 -62.5 -3t-63.5 -8t-59.5 -11.5t-49.5 -12.5v164q40 13 107.5 28t148.5 15q153 0 264 -51.5t183 -140t107 -206t37 -249.5h117q42 0 62 -19.5
t20 -62.5q0 -51 -19 -69.5t-63 -18.5h-1114zM313 1130q0 22 8.5 41.5t23.5 34.5t34.5 23.5t42.5 8.5q22 0 41.5 -8.5t34.5 -23.5t23.5 -34.5t8.5 -41.5q0 -23 -8.5 -42.5t-23.5 -34.5t-34.5 -23.5t-41.5 -8.5q-23 0 -42.5 8.5t-34.5 23.5t-23.5 34.5t-8.5 42.5z" />
    <glyph glyph-name="uniFEA6" unicode="&#x62e;" horiz-adv-x="1240" arabic-form="final" 
d="M393 0q-40 0 -74 -7t-58.5 -21.5t-38.5 -36.5t-14 -53q0 -32 23 -63t64 -61.5t98 -61t126 -61.5l-82 -154q-98 39 -173.5 85t-127 97t-78.5 106.5t-27 112.5q0 77 29.5 132t82.5 89.5t125.5 50.5t159.5 16h519q0 130 -34.5 221t-93.5 147t-138.5 81.5t-169.5 25.5
q-30 0 -62.5 -3t-63.5 -8t-59.5 -11.5t-49.5 -12.5v164q40 13 107.5 28t148.5 15q153 0 264 -51.5t183 -140t107 -206t38 -249.5h115q42 0 61.5 -19.5t19.5 -62.5q0 -51 -19 -69.5t-62 -18.5h-846zM521 1132q0 22 8.5 41.5t23.5 34.5t34.5 23.5t42.5 8.5q22 0 41.5 -8.5
t34.5 -23.5t23.5 -34.5t8.5 -41.5q0 -23 -8.5 -42.5t-23.5 -34.5t-34.5 -23.5t-41.5 -8.5q-23 0 -42.5 8.5t-34.5 23.5t-23.5 34.5t-8.5 42.5z" />
    <glyph glyph-name="uni062F" unicode="&#x62f;" horiz-adv-x="927" arabic-form="isolated" 
d="M774 384q38 -62 42 -129.5t-24.5 -124t-89 -93.5t-151.5 -37h-490v170h475q33 0 57.5 10.5t36 31t7.5 50t-29 68.5l-263 411l151 95z" />
    <glyph glyph-name="uniFEAA" unicode="&#x62f;" horiz-adv-x="979" arabic-form="final" 
d="M979 0q-83 0 -137 29t-86 86q-20 -38 -45 -61t-54 -35t-61.5 -15.5t-66.5 -3.5h-468v170h457q61 0 87.5 17.5t31 42.5t-5.5 52.5t-23 47.5l-263 411l151 95l249 -405l72.5 -116t58 -81.5t51 -48t52.5 -15.5q42 0 62 -19.5t20 -62.5q0 -51 -19 -69.5t-63 -18.5z" />
    <glyph glyph-name="uni0630" unicode="&#x630;" horiz-adv-x="927" arabic-form="isolated" 
d="M774 384q38 -62 42 -129.5t-24.5 -124t-89 -93.5t-151.5 -37h-490v170h475q33 0 57.5 10.5t36 31t7.5 50t-29 68.5l-263 411l151 95zM295 1133q0 22 8.5 41.5t23.5 34.5t34.5 23.5t42.5 8.5q22 0 41.5 -8.5t34.5 -23.5t23.5 -34.5t8.5 -41.5q0 -23 -8.5 -42.5
t-23.5 -34.5t-34.5 -23.5t-41.5 -8.5q-23 0 -42.5 8.5t-34.5 23.5t-23.5 34.5t-8.5 42.5z" />
    <glyph glyph-name="uniFEAC" unicode="&#x630;" horiz-adv-x="979" arabic-form="final" 
d="M979 0q-83 0 -137 29t-86 86q-20 -38 -45 -61t-54 -35t-61.5 -15.5t-66.5 -3.5h-468v170h457q61 0 87.5 17.5t31 42.5t-5.5 52.5t-23 47.5l-263 411l151 95l249 -405l72.5 -116t58 -81.5t51 -48t52.5 -15.5q42 0 62 -19.5t20 -62.5q0 -51 -19 -69.5t-63 -18.5zM295 1133
q0 22 8.5 41.5t23.5 34.5t34.5 23.5t42.5 8.5q22 0 41.5 -8.5t34.5 -23.5t23.5 -34.5t8.5 -41.5q0 -23 -8.5 -42.5t-23.5 -34.5t-34.5 -23.5t-41.5 -8.5q-23 0 -42.5 8.5t-34.5 23.5t-23.5 34.5t-8.5 42.5z" />
    <glyph glyph-name="uni0631" unicode="&#x631;" horiz-adv-x="625" arabic-form="isolated" 
d="M311 788h174v-687q0 -149 -16.5 -252t-59.5 -168t-117.5 -94t-190.5 -29h-61v170h68q73 0 114 23t60.5 71t24 122.5t4.5 178.5v665z" />
    <glyph glyph-name="uniFEAE" unicode="&#x631;" horiz-adv-x="671" arabic-form="final" 
d="M671 0q-30 0 -58.5 7t-53.5 19t-44.5 28t-29.5 35q0 -141 -17 -241.5t-60 -165t-117.5 -94.5t-189.5 -30h-61v170h68q76 0 118 23t61 71t22.5 122.5t3.5 178.5v665h174v-393q0 -51 10 -93t31.5 -71t56.5 -45t86 -16q42 0 62 -19.5t20 -62.5q0 -51 -19.5 -69.5
t-62.5 -18.5z" />
    <glyph glyph-name="uni0632" unicode="&#x632;" horiz-adv-x="625" arabic-form="isolated" 
d="M311 788h174v-687q0 -149 -16.5 -252t-59.5 -168t-117.5 -94t-190.5 -29h-61v170h68q73 0 114 23t60.5 71t24 122.5t4.5 178.5v665zM294 1133q0 22 8.5 41.5t23.5 34.5t34.5 23.5t42.5 8.5q22 0 41.5 -8.5t34.5 -23.5t23.5 -34.5t8.5 -41.5q0 -23 -8.5 -42.5t-23.5 -34.5
t-34.5 -23.5t-41.5 -8.5q-23 0 -42.5 8.5t-34.5 23.5t-23.5 34.5t-8.5 42.5z" />
    <glyph glyph-name="uniFEB0" unicode="&#x632;" horiz-adv-x="671" arabic-form="final" 
d="M671 0q-30 0 -58.5 7t-53.5 19t-44.5 28t-29.5 35q0 -141 -17 -241.5t-60 -165t-117.5 -94.5t-189.5 -30h-61v170h68q76 0 118 23t61 71t22.5 122.5t3.5 178.5v665h174v-393q0 -51 10 -93t31.5 -71t56.5 -45t86 -16q42 0 62 -19.5t20 -62.5q0 -51 -19.5 -69.5
t-62.5 -18.5zM292 1133q0 22 8.5 41.5t23.5 34.5t34.5 23.5t42.5 8.5q22 0 41.5 -8.5t34.5 -23.5t23.5 -34.5t8.5 -41.5q0 -23 -8.5 -42.5t-23.5 -34.5t-34.5 -23.5t-41.5 -8.5q-23 0 -42.5 8.5t-34.5 23.5t-23.5 34.5t-8.5 42.5z" />
    <glyph glyph-name="uni0633" unicode="&#x633;" horiz-adv-x="2390" arabic-form="isolated" 
d="M1174 66q0 -135 -37.5 -231t-109 -157.5t-176 -90.5t-238.5 -29q-280 0 -421.5 118.5t-141.5 372.5v275h174v-240q0 -99 24.5 -167t73 -110t122.5 -60.5t173 -18.5q103 0 176 14.5t119 53t67 104.5t21 168v618h174v-291q0 -51 7.5 -93t29 -71t61 -45t103.5 -16q49 0 84 4
t57 19t32.5 45t10.5 81v367h174v-291q0 -51 7.5 -93t27 -71t54 -45t88.5 -16h166v618h174v-788h-290q-59 0 -103 9.5t-75.5 25.5t-52 38t-32.5 47q-22 -40 -48 -64t-57 -36.5t-68 -16t-82 -3.5q-64 0 -109 7t-75.5 19.5t-50.5 28.5t-33 34v-23z" />
    <glyph glyph-name="uniFEB3" unicode="&#x633;" horiz-adv-x="1654" arabic-form="initial" 
d="M30 170q68 0 113.5 4t72.5 19t38 45t11 81v369h174v-293q0 -51 6.5 -93t28.5 -71t63.5 -45t112.5 -16q45 0 78 4t54.5 19t31.5 45t10 81v367h174v-291q0 -51 7.5 -93t27 -71t54 -45t88.5 -16h165v618h174v-788h-305q-53 0 -94 9.5t-71 26t-50 38.5t-32 46
q-23 -41 -53 -65t-66 -36t-77.5 -15.5t-86.5 -3.5q-66 0 -112.5 12t-79 30.5t-52.5 41t-32 43.5q-25 -41 -53 -66t-70 -38.5t-103 -18t-151 -4.5h-26q-42 0 -62 19.5t-20 62.5q0 51 19.5 69.5t62.5 18.5h30z" />
    <glyph glyph-name="uniFEB4" unicode="&#x633;" horiz-adv-x="1700" arabic-form="medial" 
d="M698 0q-70 0 -119.5 10t-83.5 27.5t-55.5 40.5t-36.5 49q-25 -42 -53 -67.5t-70 -38.5t-103 -17t-151 -4h-26q-42 0 -62 19.5t-20 62.5q0 51 19.5 69.5t62.5 18.5h30q68 0 113.5 4t72.5 19t38 45t11 81v369h174v-293q0 -51 6.5 -93t28.5 -71t63.5 -45t112.5 -16
q44 0 76.5 4t54.5 19t32.5 45t10.5 81v367h174v-291q0 -51 7.5 -93t27 -71t54 -45t88.5 -16q37 0 68 4t52.5 19t33.5 45t12 81v469h176v-393q0 -51 8.5 -93t29 -71t56 -45t89.5 -16q42 0 62 -19.5t20 -62.5q0 -51 -19.5 -69.5t-62.5 -18.5q-33 0 -65.5 8.5t-60.5 24
t-49.5 36.5t-33.5 46q-20 -37 -51.5 -59.5t-67.5 -35t-74.5 -16.5t-72.5 -4q-59 0 -103 9.5t-75.5 25.5t-52 38t-32.5 47q-22 -40 -52 -64t-64.5 -36.5t-72.5 -16t-75 -3.5z" />
    <glyph glyph-name="uniFEB2" unicode="&#x633;" horiz-adv-x="2436" arabic-form="final" 
d="M1910 170q37 0 68 4t52.5 19t33.5 45t12 81v469h176v-393q0 -51 8.5 -93t29 -71t56 -45t89.5 -16q42 0 62 -19.5t20 -62.5q0 -51 -19.5 -69.5t-62.5 -18.5q-33 0 -65.5 8.5t-60.5 24t-49.5 36.5t-33.5 46q-20 -37 -51.5 -59.5t-67.5 -35t-74.5 -16.5t-72.5 -4
q-59 0 -103 9.5t-75.5 25.5t-52 38t-32.5 47q-22 -40 -48 -64t-57 -36.5t-68 -16t-82 -3.5q-64 0 -109 7t-75.5 19.5t-50.5 28.5t-33 34v-23q0 -135 -37.5 -231t-109 -157.5t-176 -90.5t-238.5 -29q-280 0 -421.5 118.5t-141.5 372.5v275h174v-240q0 -99 24.5 -167t73 -110
t122.5 -60.5t173 -18.5q103 0 176 14.5t119 53t67 104.5t21 168v618h174v-291q0 -51 7.5 -93t29 -71t61 -45t103.5 -16q49 0 84 4t57 19t32.5 45t10.5 81v367h174v-291q0 -51 7.5 -93t27 -71t54 -45t88.5 -16z" />
    <glyph glyph-name="uni0634" unicode="&#x634;" horiz-adv-x="2390" arabic-form="isolated" 
d="M1174 66q0 -135 -37.5 -231t-109 -157.5t-176 -90.5t-238.5 -29q-280 0 -421.5 118.5t-141.5 372.5v275h174v-240q0 -99 24.5 -167t73 -110t122.5 -60.5t173 -18.5q103 0 176 14.5t119 53t67 104.5t21 168v618h174v-291q0 -51 7.5 -93t29 -71t61 -45t103.5 -16q49 0 84 4
t57 19t32.5 45t10.5 81v367h174v-291q0 -51 7.5 -93t27 -71t54 -45t88.5 -16h166v618h174v-788h-290q-59 0 -103 9.5t-75.5 25.5t-52 38t-32.5 47q-22 -40 -48 -64t-57 -36.5t-68 -16t-82 -3.5q-64 0 -109 7t-75.5 19.5t-50.5 28.5t-33 34v-23zM1408 1133q0 22 8.5 41.5
t23.5 34.5t34.5 23.5t42.5 8.5q22 0 41.5 -8.5t34.5 -23.5t23.5 -34.5t8.5 -41.5q0 -23 -8.5 -42.5t-23.5 -34.5t-34.5 -23.5t-41.5 -8.5q-23 0 -42.5 8.5t-34.5 23.5t-23.5 34.5t-8.5 42.5zM1674 1133q0 22 8.5 41.5t23.5 34.5t34.5 23.5t42.5 8.5q22 0 41.5 -8.5
t34.5 -23.5t23.5 -34.5t8.5 -41.5q0 -23 -8.5 -42.5t-23.5 -34.5t-34.5 -23.5t-41.5 -8.5q-23 0 -42.5 8.5t-34.5 23.5t-23.5 34.5t-8.5 42.5zM1545 1378q0 22 8.5 42t23.5 35t34.5 23.5t42.5 8.5q22 0 41.5 -8.5t34.5 -23.5t23.5 -35t8.5 -42t-8.5 -41.5t-23.5 -34.5
t-34.5 -23.5t-41.5 -8.5q-23 0 -42.5 8.5t-34.5 23.5t-23.5 34.5t-8.5 41.5z" />
    <glyph glyph-name="uniFEB7" unicode="&#x634;" horiz-adv-x="1654" arabic-form="initial" 
d="M30 170q68 0 113.5 4t72.5 19t38 45t11 81v369h174v-293q0 -51 6.5 -93t28.5 -71t63.5 -45t112.5 -16q45 0 78 4t54.5 19t31.5 45t10 81v367h174v-291q0 -51 7.5 -93t27 -71t54 -45t88.5 -16h165v618h174v-788h-305q-53 0 -94 9.5t-71 26t-50 38.5t-32 46
q-23 -41 -53 -65t-66 -36t-77.5 -15.5t-86.5 -3.5q-66 0 -112.5 12t-79 30.5t-52.5 41t-32 43.5q-25 -41 -53 -66t-70 -38.5t-103 -18t-151 -4.5h-26q-42 0 -62 19.5t-20 62.5q0 51 19.5 69.5t62.5 18.5h30zM658 1133q0 22 8.5 41.5t23.5 34.5t34.5 23.5t42.5 8.5
q22 0 41.5 -8.5t34.5 -23.5t23.5 -34.5t8.5 -41.5q0 -23 -8.5 -42.5t-23.5 -34.5t-34.5 -23.5t-41.5 -8.5q-23 0 -42.5 8.5t-34.5 23.5t-23.5 34.5t-8.5 42.5zM924 1133q0 22 8.5 41.5t23.5 34.5t34.5 23.5t42.5 8.5q22 0 41.5 -8.5t34.5 -23.5t23.5 -34.5t8.5 -41.5
q0 -23 -8.5 -42.5t-23.5 -34.5t-34.5 -23.5t-41.5 -8.5q-23 0 -42.5 8.5t-34.5 23.5t-23.5 34.5t-8.5 42.5zM795 1378q0 22 8.5 42t23.5 35t34.5 23.5t42.5 8.5q22 0 41.5 -8.5t34.5 -23.5t23.5 -35t8.5 -42t-8.5 -41.5t-23.5 -34.5t-34.5 -23.5t-41.5 -8.5q-23 0 -42.5 8.5
t-34.5 23.5t-23.5 34.5t-8.5 41.5z" />
    <glyph glyph-name="uniFEB8" unicode="&#x634;" horiz-adv-x="1700" arabic-form="medial" 
d="M698 0q-70 0 -119.5 10t-83.5 27.5t-55.5 40.5t-36.5 49q-25 -42 -53 -67.5t-70 -38.5t-103 -17t-151 -4h-26q-42 0 -62 19.5t-20 62.5q0 51 19.5 69.5t62.5 18.5h30q68 0 113.5 4t72.5 19t38 45t11 81v369h174v-293q0 -51 6.5 -93t28.5 -71t63.5 -45t112.5 -16
q44 0 76.5 4t54.5 19t32.5 45t10.5 81v367h174v-291q0 -51 7.5 -93t27 -71t54 -45t88.5 -16q37 0 68 4t52.5 19t33.5 45t12 81v469h176v-393q0 -51 8.5 -93t29 -71t56 -45t89.5 -16q42 0 62 -19.5t20 -62.5q0 -51 -19.5 -69.5t-62.5 -18.5q-33 0 -65.5 8.5t-60.5 24
t-49.5 36.5t-33.5 46q-20 -37 -51.5 -59.5t-67.5 -35t-74.5 -16.5t-72.5 -4q-59 0 -103 9.5t-75.5 25.5t-52 38t-32.5 47q-22 -40 -52 -64t-64.5 -36.5t-72.5 -16t-75 -3.5zM667 1133q0 22 8.5 41.5t23.5 34.5t34.5 23.5t42.5 8.5q22 0 41.5 -8.5t34.5 -23.5t23.5 -34.5
t8.5 -41.5q0 -23 -8.5 -42.5t-23.5 -34.5t-34.5 -23.5t-41.5 -8.5q-23 0 -42.5 8.5t-34.5 23.5t-23.5 34.5t-8.5 42.5zM933 1133q0 22 8.5 41.5t23.5 34.5t34.5 23.5t42.5 8.5q22 0 41.5 -8.5t34.5 -23.5t23.5 -34.5t8.5 -41.5q0 -23 -8.5 -42.5t-23.5 -34.5t-34.5 -23.5
t-41.5 -8.5q-23 0 -42.5 8.5t-34.5 23.5t-23.5 34.5t-8.5 42.5zM804 1378q0 22 8.5 42t23.5 35t34.5 23.5t42.5 8.5q22 0 41.5 -8.5t34.5 -23.5t23.5 -35t8.5 -42t-8.5 -41.5t-23.5 -34.5t-34.5 -23.5t-41.5 -8.5q-23 0 -42.5 8.5t-34.5 23.5t-23.5 34.5t-8.5 41.5z" />
    <glyph glyph-name="uniFEB6" unicode="&#x634;" horiz-adv-x="2436" arabic-form="final" 
d="M1910 170q37 0 68 4t52.5 19t33.5 45t12 81v469h176v-393q0 -51 8.5 -93t29 -71t56 -45t89.5 -16q42 0 62 -19.5t20 -62.5q0 -51 -19.5 -69.5t-62.5 -18.5q-33 0 -65.5 8.5t-60.5 24t-49.5 36.5t-33.5 46q-20 -37 -51.5 -59.5t-67.5 -35t-74.5 -16.5t-72.5 -4
q-59 0 -103 9.5t-75.5 25.5t-52 38t-32.5 47q-22 -40 -48 -64t-57 -36.5t-68 -16t-82 -3.5q-64 0 -109 7t-75.5 19.5t-50.5 28.5t-33 34v-23q0 -135 -37.5 -231t-109 -157.5t-176 -90.5t-238.5 -29q-280 0 -421.5 118.5t-141.5 372.5v275h174v-240q0 -99 24.5 -167t73 -110
t122.5 -60.5t173 -18.5q103 0 176 14.5t119 53t67 104.5t21 168v618h174v-291q0 -51 7.5 -93t29 -71t61 -45t103.5 -16q49 0 84 4t57 19t32.5 45t10.5 81v367h174v-291q0 -51 7.5 -93t27 -71t54 -45t88.5 -16zM1402 1133q0 22 8.5 41.5t23.5 34.5t34.5 23.5t42.5 8.5
q22 0 41.5 -8.5t34.5 -23.5t23.5 -34.5t8.5 -41.5q0 -23 -8.5 -42.5t-23.5 -34.5t-34.5 -23.5t-41.5 -8.5q-23 0 -42.5 8.5t-34.5 23.5t-23.5 34.5t-8.5 42.5zM1668 1133q0 22 8.5 41.5t23.5 34.5t34.5 23.5t42.5 8.5q22 0 41.5 -8.5t34.5 -23.5t23.5 -34.5t8.5 -41.5
q0 -23 -8.5 -42.5t-23.5 -34.5t-34.5 -23.5t-41.5 -8.5q-23 0 -42.5 8.5t-34.5 23.5t-23.5 34.5t-8.5 42.5zM1539 1378q0 22 8.5 42t23.5 35t34.5 23.5t42.5 8.5q22 0 41.5 -8.5t34.5 -23.5t23.5 -35t8.5 -42t-8.5 -41.5t-23.5 -34.5t-34.5 -23.5t-41.5 -8.5
q-23 0 -42.5 8.5t-34.5 23.5t-23.5 34.5t-8.5 41.5z" />
    <glyph glyph-name="uni0635" unicode="&#x635;" horiz-adv-x="2707" arabic-form="isolated" 
d="M2411 170v151q0 76 -15.5 136.5t-50 103t-89 65.5t-131.5 23q-65 0 -125 -20t-113.5 -54.5t-100.5 -81t-85.5 -99.5t-68.5 -110.5t-50 -113.5h829zM1432 0q-64 0 -107.5 7t-72.5 19.5t-47 28.5t-31 34v-23q0 -135 -37.5 -231t-109 -157.5t-176 -90.5t-238.5 -29
q-280 0 -421.5 118.5t-141.5 372.5v275h174v-240q0 -99 24.5 -167t73 -110t122.5 -60.5t173 -18.5q103 0 176 14.5t119 53t67 104.5t21 168v618h174v-291q0 -51 7.5 -93t29 -71t61 -45t103.5 -16h27q26 76 65 153.5t90.5 149t115.5 134.5t138.5 109.5t159.5 73.5t180 27
q102 0 182.5 -31.5t136.5 -92t85.5 -148t29.5 -199.5v-346h-1153z" />
    <glyph glyph-name="uniFEBB" unicode="&#x635;" horiz-adv-x="1894" arabic-form="initial" 
d="M1598 170v151q0 76 -15.5 136.5t-50 103t-89 65.5t-131.5 23q-65 0 -125 -20t-113.5 -54.5t-100.5 -81t-85.5 -99.5t-68.5 -110.5t-50 -113.5h829zM589 170q26 76 65 153.5t90.5 149t115.5 134.5t138.5 109.5t159.5 73.5t180 27q102 0 182.5 -31.5t136.5 -92t85.5 -148
t29.5 -199.5v-346h-1153q-33 0 -64.5 8.5t-58 24t-47 36.5t-32.5 46q-20 -37 -51.5 -59.5t-67.5 -35t-74.5 -16.5t-72.5 -4h-151q-42 0 -62 19.5t-20 62.5q0 51 19.5 69.5t62.5 18.5h101q37 0 68 4t52.5 19t33.5 45t12 81v366h176v-290q0 -47 6.5 -88t23 -71.5t44.5 -48
t72 -17.5z" />
    <glyph glyph-name="uniFEBC" unicode="&#x635;" horiz-adv-x="1917" arabic-form="medial" 
d="M1598 170v151q0 76 -15.5 136.5t-50 103t-89 65.5t-131.5 23q-65 0 -125 -20t-113.5 -54.5t-100.5 -81t-85.5 -99.5t-68.5 -110.5t-50 -113.5h829zM1917 170q42 0 62 -19.5t20 -62.5q0 -51 -19.5 -69.5t-62.5 -18.5h-1298q-33 0 -64.5 8.5t-58 24t-47 36.5t-32.5 46
q-20 -37 -51.5 -59.5t-67.5 -35t-74.5 -16.5t-72.5 -4h-151q-42 0 -62 19.5t-20 62.5q0 51 19.5 69.5t62.5 18.5h101q37 0 68 4t52.5 19t33.5 45t12 81v366h176v-290q0 -47 6.5 -88t23 -71.5t44.5 -48t72 -17.5q26 76 65 153.5t90.5 149t115.5 134.5t138.5 109.5t159.5 73.5
t180 27q102 0 182.5 -31.5t136.5 -92t85.5 -148t29.5 -199.5v-176h145z" />
    <glyph glyph-name="uniFEBA" unicode="&#x635;" horiz-adv-x="2730" arabic-form="final" 
d="M2411 170v151q0 76 -15.5 136.5t-50 103t-89 65.5t-131.5 23q-65 0 -125 -20t-113.5 -54.5t-100.5 -81t-85.5 -99.5t-68.5 -110.5t-50 -113.5h829zM2730 170q42 0 62 -19.5t20 -62.5q0 -51 -19.5 -69.5t-62.5 -18.5h-1298q-64 0 -107.5 7t-72.5 19.5t-47 28.5t-31 34v-23
q0 -135 -37.5 -231t-109 -157.5t-176 -90.5t-238.5 -29q-280 0 -421.5 118.5t-141.5 372.5v275h174v-240q0 -99 24.5 -167t73 -110t122.5 -60.5t173 -18.5q103 0 176 14.5t119 53t67 104.5t21 168v618h174v-291q0 -51 7.5 -93t29 -71t61 -45t103.5 -16h27q26 76 65 153.5
t90.5 149t115.5 134.5t138.5 109.5t159.5 73.5t180 27q102 0 182.5 -31.5t136.5 -92t85.5 -148t29.5 -199.5v-176h145z" />
    <glyph glyph-name="uni0636" unicode="&#x636;" horiz-adv-x="2707" arabic-form="isolated" 
d="M2411 170v151q0 76 -15.5 136.5t-50 103t-89 65.5t-131.5 23q-65 0 -125 -20t-113.5 -54.5t-100.5 -81t-85.5 -99.5t-68.5 -110.5t-50 -113.5h829zM1432 0q-64 0 -107.5 7t-72.5 19.5t-47 28.5t-31 34v-23q0 -135 -37.5 -231t-109 -157.5t-176 -90.5t-238.5 -29
q-280 0 -421.5 118.5t-141.5 372.5v275h174v-240q0 -99 24.5 -167t73 -110t122.5 -60.5t173 -18.5q103 0 176 14.5t119 53t67 104.5t21 168v618h174v-291q0 -51 7.5 -93t29 -71t61 -45t103.5 -16h27q26 76 65 153.5t90.5 149t115.5 134.5t138.5 109.5t159.5 73.5t180 27
q102 0 182.5 -31.5t136.5 -92t85.5 -148t29.5 -199.5v-346h-1153zM2020 1133q0 22 8.5 41.5t23.5 34.5t34.5 23.5t42.5 8.5q22 0 41.5 -8.5t34.5 -23.5t23.5 -34.5t8.5 -41.5q0 -23 -8.5 -42.5t-23.5 -34.5t-34.5 -23.5t-41.5 -8.5q-23 0 -42.5 8.5t-34.5 23.5t-23.5 34.5
t-8.5 42.5z" />
    <glyph glyph-name="uniFEBF" unicode="&#x636;" horiz-adv-x="1894" arabic-form="initial" 
d="M1598 170v151q0 76 -15.5 136.5t-50 103t-89 65.5t-131.5 23q-65 0 -125 -20t-113.5 -54.5t-100.5 -81t-85.5 -99.5t-68.5 -110.5t-50 -113.5h829zM589 170q26 76 65 153.5t90.5 149t115.5 134.5t138.5 109.5t159.5 73.5t180 27q102 0 182.5 -31.5t136.5 -92t85.5 -148
t29.5 -199.5v-346h-1153q-33 0 -64.5 8.5t-58 24t-47 36.5t-32.5 46q-20 -37 -51.5 -59.5t-67.5 -35t-74.5 -16.5t-72.5 -4h-151q-42 0 -62 19.5t-20 62.5q0 51 19.5 69.5t62.5 18.5h101q37 0 68 4t52.5 19t33.5 45t12 81v366h176v-290q0 -47 6.5 -88t23 -71.5t44.5 -48
t72 -17.5zM1219 1133q0 22 8.5 41.5t23.5 34.5t34.5 23.5t42.5 8.5q22 0 41.5 -8.5t34.5 -23.5t23.5 -34.5t8.5 -41.5q0 -23 -8.5 -42.5t-23.5 -34.5t-34.5 -23.5t-41.5 -8.5q-23 0 -42.5 8.5t-34.5 23.5t-23.5 34.5t-8.5 42.5z" />
    <glyph glyph-name="uniFEC0" unicode="&#x636;" horiz-adv-x="1917" arabic-form="medial" 
d="M1598 170v151q0 76 -15.5 136.5t-50 103t-89 65.5t-131.5 23q-65 0 -125 -20t-113.5 -54.5t-100.5 -81t-85.5 -99.5t-68.5 -110.5t-50 -113.5h829zM1917 170q42 0 62 -19.5t20 -62.5q0 -51 -19.5 -69.5t-62.5 -18.5h-1298q-33 0 -64.5 8.5t-58 24t-47 36.5t-32.5 46
q-20 -37 -51.5 -59.5t-67.5 -35t-74.5 -16.5t-72.5 -4h-151q-42 0 -62 19.5t-20 62.5q0 51 19.5 69.5t62.5 18.5h101q37 0 68 4t52.5 19t33.5 45t12 81v366h176v-290q0 -47 6.5 -88t23 -71.5t44.5 -48t72 -17.5q26 76 65 153.5t90.5 149t115.5 134.5t138.5 109.5t159.5 73.5
t180 27q102 0 182.5 -31.5t136.5 -92t85.5 -148t29.5 -199.5v-176h145zM1215 1133q0 22 8.5 41.5t23.5 34.5t34.5 23.5t42.5 8.5q22 0 41.5 -8.5t34.5 -23.5t23.5 -34.5t8.5 -41.5q0 -23 -8.5 -42.5t-23.5 -34.5t-34.5 -23.5t-41.5 -8.5q-23 0 -42.5 8.5t-34.5 23.5
t-23.5 34.5t-8.5 42.5z" />
    <glyph glyph-name="uniFEBE" unicode="&#x636;" horiz-adv-x="2730" arabic-form="final" 
d="M2411 170v151q0 76 -15.5 136.5t-50 103t-89 65.5t-131.5 23q-65 0 -125 -20t-113.5 -54.5t-100.5 -81t-85.5 -99.5t-68.5 -110.5t-50 -113.5h829zM2730 170q42 0 62 -19.5t20 -62.5q0 -51 -19.5 -69.5t-62.5 -18.5h-1298q-64 0 -107.5 7t-72.5 19.5t-47 28.5t-31 34v-23
q0 -135 -37.5 -231t-109 -157.5t-176 -90.5t-238.5 -29q-280 0 -421.5 118.5t-141.5 372.5v275h174v-240q0 -99 24.5 -167t73 -110t122.5 -60.5t173 -18.5q103 0 176 14.5t119 53t67 104.5t21 168v618h174v-291q0 -51 7.5 -93t29 -71t61 -45t103.5 -16h27q26 76 65 153.5
t90.5 149t115.5 134.5t138.5 109.5t159.5 73.5t180 27q102 0 182.5 -31.5t136.5 -92t85.5 -148t29.5 -199.5v-176h145zM2022 1133q0 22 8.5 41.5t23.5 34.5t34.5 23.5t42.5 8.5q22 0 41.5 -8.5t34.5 -23.5t23.5 -34.5t8.5 -41.5q0 -23 -8.5 -42.5t-23.5 -34.5t-34.5 -23.5
t-41.5 -8.5q-23 0 -42.5 8.5t-34.5 23.5t-23.5 34.5t-8.5 42.5z" />
    <glyph glyph-name="uni0637" unicode="&#x637;" horiz-adv-x="1573" arabic-form="isolated" 
d="M1277 170v170q0 58 -12 114t-44.5 99t-88 69.5t-142.5 26.5q-65 0 -124.5 -19.5t-112.5 -54t-99 -80.5t-83.5 -99.5t-66 -111t-46.5 -114.5h819zM458 476q112 175 251.5 258t307.5 83q103 0 183.5 -32.5t136 -93t85 -148t29.5 -197.5v-346h-1421v170h254v1259h174v-953z
" />
    <glyph glyph-name="uniFEC3" unicode="&#x637;" horiz-adv-x="1546" arabic-form="initial" 
d="M257 170v1259h174v-953q112 175 251.5 258t307.5 83q103 0 183.5 -32.5t136 -93t85 -148t29.5 -197.5v-346h-1424q-42 0 -62 19.5t-20 62.5q0 51 19.5 69.5t62.5 18.5h257zM1250 170v170q0 58 -12 114t-44.5 99t-88 69.5t-142.5 26.5q-65 0 -124.5 -19.5t-112.5 -54
t-99 -80.5t-83.5 -99.5t-66 -111t-46.5 -114.5h819z" />
    <glyph glyph-name="uniFEC4" unicode="&#x637;" horiz-adv-x="1569" arabic-form="medial" 
d="M1569 170q42 0 62 -19.5t20 -62.5q0 -51 -19 -69.5t-63 -18.5h-1569q-42 0 -62 19.5t-20 62.5q0 51 19.5 69.5t62.5 18.5h257v1259h174v-953q112 175 251.5 258t307.5 83q103 0 183.5 -32.5t136 -93t85 -148t29.5 -197.5v-176h145zM1250 170v170q0 58 -12 114t-44.5 99
t-88 69.5t-142.5 26.5q-65 0 -124.5 -19.5t-112.5 -54t-99 -80.5t-83.5 -99.5t-66 -111t-46.5 -114.5h819z" />
    <glyph glyph-name="uniFEC2" unicode="&#x637;" horiz-adv-x="1596" arabic-form="final" 
d="M1277 170v170q0 58 -12 114t-44.5 99t-88 69.5t-142.5 26.5q-65 0 -124.5 -19.5t-112.5 -54t-99 -80.5t-83.5 -99.5t-66 -111t-46.5 -114.5h819zM1596 170q42 0 62 -19.5t20 -62.5q0 -51 -19.5 -69.5t-62.5 -18.5h-1566v170h254v1259h174v-953q112 175 251.5 258
t307.5 83q103 0 183.5 -32.5t136 -93t85 -148t29.5 -197.5v-176h145z" />
    <glyph glyph-name="uni0638" unicode="&#x638;" horiz-adv-x="1573" arabic-form="isolated" 
d="M1277 170v170q0 58 -12 114t-44.5 99t-88 69.5t-142.5 26.5q-65 0 -124.5 -19.5t-112.5 -54t-99 -80.5t-83.5 -99.5t-66 -111t-46.5 -114.5h819zM458 476q112 175 251.5 258t307.5 83q103 0 183.5 -32.5t136 -93t85 -148t29.5 -197.5v-346h-1421v170h254v1259h174v-953z
M933 1133q0 22 8.5 41.5t23.5 34.5t34.5 23.5t42.5 8.5q22 0 41.5 -8.5t34.5 -23.5t23.5 -34.5t8.5 -41.5q0 -23 -8.5 -42.5t-23.5 -34.5t-34.5 -23.5t-41.5 -8.5q-23 0 -42.5 8.5t-34.5 23.5t-23.5 34.5t-8.5 42.5z" />
    <glyph glyph-name="uniFEC7" unicode="&#x638;" horiz-adv-x="1546" arabic-form="initial" 
d="M257 170v1259h174v-953q112 175 251.5 258t307.5 83q103 0 183.5 -32.5t136 -93t85 -148t29.5 -197.5v-346h-1424q-42 0 -62 19.5t-20 62.5q0 51 19.5 69.5t62.5 18.5h257zM1250 170v170q0 58 -12 114t-44.5 99t-88 69.5t-142.5 26.5q-65 0 -124.5 -19.5t-112.5 -54
t-99 -80.5t-83.5 -99.5t-66 -111t-46.5 -114.5h819zM891 1133q0 22 8.5 41.5t23.5 34.5t34.5 23.5t42.5 8.5q22 0 41.5 -8.5t34.5 -23.5t23.5 -34.5t8.5 -41.5q0 -23 -8.5 -42.5t-23.5 -34.5t-34.5 -23.5t-41.5 -8.5q-23 0 -42.5 8.5t-34.5 23.5t-23.5 34.5t-8.5 42.5z" />
    <glyph glyph-name="uniFEC8" unicode="&#x638;" horiz-adv-x="1569" arabic-form="medial" 
d="M1569 170q42 0 62 -19.5t20 -62.5q0 -51 -19 -69.5t-63 -18.5h-1569q-42 0 -62 19.5t-20 62.5q0 51 19.5 69.5t62.5 18.5h257v1259h174v-953q112 175 251.5 258t307.5 83q103 0 183.5 -32.5t136 -93t85 -148t29.5 -197.5v-176h145zM1250 170v170q0 58 -12 114t-44.5 99
t-88 69.5t-142.5 26.5q-65 0 -124.5 -19.5t-112.5 -54t-99 -80.5t-83.5 -99.5t-66 -111t-46.5 -114.5h819zM858 1133q0 22 8.5 41.5t23.5 34.5t34.5 23.5t42.5 8.5q22 0 41.5 -8.5t34.5 -23.5t23.5 -34.5t8.5 -41.5q0 -23 -8.5 -42.5t-23.5 -34.5t-34.5 -23.5t-41.5 -8.5
q-23 0 -42.5 8.5t-34.5 23.5t-23.5 34.5t-8.5 42.5z" />
    <glyph glyph-name="uniFEC6" unicode="&#x638;" horiz-adv-x="1596" arabic-form="final" 
d="M1277 170v170q0 58 -12 114t-44.5 99t-88 69.5t-142.5 26.5q-65 0 -124.5 -19.5t-112.5 -54t-99 -80.5t-83.5 -99.5t-66 -111t-46.5 -114.5h819zM1596 170q42 0 62 -19.5t20 -62.5q0 -51 -19.5 -69.5t-62.5 -18.5h-1566v170h254v1259h174v-953q112 175 251.5 258
t307.5 83q103 0 183.5 -32.5t136 -93t85 -148t29.5 -197.5v-176h145zM894 1133q0 22 8.5 41.5t23.5 34.5t34.5 23.5t42.5 8.5q22 0 41.5 -8.5t34.5 -23.5t23.5 -34.5t8.5 -41.5q0 -23 -8.5 -42.5t-23.5 -34.5t-34.5 -23.5t-41.5 -8.5q-23 0 -42.5 8.5t-34.5 23.5t-23.5 34.5
t-8.5 42.5z" />
    <glyph glyph-name="uni0639" unicode="&#x639;" horiz-adv-x="1064" arabic-form="isolated" 
d="M318 169q-38 38 -63 100.5t-25 140.5q0 106 40 183t104 127t144 73.5t159 23.5q72 0 124.5 -8.5t75.5 -17.5v-183q-38 13 -83 22t-111 9q-65 0 -116 -15.5t-87 -45.5t-55 -73t-19 -97q0 -52 16.5 -95.5t49.5 -75t82.5 -49.5t115.5 -18h320v-170h-598q-40 0 -74 -7
t-58.5 -21.5t-38.5 -36.5t-14 -53q0 -32 23 -63t64 -61.5t98 -61t126 -61.5l-82 -154q-98 39 -173.5 85t-127 97t-78.5 106.5t-27 112.5q0 72 22 122.5t60.5 84t91 52.5t114.5 28z" />
    <glyph glyph-name="uniFECB" unicode="&#x639;" horiz-adv-x="978" arabic-form="initial" 
d="M0 0q-42 0 -62 19.5t-20 62.5q0 51 19.5 69.5t62.5 18.5h259q-37 38 -61.5 100t-24.5 140q0 106 40 183t104 127t143.5 73.5t158.5 23.5q73 0 125.5 -8.5t75.5 -17.5v-183q-38 13 -83 22t-112 9q-65 0 -116 -15.5t-86.5 -45.5t-54.5 -73t-19 -97q0 -52 16.5 -95.5
t49.5 -75t82.5 -49.5t115.5 -18h295v-170h-908z" />
    <glyph glyph-name="uniFECC" unicode="&#x639;" horiz-adv-x="1077" arabic-form="medial" 
d="M0 0q-42 0 -62 19.5t-20 62.5q0 51 19.5 69.5t62.5 18.5h111q78 0 154 10.5t145 32.5l-263 291q6 22 15.5 47t20.5 48.5t22.5 43t23.5 31.5q65 65 162 104t206 39q90 0 158 -22t113 -57.5t67.5 -81t22.5 -93.5q0 -56 -18 -109t-50.5 -101.5t-77.5 -92.5t-99 -82
q22 -5 48 -6.5t55 -1.5h260q42 0 62 -19.5t20 -62.5q0 -51 -19 -69.5t-63 -18.5h-316q-59 0 -114 15.5t-113 66.5q-96 -38 -200.5 -60t-213.5 -22h-119zM586 652q-41 0 -80 -8.5t-74 -23.5t-64.5 -36t-51.5 -45l250 -265q49 25 89.5 54.5t69 63t44.5 69.5t16 74q0 23 -12 44
t-37 37.5t-62 26t-88 9.5z" />
    <glyph glyph-name="uniFECA" unicode="&#x639;" horiz-adv-x="1041" arabic-form="final" 
d="M550 652q-41 0 -80 -8.5t-74 -23.5t-64.5 -36t-51.5 -45l250 -265q49 25 89.5 54.5t69 63t44.5 69.5t16 74q0 23 -12 44t-37 37.5t-62 26t-88 9.5zM111 504q6 22 15.5 47t20.5 48.5t22.5 43t23.5 31.5q65 65 162 104t206 39q90 0 158 -22t113 -57.5t67.5 -81t22.5 -93.5
q0 -56 -18 -109t-50.5 -101.5t-77.5 -92.5t-99 -82q22 -5 48 -6.5t55 -1.5h261q42 0 62 -19.5t20 -62.5q0 -51 -19 -69.5t-63 -18.5h-317q-32 0 -61 3.5t-57.5 13.5t-57 27.5t-59.5 45.5q-74 -26 -127.5 -50.5t-88 -49t-50.5 -51t-16 -57.5q0 -32 23 -63t64 -61.5t98 -61
t126 -61.5l-82 -154q-98 39 -173.5 85t-127 97t-78.5 106.5t-27 112.5q0 77 30 130.5t78.5 91.5t110 65l124.5 53z" />
    <glyph glyph-name="uni063A" unicode="&#x63a;" horiz-adv-x="1064" arabic-form="isolated" 
d="M318 169q-38 38 -63 100.5t-25 140.5q0 106 40 183t104 127t144 73.5t159 23.5q72 0 124.5 -8.5t75.5 -17.5v-183q-38 13 -83 22t-111 9q-65 0 -116 -15.5t-87 -45.5t-55 -73t-19 -97q0 -52 16.5 -95.5t49.5 -75t82.5 -49.5t115.5 -18h320v-170h-598q-40 0 -74 -7
t-58.5 -21.5t-38.5 -36.5t-14 -53q0 -32 23 -63t64 -61.5t98 -61t126 -61.5l-82 -154q-98 39 -173.5 85t-127 97t-78.5 106.5t-27 112.5q0 72 22 122.5t60.5 84t91 52.5t114.5 28zM585 1130q0 22 8.5 41.5t23.5 34.5t34.5 23.5t42.5 8.5q22 0 41.5 -8.5t34.5 -23.5
t23.5 -34.5t8.5 -41.5q0 -23 -8.5 -42.5t-23.5 -34.5t-34.5 -23.5t-41.5 -8.5q-23 0 -42.5 8.5t-34.5 23.5t-23.5 34.5t-8.5 42.5z" />
    <glyph glyph-name="uniFECF" unicode="&#x63a;" horiz-adv-x="978" arabic-form="initial" 
d="M0 0q-42 0 -62 19.5t-20 62.5q0 51 19.5 69.5t62.5 18.5h259q-37 38 -61.5 100t-24.5 140q0 106 40 183t104 127t143.5 73.5t158.5 23.5q73 0 125.5 -8.5t75.5 -17.5v-183q-38 13 -83 22t-112 9q-65 0 -116 -15.5t-86.5 -45.5t-54.5 -73t-19 -97q0 -52 16.5 -95.5
t49.5 -75t82.5 -49.5t115.5 -18h295v-170h-908zM478 1133q0 22 8.5 41.5t23.5 34.5t34.5 23.5t42.5 8.5q22 0 41.5 -8.5t34.5 -23.5t23.5 -34.5t8.5 -41.5q0 -23 -8.5 -42.5t-23.5 -34.5t-34.5 -23.5t-41.5 -8.5q-23 0 -42.5 8.5t-34.5 23.5t-23.5 34.5t-8.5 42.5z" />
    <glyph glyph-name="uniFED0" unicode="&#x63a;" horiz-adv-x="1077" arabic-form="medial" 
d="M0 0q-42 0 -62 19.5t-20 62.5q0 51 19.5 69.5t62.5 18.5h111q78 0 154 10.5t145 32.5l-263 291q6 22 15.5 47t20.5 48.5t22.5 43t23.5 31.5q65 65 162 104t206 39q90 0 158 -22t113 -57.5t67.5 -81t22.5 -93.5q0 -56 -18 -109t-50.5 -101.5t-77.5 -92.5t-99 -82
q22 -5 48 -6.5t55 -1.5h260q42 0 62 -19.5t20 -62.5q0 -51 -19 -69.5t-63 -18.5h-316q-59 0 -114 15.5t-113 66.5q-96 -38 -200.5 -60t-213.5 -22h-119zM586 652q-41 0 -80 -8.5t-74 -23.5t-64.5 -36t-51.5 -45l250 -265q49 25 89.5 54.5t69 63t44.5 69.5t16 74q0 23 -12 44
t-37 37.5t-62 26t-88 9.5zM482 1133q0 22 8.5 41.5t23.5 34.5t34.5 23.5t42.5 8.5q22 0 41.5 -8.5t34.5 -23.5t23.5 -34.5t8.5 -41.5q0 -23 -8.5 -42.5t-23.5 -34.5t-34.5 -23.5t-41.5 -8.5q-23 0 -42.5 8.5t-34.5 23.5t-23.5 34.5t-8.5 42.5z" />
    <glyph glyph-name="uniFECE" unicode="&#x63a;" horiz-adv-x="1041" arabic-form="final" 
d="M550 652q-41 0 -80 -8.5t-74 -23.5t-64.5 -36t-51.5 -45l250 -265q49 25 89.5 54.5t69 63t44.5 69.5t16 74q0 23 -12 44t-37 37.5t-62 26t-88 9.5zM111 504q6 22 15.5 47t20.5 48.5t22.5 43t23.5 31.5q65 65 162 104t206 39q90 0 158 -22t113 -57.5t67.5 -81t22.5 -93.5
q0 -56 -18 -109t-50.5 -101.5t-77.5 -92.5t-99 -82q22 -5 48 -6.5t55 -1.5h261q42 0 62 -19.5t20 -62.5q0 -51 -19 -69.5t-63 -18.5h-317q-32 0 -61 3.5t-57.5 13.5t-57 27.5t-59.5 45.5q-74 -26 -127.5 -50.5t-88 -49t-50.5 -51t-16 -57.5q0 -32 23 -63t64 -61.5t98 -61
t126 -61.5l-82 -154q-98 39 -173.5 85t-127 97t-78.5 106.5t-27 112.5q0 77 30 130.5t78.5 91.5t110 65l124.5 53zM514 1133q0 22 8.5 41.5t23.5 34.5t34.5 23.5t42.5 8.5q22 0 41.5 -8.5t34.5 -23.5t23.5 -34.5t8.5 -41.5q0 -23 -8.5 -42.5t-23.5 -34.5t-34.5 -23.5
t-41.5 -8.5q-23 0 -42.5 8.5t-34.5 23.5t-23.5 34.5t-8.5 42.5z" />
    <glyph glyph-name="uni0641" unicode="&#x641;" horiz-adv-x="2101" arabic-form="isolated" 
d="M1363 412q0 -62 19 -107.5t53 -75.5t80.5 -44.5t101.5 -14.5h188v205q0 50 -8.5 100t-33 90t-68.5 65t-116 25q-48 0 -88 -19.5t-68.5 -52.5t-44 -77t-15.5 -94zM1246 170q-23 43 -40.5 96.5t-17.5 128.5q0 90 28.5 167t81.5 134t128.5 89t169.5 32q116 0 190.5 -41
t117 -104.5t59 -140.5t16.5 -150v-381h-1515q-119 0 -198.5 16t-127.5 52t-68 93t-20 138v317h174v-256q0 -63 15.5 -100.5t53 -57.5t101.5 -26t162 -6h690zM1510 1133q0 22 8.5 41.5t23.5 34.5t34.5 23.5t42.5 8.5q22 0 41.5 -8.5t34.5 -23.5t23.5 -34.5t8.5 -41.5
q0 -23 -8.5 -42.5t-23.5 -34.5t-34.5 -23.5t-41.5 -8.5q-23 0 -42.5 8.5t-34.5 23.5t-23.5 34.5t-8.5 42.5z" />
    <glyph glyph-name="uniFED3" unicode="&#x641;" horiz-adv-x="1104" arabic-form="initial" 
d="M249 170q-23 43 -40.5 96.5t-17.5 128.5q0 90 28.5 167t81.5 134t128.5 89t169.5 32q116 0 190.5 -41t117 -104.5t59 -140.5t16.5 -150v-381h-982q-42 0 -62 19.5t-20 62.5q0 51 19.5 69.5t62.5 18.5h249zM366 412q0 -62 19 -107.5t53 -75.5t80.5 -44.5t101.5 -14.5h188
v205q0 50 -8.5 100t-33 90t-68.5 65t-116 25q-48 0 -88 -19.5t-68.5 -52.5t-44 -77t-15.5 -94zM503 1133q0 22 8.5 41.5t23.5 34.5t34.5 23.5t42.5 8.5q22 0 41.5 -8.5t34.5 -23.5t23.5 -34.5t8.5 -41.5q0 -23 -8.5 -42.5t-23.5 -34.5t-34.5 -23.5t-41.5 -8.5
q-23 0 -42.5 8.5t-34.5 23.5t-23.5 34.5t-8.5 42.5z" />
    <glyph glyph-name="uniFED4" unicode="&#x641;" horiz-adv-x="1128" arabic-form="medial" 
d="M366 412q0 -62 19 -107.5t53 -75.5t80.5 -44.5t101.5 -14.5h188v205q0 50 -8.5 100t-33 90t-68.5 65t-116 25q-48 0 -88 -19.5t-68.5 -52.5t-44 -77t-15.5 -94zM1128 170q42 0 62 -19.5t20 -62.5q0 -51 -19.5 -69.5t-62.5 -18.5h-1128q-42 0 -62 19.5t-20 62.5
q0 51 19.5 69.5t62.5 18.5h249q-23 43 -40.5 96.5t-17.5 128.5q0 90 28.5 167t81.5 134t128.5 89t169.5 32q116 0 190.5 -41t117 -104.5t59 -140.5t16.5 -150v-211h146zM499 1133q0 22 8.5 41.5t23.5 34.5t34.5 23.5t42.5 8.5q22 0 41.5 -8.5t34.5 -23.5t23.5 -34.5
t8.5 -41.5q0 -23 -8.5 -42.5t-23.5 -34.5t-34.5 -23.5t-41.5 -8.5q-23 0 -42.5 8.5t-34.5 23.5t-23.5 34.5t-8.5 42.5z" />
    <glyph glyph-name="uniFED2" unicode="&#x641;" horiz-adv-x="2124" arabic-form="final" 
d="M1246 170q-23 43 -40.5 96.5t-17.5 128.5q0 90 28.5 167t81.5 134t128.5 89t169.5 32q116 0 190.5 -41t117 -104.5t59 -140.5t16.5 -150v-211h145q42 0 62 -19.5t20 -62.5q0 -51 -19.5 -69.5t-62.5 -18.5h-1660q-119 0 -198.5 16t-127.5 52t-68 93t-20 138v317h166v-256
q0 -63 15.5 -100.5t53 -57.5t101.5 -26t162 -6h698zM1363 412q0 -62 19 -107.5t53 -75.5t80.5 -44.5t101.5 -14.5h188v205q0 50 -8.5 100t-33 90t-68.5 65t-116 25q-48 0 -88 -19.5t-68.5 -52.5t-44 -77t-15.5 -94zM1510 1133q0 22 8.5 41.5t23.5 34.5t34.5 23.5t42.5 8.5
q22 0 41.5 -8.5t34.5 -23.5t23.5 -34.5t8.5 -41.5q0 -23 -8.5 -42.5t-23.5 -34.5t-34.5 -23.5t-41.5 -8.5q-23 0 -42.5 8.5t-34.5 23.5t-23.5 34.5t-8.5 42.5z" />
    <glyph glyph-name="uni0642" unicode="&#x642;" horiz-adv-x="1536" arabic-form="isolated" 
d="M1414 94q0 -150 -47 -252.5t-135 -165.5t-214 -90.5t-284 -27.5q-191 0 -321.5 38t-211 105t-116 158.5t-35.5 198.5v266h166v-229q0 -181 128.5 -275t389.5 -94q66 0 129.5 3.5t119.5 14t104 30.5t82 53.5t53.5 82.5t19.5 117v32q-37 -21 -96.5 -40t-146.5 -19
q-79 0 -148 21t-120 67t-80 118t-29 174q0 82 26.5 161t78 140t127 98.5t173.5 37.5q109 0 183 -39.5t119.5 -110t65 -168.5t19.5 -215v-190zM786 399q0 -59 17 -103t47 -73t72 -44t93 -15q77 0 136.5 20.5t90.5 44.5v94q0 71 -11.5 131.5t-38 105t-69 70t-104.5 25.5
q-63 0 -107.5 -24t-72 -61.5t-40.5 -83t-13 -87.5zM769 1133q0 22 8.5 41.5t23.5 34.5t34.5 23.5t42.5 8.5q22 0 41.5 -8.5t34.5 -23.5t23.5 -34.5t8.5 -41.5q0 -23 -8.5 -42.5t-23.5 -34.5t-34.5 -23.5t-41.5 -8.5q-23 0 -42.5 8.5t-34.5 23.5t-23.5 34.5t-8.5 42.5z
M1035 1133q0 22 8.5 41.5t23.5 34.5t34.5 23.5t42.5 8.5q22 0 41.5 -8.5t34.5 -23.5t23.5 -34.5t8.5 -41.5q0 -23 -8.5 -42.5t-23.5 -34.5t-34.5 -23.5t-41.5 -8.5q-23 0 -42.5 8.5t-34.5 23.5t-23.5 34.5t-8.5 42.5z" />
    <glyph glyph-name="uniFED7" unicode="&#x642;" horiz-adv-x="1104" arabic-form="initial" 
d="M249 170q-23 43 -40.5 96.5t-17.5 128.5q0 90 28.5 167t81.5 134t128.5 89t169.5 32q116 0 190.5 -41t117 -104.5t59 -140.5t16.5 -150v-381h-982q-42 0 -62 19.5t-20 62.5q0 51 19.5 69.5t62.5 18.5h249zM366 412q0 -62 19 -107.5t53 -75.5t80.5 -44.5t101.5 -14.5h188
v205q0 50 -8.5 100t-33 90t-68.5 65t-116 25q-48 0 -88 -19.5t-68.5 -52.5t-44 -77t-15.5 -94zM345 1133q0 22 8.5 41.5t23.5 34.5t34.5 23.5t42.5 8.5q22 0 41.5 -8.5t34.5 -23.5t23.5 -34.5t8.5 -41.5q0 -23 -8.5 -42.5t-23.5 -34.5t-34.5 -23.5t-41.5 -8.5
q-23 0 -42.5 8.5t-34.5 23.5t-23.5 34.5t-8.5 42.5zM611 1133q0 22 8.5 41.5t23.5 34.5t34.5 23.5t42.5 8.5q22 0 41.5 -8.5t34.5 -23.5t23.5 -34.5t8.5 -41.5q0 -23 -8.5 -42.5t-23.5 -34.5t-34.5 -23.5t-41.5 -8.5q-23 0 -42.5 8.5t-34.5 23.5t-23.5 34.5t-8.5 42.5z" />
    <glyph glyph-name="uniFED8" unicode="&#x642;" horiz-adv-x="1128" arabic-form="medial" 
d="M366 412q0 -62 19 -107.5t53 -75.5t80.5 -44.5t101.5 -14.5h188v205q0 50 -8.5 100t-33 90t-68.5 65t-116 25q-48 0 -88 -19.5t-68.5 -52.5t-44 -77t-15.5 -94zM1128 170q42 0 62 -19.5t20 -62.5q0 -51 -19.5 -69.5t-62.5 -18.5h-1128q-42 0 -62 19.5t-20 62.5
q0 51 19.5 69.5t62.5 18.5h249q-23 43 -40.5 96.5t-17.5 128.5q0 90 28.5 167t81.5 134t128.5 89t169.5 32q116 0 190.5 -41t117 -104.5t59 -140.5t16.5 -150v-211h146zM339 1133q0 22 8.5 41.5t23.5 34.5t34.5 23.5t42.5 8.5q22 0 41.5 -8.5t34.5 -23.5t23.5 -34.5
t8.5 -41.5q0 -23 -8.5 -42.5t-23.5 -34.5t-34.5 -23.5t-41.5 -8.5q-23 0 -42.5 8.5t-34.5 23.5t-23.5 34.5t-8.5 42.5zM605 1133q0 22 8.5 41.5t23.5 34.5t34.5 23.5t42.5 8.5q22 0 41.5 -8.5t34.5 -23.5t23.5 -34.5t8.5 -41.5q0 -23 -8.5 -42.5t-23.5 -34.5t-34.5 -23.5
t-41.5 -8.5q-23 0 -42.5 8.5t-34.5 23.5t-23.5 34.5t-8.5 42.5z" />
    <glyph glyph-name="uniFED6" unicode="&#x642;" horiz-adv-x="1557" arabic-form="final" 
d="M1009 0q-83 0 -154 21t-123.5 66t-82 116t-29.5 171q0 85 27.5 164.5t79.5 141.5t127.5 99.5t170.5 37.5q107 0 181 -37.5t119.5 -107.5t66 -168.5t20.5 -219.5v-114h145q42 0 62 -19.5t20 -62.5q0 -51 -19.5 -69.5t-62.5 -18.5h-149q-15 -125 -67.5 -209.5t-139 -136
t-204.5 -74t-263 -22.5q-191 0 -321.5 38t-211 105t-116 158.5t-35.5 198.5v266h166v-229q0 -181 128.5 -275t389.5 -94q66 0 129.5 4t119.5 14.5t104 29.5t82 49.5t53.5 73.5t19.5 103h-233zM784 391q0 -103 61 -162t176 -59h219v153q0 75 -12 136.5t-39 105t-70.5 67
t-105.5 23.5q-59 0 -102 -23.5t-71 -61t-42 -84.5t-14 -95zM802 1133q0 22 8.5 41.5t23.5 34.5t34.5 23.5t42.5 8.5q22 0 41.5 -8.5t34.5 -23.5t23.5 -34.5t8.5 -41.5q0 -23 -8.5 -42.5t-23.5 -34.5t-34.5 -23.5t-41.5 -8.5q-23 0 -42.5 8.5t-34.5 23.5t-23.5 34.5
t-8.5 42.5zM1068 1133q0 22 8.5 41.5t23.5 34.5t34.5 23.5t42.5 8.5q22 0 41.5 -8.5t34.5 -23.5t23.5 -34.5t8.5 -41.5q0 -23 -8.5 -42.5t-23.5 -34.5t-34.5 -23.5t-41.5 -8.5q-23 0 -42.5 8.5t-34.5 23.5t-23.5 34.5t-8.5 42.5z" />
    <glyph glyph-name="uni0643" unicode="&#x643;" horiz-adv-x="1845" arabic-form="isolated" 
d="M1105 604h-375v94h92q-14 23 -21.5 48.5t-7.5 54.5q0 45 15 79.5t39.5 58t56 35t64.5 11.5q34 0 59.5 -4.5t38.5 -13.5v-97q-39 19 -88 19q-25 0 -42.5 -8t-29 -20.5t-17 -29t-5.5 -34.5q0 -41 26 -70t80 -29h115v-94zM1705 0h-1241q-119 0 -198.5 16t-127.5 52t-68 93
t-20 138v317h174v-256q0 -63 15 -100.5t52.5 -57.5t101 -26t161.5 -6h977v1259h174v-1429z" />
    <glyph glyph-name="uniFEDB" unicode="&#x643;" horiz-adv-x="937" arabic-form="initial" 
d="M0 0q-42 0 -62 19.5t-20 62.5q0 51 19.5 69.5t62.5 18.5h489q38 0 70.5 6t56 21t37 39.5t13.5 62.5q0 60 -43 127t-115.5 131t-167 121.5t-197.5 98.5v180l665 432v-200l-485 -298q141 -66 237.5 -141.5t155.5 -153.5t85 -156.5t26 -150.5q0 -44 -12.5 -94.5t-47.5 -94
t-97 -72t-160 -28.5h-510z" />
    <glyph glyph-name="uniFEDC" unicode="&#x643;" horiz-adv-x="1025" arabic-form="medial" 
d="M823 393q20 -57 39.5 -99t42.5 -69.5t52 -41t68 -13.5q42 0 62 -19.5t20 -62.5q0 -51 -19 -69.5t-63 -18.5q-83 0 -136.5 36t-93.5 118q-21 -48 -53 -78t-71 -47t-82.5 -23t-86.5 -6h-502q-42 0 -62 19.5t-20 62.5q0 51 19.5 69.5t62.5 18.5h489q94 0 135.5 34.5
t41.5 94.5t-43 127t-115.5 131t-167 121.5t-197.5 98.5v180l665 432v-200l-485 -298q109 -52 193.5 -114t146 -128t101 -131.5t59.5 -124.5z" />
    <glyph glyph-name="uniFEDA" unicode="&#x643;" horiz-adv-x="1891" arabic-form="final" 
d="M1105 604h-375v94h92q-14 23 -21.5 48.5t-7.5 54.5q0 45 15 79.5t39.5 58t56 35t64.5 11.5q34 0 59.5 -4.5t38.5 -13.5v-97q-39 19 -88 19q-25 0 -42.5 -8t-29 -20.5t-17 -29t-5.5 -34.5q0 -41 26 -70t80 -29h115v-94zM464 0q-119 0 -198.5 16t-127.5 52t-68 93t-20 138
v317h174v-256q0 -63 15 -100.5t52.5 -57.5t101 -26t161.5 -6h811q37 0 68 4t52.5 19t33.5 45t12 81v1110h176v-1034q0 -51 8.5 -93t29.5 -71t56.5 -45t89.5 -16q42 0 62 -19.5t20 -62.5q0 -51 -19.5 -69.5t-62.5 -18.5q-33 0 -66 8.5t-61 24t-49.5 36.5t-33.5 46
q-20 -37 -51.5 -59.5t-67.5 -35t-74.5 -16.5t-72.5 -4h-951z" />
    <glyph glyph-name="uni0644" unicode="&#x644;" horiz-adv-x="1314" arabic-form="isolated" 
d="M1174 1429v-1322q0 -269 -138.5 -409t-422.5 -140q-140 0 -245.5 36t-176 104.5t-106 167.5t-35.5 224v274h174v-239q0 -199 97 -298t296 -99q103 0 176 21t119 67t67 118.5t21 174.5v1320h174z" />
    <glyph glyph-name="uniFEDF" unicode="&#x644;" horiz-adv-x="565" arabic-form="initial" 
d="M0 0q-42 0 -62 19.5t-20 62.5q0 51 19.5 69.5t62.5 18.5h251v1259h174v-1429h-425z" />
    <glyph glyph-name="uniFEE0" unicode="&#x644;" horiz-adv-x="626" arabic-form="medial" 
d="M0 0q-42 0 -62 19.5t-20 62.5q0 51 19.5 69.5t62.5 18.5h100q37 0 68 4t52.5 19t33.5 45t12 81v1110h176v-1034q0 -51 8.5 -93t29.5 -71t56.5 -45t89.5 -16q42 0 62 -19.5t20 -62.5q0 -51 -19.5 -69.5t-62.5 -18.5q-33 0 -66 8.5t-61 24t-49.5 36.5t-33.5 46
q-20 -37 -51.5 -59.5t-67.5 -35t-74.5 -16.5t-72.5 -4h-150z" />
    <glyph glyph-name="uniFEDE" unicode="&#x644;" horiz-adv-x="1357" arabic-form="final" 
d="M1174 0q-9 -117 -49 -200.5t-110 -137.5t-171 -79t-231 -25q-140 0 -245.5 37t-176 106t-106 167.5t-35.5 221.5v274h174v-239q0 -199 97 -299t296 -100q103 0 176 21.5t119 67.5t67 119t21 175v1320h174v-1259h183q42 0 62 -19.5t20 -62.5q0 -51 -19.5 -69.5
t-62.5 -18.5h-183z" />
    <glyph glyph-name="uni0645" unicode="&#x645;" horiz-adv-x="1242" arabic-form="isolated" 
d="M308 278q22 101 54 176.5t70.5 130t82 89.5t87 55.5t86 28.5t79.5 8q80 0 147 -27.5t115.5 -78.5t75.5 -122t27 -158q0 -92 -22 -167.5t-68 -128.5t-115.5 -82t-163.5 -29q-41 0 -84 6.5t-89.5 23t-97.5 44.5t-108 70q-51 -14 -82.5 -35t-49.5 -57t-24 -90t-6 -132v-245
h-172v249q0 104 11 178.5t39.5 129t78.5 93t129 70.5zM957 362q0 53 -13 96.5t-38.5 74.5t-63 48t-85.5 17t-91.5 -19.5t-80.5 -61t-67 -105.5t-52 -154q69 -54 144 -82.5t144 -28.5q95 0 149 50t54 165z" />
    <glyph glyph-name="uniFEE3" unicode="&#x645;" horiz-adv-x="1192" arabic-form="initial" 
d="M334 117q-27 -41 -55 -64.5t-58 -35t-63 -14.5t-70 -3h-88q-42 0 -62 19.5t-20 62.5q0 51 19.5 69.5t62.5 18.5h84q24 0 51 6t53.5 25.5t50.5 56t42 98.5q36 125 87.5 204.5t110.5 125.5t120.5 63t117.5 17q80 0 147 -27.5t115.5 -78.5t75.5 -122t27 -158
q0 -92 -22 -167.5t-68 -128.5t-115.5 -82t-163.5 -29q-41 0 -84 6.5t-89.5 23t-97.5 44.5t-108 70zM907 362q0 53 -13 96.5t-38.5 74.5t-63 48t-85.5 17t-91.5 -19.5t-80.5 -61t-67 -105.5t-52 -154q69 -54 144 -82.5t144 -28.5q95 0 149 50t54 165z" />
    <glyph glyph-name="uniFEE4" unicode="&#x645;" horiz-adv-x="1141" arabic-form="medial" 
d="M827 362q0 53 -13 96.5t-38.5 74.5t-63 48t-85.5 17t-91.5 -19.5t-80.5 -61t-67 -105.5t-52 -154q69 -54 144 -82.5t144 -28.5q95 0 149 50t54 165zM949 138q-43 -78 -121 -121.5t-195 -43.5q-41 0 -84 6.5t-89.5 23t-97.5 44.5t-108 70q-27 -41 -53 -64.5t-53.5 -35
t-58 -14.5t-67.5 -3h-22q-42 0 -62 19.5t-20 62.5q0 51 19.5 69.5t62.5 18.5h18q24 0 48.5 6t48.5 25.5t46 56t40 98.5q36 125 87.5 204.5t110.5 125.5t120.5 63t117.5 17q80 0 147 -27.5t115.5 -78.5t75.5 -122t27 -158q0 -20 -1 -39t-3 -38q20 -65 57.5 -99t85.5 -34
q42 0 61.5 -19.5t19.5 -62.5q0 -51 -19 -69.5t-62 -18.5q-56 0 -106.5 32t-85.5 106z" />
    <glyph glyph-name="uniFEE2" unicode="&#x645;" horiz-adv-x="1271" arabic-form="final" 
d="M1128 303q20 -65 57.5 -99t85.5 -34q42 0 61.5 -19.5t19.5 -62.5q0 -51 -19 -69.5t-62 -18.5q-59 0 -108 32t-84 106q-43 -78 -121 -121.5t-195 -43.5q-41 0 -84 6.5t-89.5 23t-97.5 44.5t-108 70q-51 -14 -82.5 -35t-49.5 -57t-24 -90t-6 -132v-245h-172v249
q0 104 11 178.5t39.5 129t78.5 93t129 70.5q22 101 54 176.5t70.5 130t82 89.5t87 55.5t86 28.5t79.5 8q80 0 147 -27.5t115.5 -78.5t75.5 -122t27 -158q0 -20 -1 -39t-3 -38zM957 362q0 53 -13 96.5t-38.5 74.5t-63 48t-85.5 17t-91.5 -19.5t-80.5 -61t-67 -105.5t-52 -154
q69 -54 144 -82.5t144 -28.5q95 0 149 50t54 165z" />
    <glyph glyph-name="uni0646" unicode="&#x646;" horiz-adv-x="1314" arabic-form="isolated" 
d="M50 559h174v-280q0 -99 24.5 -167.5t73 -110.5t122.5 -60.5t173 -18.5q103 0 176 15t119 53t67 104t21 168v526h174v-528q0 -142 -37.5 -239t-109 -157t-176 -86t-238.5 -26q-280 0 -421.5 127.5t-141.5 364.5v315zM511 864q0 22 8.5 41.5t23.5 34.5t34.5 23.5t42.5 8.5
q22 0 41.5 -8.5t34.5 -23.5t23.5 -34.5t8.5 -41.5q0 -23 -8.5 -42.5t-23.5 -34.5t-34.5 -23.5t-41.5 -8.5q-23 0 -42.5 8.5t-34.5 23.5t-23.5 34.5t-8.5 42.5z" />
    <glyph glyph-name="uniFEE7" unicode="&#x646;" horiz-adv-x="627" arabic-form="initial" 
d="M0 0q-42 0 -62 19.5t-20 62.5q0 51 19.5 69.5t62.5 18.5h313v618h174v-788h-487zM290 1133q0 22 8.5 41.5t23.5 34.5t34.5 23.5t42.5 8.5q22 0 41.5 -8.5t34.5 -23.5t23.5 -34.5t8.5 -41.5q0 -23 -8.5 -42.5t-23.5 -34.5t-34.5 -23.5t-41.5 -8.5q-23 0 -42.5 8.5
t-34.5 23.5t-23.5 34.5t-8.5 42.5z" />
    <glyph glyph-name="uniFEE8" unicode="&#x646;" horiz-adv-x="680" arabic-form="medial" 
d="M0 0q-42 0 -62 19.5t-20 62.5q0 51 19.5 69.5t62.5 18.5h154q37 0 68 4t52.5 19t33.5 45t12 81v469h176v-393q0 -51 8.5 -93t29.5 -71t56.5 -45t89.5 -16q42 0 62 -19.5t20 -62.5q0 -51 -19.5 -69.5t-62.5 -18.5q-33 0 -66 8.5t-61 24t-49.5 36.5t-33.5 46
q-20 -37 -51.5 -59.5t-67.5 -35t-74.5 -16.5t-72.5 -4h-204zM307 1133q0 22 8.5 41.5t23.5 34.5t34.5 23.5t42.5 8.5q22 0 41.5 -8.5t34.5 -23.5t23.5 -34.5t8.5 -41.5q0 -23 -8.5 -42.5t-23.5 -34.5t-34.5 -23.5t-41.5 -8.5q-23 0 -42.5 8.5t-34.5 23.5t-23.5 34.5
t-8.5 42.5z" />
    <glyph glyph-name="uniFEE6" unicode="&#x646;" horiz-adv-x="1357" arabic-form="final" 
d="M1357 0q-36 0 -66 8t-53.5 20.5t-39.5 28.5t-24 32v-23q0 -135 -37.5 -231t-109 -157.5t-176 -90.5t-238.5 -29q-280 0 -421.5 118.5t-141.5 372.5v316h174v-281q0 -99 24.5 -167t73 -110t122.5 -60.5t173 -18.5q103 0 176 14.5t119 53t67 104.5t21 168v618h174v-291
q0 -51 7.5 -93t27.5 -71t55.5 -45t92.5 -16q42 0 61.5 -19.5t19.5 -62.5q0 -51 -19 -69.5t-62 -18.5zM521 731q0 22 8.5 41.5t23.5 34.5t34.5 23.5t42.5 8.5q22 0 41.5 -8.5t34.5 -23.5t23.5 -34.5t8.5 -41.5q0 -23 -8.5 -42.5t-23.5 -34.5t-34.5 -23.5t-41.5 -8.5
q-23 0 -42.5 8.5t-34.5 23.5t-23.5 34.5t-8.5 42.5z" />
    <glyph glyph-name="uniFEE9" unicode="&#x647;" horiz-adv-x="1365" arabic-form="isolated" 
d="M327 170q-20 28 -38.5 81.5t-18.5 131.5q0 49 10 97t31 90.5t53 76.5t76 55q-12 1 -28.5 2.5t-35 2.5t-37 1.5t-34.5 0.5v153q251 0 430.5 -34t295 -116.5t170 -219.5t54.5 -342v-150h-985q-40 0 -61.5 -9t-31.5 -26t-12 -40.5t-3 -51.5h-117q-3 16 -5.5 36.5l-5 41.5
t-3.5 40t-1 32q0 48 16 76.5t41.5 44.5t56.5 21t60 5h123zM577 170q44 0 72 21.5t44.5 54t23 71.5t6.5 74q0 44 -8.5 84.5t-26.5 72t-47 50t-70 18.5q-34 0 -62 -17t-47.5 -47t-30.5 -71.5t-11 -89.5q0 -41 7 -80t24.5 -69.5t45.5 -50.5t70 -21h10zM1081 170q0 110 -18 191
t-57 140.5t-100 100.5t-146 71q34 -27 57.5 -62.5t37 -73.5t19.5 -76t6 -70q0 -77 -14 -132t-33 -89h248z" />
    <glyph glyph-name="uniFEEB" unicode="&#x647;" horiz-adv-x="1287" arabic-form="initial" 
d="M190 393q0 88 28 162.5t77 127.5q-24 -2 -48 -3.5t-48 -3.5v165q235 18 417 -11t306.5 -111.5t189.5 -223t65 -345.5v-150h-1177q-42 0 -62 19.5t-20 62.5q0 51 19.5 69.5t62.5 18.5h246q-26 48 -41 104t-15 119zM341 392q0 -46 12 -86.5t33 -70.5t49.5 -47.5t60.5 -17.5
t60.5 17.5t49.5 47.5t33 70.5t12 86.5t-12 86.5t-33 70.5t-49.5 47.5t-60.5 17.5t-60.5 -17.5t-49.5 -47.5t-33 -70.5t-12 -86.5zM1003 208q0 90 -20 159t-55.5 121t-85 88t-108.5 59q32 -50 50 -111.5t18 -130.5q0 -63 -15 -119t-42 -104h258v38z" />
    <glyph glyph-name="uniFEEC" unicode="&#x647;" horiz-adv-x="1061" arabic-form="medial" 
d="M861 0q13 -18 22 -40t14.5 -44.5t8 -44.5t2.5 -41q0 -54 -20 -103.5t-60.5 -87t-100.5 -59.5t-140 -22q-89 0 -159 26.5t-118 77t-73 124t-25 168.5v46h-212q-42 0 -62 19.5t-20 62.5q0 51 19.5 69.5t62.5 18.5h212v119q0 125 26 223.5t75 166t119 103t159 35.5
q91 0 152.5 -32.5t99 -82t54 -107.5t16.5 -108q0 -52 -10 -96t-27.5 -82t-41.5 -70.5t-52 -60.5v-8h279q42 0 62 -19.5t20 -62.5q0 -51 -19.5 -69.5t-62.5 -18.5h-200zM380 170h92q78 0 132 29.5t87 73.5t47.5 94t14.5 92q0 49 -13.5 85t-36 60t-52 35.5t-62.5 11.5
q-100 0 -154.5 -89.5t-54.5 -256.5v-135zM380 0q0 -67 10.5 -119.5t36 -88.5t67.5 -55t105 -19q80 0 118 34t38 94q0 27 -6.5 54.5t-29.5 49.5t-67 36t-120 14h-152z" />
    <glyph glyph-name="uniFEEA" unicode="&#x647;" horiz-adv-x="969" arabic-form="final" 
d="M204 535q0 -42 12 -77.5t38 -61t67 -40t100 -14.5q22 0 48 2.5t51.5 7.5t49.5 11.5t44 15.5v364h-182q-50 0 -91.5 -12t-72 -37.5t-47.5 -65t-17 -93.5zM407 168q-37 0 -79 5.5t-84 20.5t-80.5 40t-68.5 64.5t-47.5 94t-17.5 127.5q0 110 36.5 185.5t96.5 122t136 67
t155 20.5h332v-587q0 -43 5.5 -73t21 -49t44 -27.5t74.5 -8.5h38q42 0 62 -19.5t20 -62.5q0 -51 -19 -69.5t-63 -18.5h-64q-53 0 -101 9t-86.5 32.5t-65 63t-34.5 100.5q-45 -16 -101 -26.5t-110 -10.5z" />
    <glyph glyph-name="uni0648" unicode="&#x648;" horiz-adv-x="1035" arabic-form="isolated" 
d="M912 59q0 -147 -36.5 -243.5t-110 -154t-184.5 -80.5t-260 -23h-86v170h63q121 0 205.5 11.5t137 42t76 83.5t23.5 135v59q-37 -21 -96.5 -40t-146.5 -19q-79 0 -148 21t-120 67t-80 118t-29 174q0 82 26.5 161t78 140t127 98.5t173.5 37.5q109 0 183 -39.5t119.5 -110
t65 -168.5t19.5 -215v-225zM284 399q0 -59 17 -103t47 -73t72 -44t93 -15q77 0 136.5 20.5t90.5 44.5v94q0 71 -11.5 131.5t-38 105t-69 70t-104.5 25.5q-63 0 -107.5 -24t-72 -61.5t-40.5 -83t-13 -87.5z" />
    <glyph glyph-name="uniFEEE" unicode="&#x648;" horiz-adv-x="1056" arabic-form="final" 
d="M908 0q-8 -125 -45 -209.5t-107.5 -136t-178 -74t-256.5 -22.5h-86v170h63q121 0 204.5 11.5t135.5 42t76 83.5t26 135h-231q-83 0 -154 21t-123.5 66t-82 116t-29.5 171q0 85 27.5 164.5t79.5 141.5t127.5 99.5t170.5 37.5q107 0 181 -37.5t119.5 -107.5t66 -168.5
t20.5 -219.5v-114h144q42 0 62 -19.5t20 -62.5q0 -51 -19.5 -69.5t-62.5 -18.5h-148zM284 391q0 -103 61 -162t176 -59h219v153q0 75 -12 136.5t-39 105t-70.5 67t-105.5 23.5q-59 0 -102 -23.5t-71 -61t-42 -84.5t-14 -95z" />
    <glyph glyph-name="uni0649" unicode="&#x649;" horiz-adv-x="1559" arabic-form="isolated" 
d="M224 156q0 -87 25 -155t87.5 -115t168 -72t267.5 -25q92 0 181.5 9t160.5 30t115 56.5t44 89.5q0 35 -18.5 61t-49.5 46.5t-70 38l-79.5 36.5t-79.5 41.5t-70 53.5t-49.5 72t-18.5 97q0 78 28 150t84.5 127t141 87.5t197.5 32.5q34 0 65 -4.5t55 -10.5t40 -11.5t20 -8.5
v-172q-42 13 -90 21t-94 8q-68 0 -119.5 -14t-86 -39.5t-51.5 -61t-17 -78.5q0 -37 19.5 -63.5t51 -47t72.5 -38l83 -35t83 -38.5t72.5 -49.5t51 -66t19.5 -89.5q0 -85 -35.5 -158t-116 -127t-210 -84.5t-316.5 -30.5q-211 0 -352.5 38t-226.5 105t-120.5 158.5t-35.5 198.5
v205h174v-168z" />
    <glyph glyph-name="uniFBE8" unicode="&#x649;" horiz-adv-x="627" arabic-form="initial" 
d="M0 0q-42 0 -62 19.5t-20 62.5q0 51 19.5 69.5t62.5 18.5h313v618h174v-788h-487z" />
    <glyph glyph-name="uniFBE9" unicode="&#x649;" horiz-adv-x="680" arabic-form="medial" 
d="M0 0q-42 0 -62 19.5t-20 62.5q0 51 19.5 69.5t62.5 18.5h154q37 0 68 4t52.5 19t33.5 45t12 81v469h176v-393q0 -51 8.5 -93t29.5 -71t56.5 -45t89.5 -16q42 0 62 -19.5t20 -62.5q0 -51 -19.5 -69.5t-62.5 -18.5q-33 0 -66 8.5t-61 24t-49.5 36.5t-33.5 46
q-20 -37 -51.5 -59.5t-67.5 -35t-74.5 -16.5t-72.5 -4h-204z" />
    <glyph glyph-name="uniFEF0" unicode="&#x649;" horiz-adv-x="1504" arabic-form="final" 
d="M1483 0q3 -5 6 -16t3 -19q0 -62 -39.5 -118t-123.5 -98t-216.5 -67t-318.5 -25q-207 0 -349 37.5t-229.5 103.5t-126.5 155.5t-39 193.5v177h174v-146q0 -183 146 -267t428 -84q105 0 202.5 8t172.5 27t120 50.5t45 78.5q0 30 -29 62.5t-105 79.5l-277 174l86 140
l251 -161l54 -34t66 -38t66.5 -31t55.5 -13q42 0 62 -19.5t20 -62.5q0 -51 -19.5 -69.5t-62.5 -18.5h-23z" />
    <glyph glyph-name="uni064A" unicode="&#x64a;" horiz-adv-x="1559" arabic-form="isolated" 
d="M224 249q0 -87 25 -155t87.5 -115t168 -72t267.5 -25q92 0 181.5 9t160.5 30t115 56.5t44 89.5q0 35 -18.5 61t-49.5 46.5t-70 38l-79.5 36.5t-79.5 41.5t-70 53.5t-49.5 72t-18.5 97q0 78 28 150t84.5 127t141 87.5t197.5 32.5q34 0 65 -4.5t55 -10.5t40 -11.5t20 -8.5
v-172q-42 13 -90 21t-94 8q-68 0 -119.5 -14t-86 -39.5t-51.5 -61t-17 -78.5q0 -37 19.5 -63.5t51 -47t72.5 -38l83 -35t83 -38.5t72.5 -49.5t51 -66t19.5 -89.5q0 -85 -35.5 -158t-116 -127t-210 -84.5t-316.5 -30.5q-211 0 -352.5 38t-226.5 105t-120.5 158.5t-35.5 198.5
v205h174v-168zM534 -507q0 22 8.5 41.5t23.5 34.5t34.5 23.5t42.5 8.5q22 0 41.5 -8.5t34.5 -23.5t23.5 -34.5t8.5 -41.5q0 -23 -8.5 -42.5t-23.5 -34.5t-34.5 -23.5t-41.5 -8.5q-23 0 -42.5 8.5t-34.5 23.5t-23.5 34.5t-8.5 42.5zM800 -507q0 22 8.5 41.5t23.5 34.5
t34.5 23.5t42.5 8.5q22 0 41.5 -8.5t34.5 -23.5t23.5 -34.5t8.5 -41.5q0 -23 -8.5 -42.5t-23.5 -34.5t-34.5 -23.5t-41.5 -8.5q-23 0 -42.5 8.5t-34.5 23.5t-23.5 34.5t-8.5 42.5z" />
    <glyph glyph-name="uniFEF3" unicode="&#x64a;" horiz-adv-x="627" arabic-form="initial" 
d="M0 0q-42 0 -62 19.5t-20 62.5q0 51 19.5 69.5t62.5 18.5h313v618h174v-788h-487zM81 -333q0 22 8.5 41.5t23.5 34.5t34.5 23.5t42.5 8.5q22 0 41.5 -8.5t34.5 -23.5t23.5 -34.5t8.5 -41.5q0 -23 -8.5 -42.5t-23.5 -34.5t-34.5 -23.5t-41.5 -8.5q-23 0 -42.5 8.5
t-34.5 23.5t-23.5 34.5t-8.5 42.5zM347 -333q0 22 8.5 41.5t23.5 34.5t34.5 23.5t42.5 8.5q22 0 41.5 -8.5t34.5 -23.5t23.5 -34.5t8.5 -41.5q0 -23 -8.5 -42.5t-23.5 -34.5t-34.5 -23.5t-41.5 -8.5q-23 0 -42.5 8.5t-34.5 23.5t-23.5 34.5t-8.5 42.5z" />
    <glyph glyph-name="uniFEF4" unicode="&#x64a;" horiz-adv-x="680" arabic-form="medial" 
d="M0 0q-42 0 -62 19.5t-20 62.5q0 51 19.5 69.5t62.5 18.5h154q37 0 68 4t52.5 19t33.5 45t12 81v469h176v-393q0 -51 8.5 -93t29.5 -71t56.5 -45t89.5 -16q42 0 62 -19.5t20 -62.5q0 -51 -19.5 -69.5t-62.5 -18.5q-33 0 -66 8.5t-61 24t-49.5 36.5t-33.5 46
q-20 -37 -51.5 -59.5t-67.5 -35t-74.5 -16.5t-72.5 -4h-204zM162 -333q0 22 8.5 41.5t23.5 34.5t34.5 23.5t42.5 8.5q22 0 41.5 -8.5t34.5 -23.5t23.5 -34.5t8.5 -41.5q0 -23 -8.5 -42.5t-23.5 -34.5t-34.5 -23.5t-41.5 -8.5q-23 0 -42.5 8.5t-34.5 23.5t-23.5 34.5
t-8.5 42.5zM428 -333q0 22 8.5 41.5t23.5 34.5t34.5 23.5t42.5 8.5q22 0 41.5 -8.5t34.5 -23.5t23.5 -34.5t8.5 -41.5q0 -23 -8.5 -42.5t-23.5 -34.5t-34.5 -23.5t-41.5 -8.5q-23 0 -42.5 8.5t-34.5 23.5t-23.5 34.5t-8.5 42.5z" />
    <glyph glyph-name="uniFEF2" unicode="&#x64a;" horiz-adv-x="1504" arabic-form="final" 
d="M1483 0q3 -5 6 -16t3 -19q0 -62 -39.5 -118t-123.5 -98t-216.5 -67t-318.5 -25q-207 0 -349 37.5t-229.5 103.5t-126.5 155.5t-39 193.5v177h174v-146q0 -183 146 -267t428 -84q105 0 202.5 8t172.5 27t120 50.5t45 78.5q0 30 -29 62.5t-105 79.5l-277 174l86 140
l251 -161l54 -34t66 -38t66.5 -31t55.5 -13q42 0 62 -19.5t20 -62.5q0 -51 -19.5 -69.5t-62.5 -18.5h-23zM535 -574q0 22 8.5 41.5t23.5 34.5t34.5 23.5t42.5 8.5q22 0 41.5 -8.5t34.5 -23.5t23.5 -34.5t8.5 -41.5q0 -23 -8.5 -42.5t-23.5 -34.5t-34.5 -23.5t-41.5 -8.5
q-23 0 -42.5 8.5t-34.5 23.5t-23.5 34.5t-8.5 42.5zM801 -574q0 22 8.5 41.5t23.5 34.5t34.5 23.5t42.5 8.5q22 0 41.5 -8.5t34.5 -23.5t23.5 -34.5t8.5 -41.5q0 -23 -8.5 -42.5t-23.5 -34.5t-34.5 -23.5t-41.5 -8.5q-23 0 -42.5 8.5t-34.5 23.5t-23.5 34.5t-8.5 42.5z" />
    <glyph glyph-name="uni0671" unicode="&#x671;" horiz-adv-x="454" arabic-form="isolated" 
d="M314 1238v-1238h-174v1238h174zM361 1431v29q0 17 -3.5 32.5t-12 27.5t-23.5 19t-37 7q-21 0 -42 -9.5t-39 -25t-32.5 -36.5t-23.5 -44h213zM146 1529q31 44 67 65t83 21q60 0 93.5 -37.5t33.5 -105.5v-108h-416v67h73v164h66v-66z" />
    <glyph glyph-name="uniFB51" unicode="&#x671;" horiz-adv-x="463" arabic-form="final" 
d="M545 88q0 -51 -19 -69.5t-63 -18.5h-30q-65 0 -119 13.5t-92.5 46.5t-60 87.5t-21.5 135.5v954h174v-909q0 -43 5.5 -73t21.5 -49t44.5 -27.5t74.5 -8.5h4q42 0 61.5 -19.5t19.5 -62.5zM361 1431v29q0 17 -3.5 32.5t-12 27.5t-23.5 19t-37 7q-21 0 -42 -9.5t-39 -25
t-32.5 -36.5t-23.5 -44h213zM146 1529q31 44 67 65t83 21q60 0 93.5 -37.5t33.5 -105.5v-108h-416v67h73v164h66v-66z" />
    <glyph glyph-name="uni0679" unicode="&#x679;" horiz-adv-x="1845" arabic-form="isolated" 
d="M1705 0h-1241q-119 0 -198.5 16t-127.5 52t-68 93t-20 138v317h174v-256q0 -63 15 -100.5t52.5 -57.5t101 -26t161.5 -6h977v618h174v-788zM1081 916v39q0 22 -4.5 41.5t-15.5 34.5t-29 24t-46 9t-55 -12t-50.5 -32t-41.5 -47t-29 -57h271zM806 1043q40 54 87 81.5
t106 27.5q75 0 118.5 -48t43.5 -134v-140h-533v86h96v424h82v-297z" />
    <glyph glyph-name="uniFB68" unicode="&#x679;" horiz-adv-x="627" arabic-form="initial" 
d="M0 0q-42 0 -62 19.5t-20 62.5q0 51 19.5 69.5t62.5 18.5h313v618h174v-788h-487zM520 1040v39q0 22 -4.5 41.5t-15.5 34.5t-29 24t-46 9t-55 -12t-50.5 -32t-41.5 -47t-29 -57h271zM245 1167q40 54 87 81.5t106 27.5q75 0 118.5 -48t43.5 -134v-140h-533v86h96v424h82
v-297z" />
    <glyph glyph-name="uniFB69" unicode="&#x679;" horiz-adv-x="680" arabic-form="medial" 
d="M0 0q-42 0 -62 19.5t-20 62.5q0 51 19.5 69.5t62.5 18.5h154q37 0 68 4t52.5 19t33.5 45t12 81v469h176v-393q0 -51 8.5 -93t29.5 -71t56.5 -45t89.5 -16q42 0 62 -19.5t20 -62.5q0 -51 -19.5 -69.5t-62.5 -18.5q-33 0 -66 8.5t-61 24t-49.5 36.5t-33.5 46
q-20 -37 -51.5 -59.5t-67.5 -35t-74.5 -16.5t-72.5 -4h-204zM520 1040v39q0 22 -4.5 41.5t-15.5 34.5t-29 24t-46 9t-55 -12t-50.5 -32t-41.5 -47t-29 -57h271zM245 1167q40 54 87 81.5t106 27.5q75 0 118.5 -48t43.5 -134v-140h-533v86h96v424h82v-297z" />
    <glyph glyph-name="uniFB67" unicode="&#x679;" horiz-adv-x="1890" arabic-form="final" 
d="M464 0q-119 0 -198.5 16t-127.5 52t-68 93t-20 138v317h174v-256q0 -63 15 -100.5t52.5 -57.5t101 -26t161.5 -6h811q37 0 68 4t52.5 19t33.5 45t12 81v469h176v-393q0 -51 7 -93t26.5 -71t54 -45t88.5 -16q42 0 62 -19.5t20 -62.5q0 -51 -19.5 -69.5t-62.5 -18.5
q-33 0 -64.5 8.5t-58 24t-47 36.5t-32.5 46q-20 -37 -51.5 -59.5t-67.5 -35t-74.5 -16.5t-72.5 -4h-951zM1081 916v39q0 22 -4.5 41.5t-15.5 34.5t-29 24t-46 9t-55 -12t-50.5 -32t-41.5 -47t-29 -57h271zM806 1043q40 54 87 81.5t106 27.5q75 0 118.5 -48t43.5 -134v-140
h-533v86h96v424h82v-297z" />
    <glyph glyph-name="uni067E" unicode="&#x67e;" horiz-adv-x="1845" arabic-form="isolated" 
d="M1705 0h-1241q-119 0 -198.5 16t-127.5 52t-68 93t-20 138v317h174v-256q0 -63 15 -100.5t52.5 -57.5t101 -26t161.5 -6h977v618h174v-788zM1047 -147q0 -30 -21 -51t-50 -21q-30 0 -51 21t-21 51q0 29 21 50t51 21q29 0 50 -21t21 -50zM871 -147q0 -30 -21 -51t-50 -21
q-30 0 -51 21t-21 51q0 29 21 50t51 21q29 0 50 -21t21 -50zM957 -310q0 -29 -21.5 -50.5t-50.5 -21.5t-50.5 21.5t-21.5 50.5t21.5 50.5t50.5 21.5t50.5 -21.5t21.5 -50.5z" />
    <glyph glyph-name="uniFB58" unicode="&#x67e;" horiz-adv-x="627" arabic-form="initial" 
d="M0 0q-42 0 -62 19.5t-20 62.5q0 51 19.5 69.5t62.5 18.5h313v618h174v-788h-487zM441 -147q0 -30 -21 -51t-50 -21q-30 0 -51 21t-21 51q0 29 21 50t51 21q29 0 50 -21t21 -50zM265 -147q0 -30 -21 -51t-50 -21q-30 0 -51 21t-21 51q0 29 21 50t51 21q29 0 50 -21t21 -50
zM351 -310q0 -29 -21.5 -50.5t-50.5 -21.5t-50.5 21.5t-21.5 50.5t21.5 50.5t50.5 21.5t50.5 -21.5t21.5 -50.5z" />
    <glyph glyph-name="uniFB59" unicode="&#x67e;" horiz-adv-x="680" arabic-form="medial" 
d="M0 0q-42 0 -62 19.5t-20 62.5q0 51 19.5 69.5t62.5 18.5h154q37 0 68 4t52.5 19t33.5 45t12 81v469h176v-393q0 -51 8.5 -93t29.5 -71t56.5 -45t89.5 -16q42 0 62 -19.5t20 -62.5q0 -51 -19.5 -69.5t-62.5 -18.5q-33 0 -66 8.5t-61 24t-49.5 36.5t-33.5 46
q-20 -37 -51.5 -59.5t-67.5 -35t-74.5 -16.5t-72.5 -4h-204zM500 -147q0 -30 -21 -51t-50 -21q-30 0 -51 21t-21 51q0 29 21 50t51 21q29 0 50 -21t21 -50zM324 -147q0 -30 -21 -51t-50 -21q-30 0 -51 21t-21 51q0 29 21 50t51 21q29 0 50 -21t21 -50zM410 -310
q0 -29 -21.5 -50.5t-50.5 -21.5t-50.5 21.5t-21.5 50.5t21.5 50.5t50.5 21.5t50.5 -21.5t21.5 -50.5z" />
    <glyph glyph-name="uniFB57" unicode="&#x67e;" horiz-adv-x="1890" arabic-form="final" 
d="M464 0q-119 0 -198.5 16t-127.5 52t-68 93t-20 138v317h174v-256q0 -63 15 -100.5t52.5 -57.5t101 -26t161.5 -6h811q37 0 68 4t52.5 19t33.5 45t12 81v469h176v-393q0 -51 7 -93t26.5 -71t54 -45t88.5 -16q42 0 62 -19.5t20 -62.5q0 -51 -19.5 -69.5t-62.5 -18.5
q-33 0 -64.5 8.5t-58 24t-47 36.5t-32.5 46q-20 -37 -51.5 -59.5t-67.5 -35t-74.5 -16.5t-72.5 -4h-951zM1045 -147q0 -30 -21 -51t-50 -21q-30 0 -51 21t-21 51q0 29 21 50t51 21q29 0 50 -21t21 -50zM869 -147q0 -30 -21 -51t-50 -21q-30 0 -51 21t-21 51q0 29 21 50
t51 21q29 0 50 -21t21 -50zM955 -310q0 -29 -21.5 -50.5t-50.5 -21.5t-50.5 21.5t-21.5 50.5t21.5 50.5t50.5 21.5t50.5 -21.5t21.5 -50.5z" />
    <glyph glyph-name="uni0686" unicode="&#x686;" horiz-adv-x="1229" arabic-form="isolated" 
d="M900 -212q0 -30 -21 -51t-50 -21q-30 0 -51 21t-21 51q0 29 21 50t51 21q29 0 50 -21t21 -50zM724 -212q0 -30 -21 -51t-50 -21q-30 0 -51 21t-21 51q0 29 21 50t51 21q29 0 50 -21t21 -50zM810 -375q0 -29 -21.5 -50.5t-50.5 -21.5t-50.5 21.5t-21.5 50.5t21.5 50.5
t50.5 21.5t50.5 -21.5t21.5 -50.5zM904 170q0 130 -34.5 221t-93.5 147t-138.5 81.5t-169.5 25.5q-30 0 -62.5 -3t-63.5 -8t-59.5 -11.5t-49.5 -12.5v164q40 13 107.5 28t148.5 15q104 0 188.5 -24.5t150.5 -68t113.5 -105t78.5 -135.5t46 -159t15 -175v-150h-732
q-40 0 -74 -7t-58.5 -21.5t-38.5 -36.5t-14 -53q0 -32 23 -63t64 -61.5t98 -61t126 -61.5l-82 -154q-98 39 -173.5 85t-127 97t-78.5 106.5t-27 112.5q0 77 29.5 132t82.5 89.5t125.5 50.5t159.5 16h520z" />
    <glyph glyph-name="uniFB7C" unicode="&#x686;" horiz-adv-x="1107" arabic-form="initial" 
d="M821 170q0 130 -34.5 221t-93.5 147t-138.5 81.5t-169.5 25.5q-30 0 -62.5 -3t-63.5 -8t-59.5 -11.5t-49.5 -12.5v164q40 13 107.5 28t148.5 15q156 0 268 -53.5t184 -144.5t105.5 -212t33.5 -257v-150h-997q-42 0 -62 19.5t-20 62.5q0 51 19.5 69.5t62.5 18.5h821z
M604 -147q0 -30 -21 -51t-50 -21q-30 0 -51 21t-21 51q0 29 21 50t51 21q29 0 50 -21t21 -50zM428 -147q0 -30 -21 -51t-50 -21q-30 0 -51 21t-21 51q0 29 21 50t51 21q29 0 50 -21t21 -50zM514 -310q0 -29 -21.5 -50.5t-50.5 -21.5t-50.5 21.5t-21.5 50.5t21.5 50.5
t50.5 21.5t50.5 -21.5t21.5 -50.5z" />
    <glyph glyph-name="uniFB7D" unicode="&#x686;" horiz-adv-x="1113" arabic-form="medial" 
d="M0 0q-42 0 -62 19.5t-20 62.5q0 51 19.5 69.5t62.5 18.5h821q0 130 -34.5 221t-93.5 147t-138.5 81.5t-169.5 25.5q-30 0 -62.5 -3t-63.5 -8t-59.5 -11.5t-49.5 -12.5v164q40 13 107.5 28t148.5 15q153 0 264 -51.5t183 -140t107 -206t37 -249.5h117q42 0 62 -19.5
t20 -62.5q0 -51 -19 -69.5t-63 -18.5h-1114zM604 -147q0 -30 -21 -51t-50 -21q-30 0 -51 21t-21 51q0 29 21 50t51 21q29 0 50 -21t21 -50zM428 -147q0 -30 -21 -51t-50 -21q-30 0 -51 21t-21 51q0 29 21 50t51 21q29 0 50 -21t21 -50zM514 -310q0 -29 -21.5 -50.5
t-50.5 -21.5t-50.5 21.5t-21.5 50.5t21.5 50.5t50.5 21.5t50.5 -21.5t21.5 -50.5z" />
    <glyph glyph-name="uniFB7B" unicode="&#x686;" horiz-adv-x="1240" arabic-form="final" 
d="M393 0q-40 0 -74 -7t-58.5 -21.5t-38.5 -36.5t-14 -53q0 -32 23 -63t64 -61.5t98 -61t126 -61.5l-82 -154q-98 39 -173.5 85t-127 97t-78.5 106.5t-27 112.5q0 77 29.5 132t82.5 89.5t125.5 50.5t159.5 16h519q0 130 -34.5 221t-93.5 147t-138.5 81.5t-169.5 25.5
q-30 0 -62.5 -3t-63.5 -8t-59.5 -11.5t-49.5 -12.5v164q40 13 107.5 28t148.5 15q153 0 264 -51.5t183 -140t107 -206t38 -249.5h115q42 0 61.5 -19.5t19.5 -62.5q0 -51 -19 -69.5t-62 -18.5h-846zM900 -212q0 -30 -21 -51t-50 -21q-30 0 -51 21t-21 51q0 29 21 50t51 21
q29 0 50 -21t21 -50zM724 -212q0 -30 -21 -51t-50 -21q-30 0 -51 21t-21 51q0 29 21 50t51 21q29 0 50 -21t21 -50zM810 -375q0 -29 -21.5 -50.5t-50.5 -21.5t-50.5 21.5t-21.5 50.5t21.5 50.5t50.5 21.5t50.5 -21.5t21.5 -50.5z" />
    <glyph glyph-name="uni0688" unicode="&#x688;" horiz-adv-x="927" arabic-form="isolated" 
d="M774 384q38 -62 42 -129.5t-24.5 -124t-89 -93.5t-151.5 -37h-490v170h475q33 0 57.5 10.5t36 31t7.5 50t-29 68.5l-263 411l151 95zM618 1038v39q0 22 -4.5 41.5t-15.5 34.5t-29 24t-46 9t-55 -12t-50.5 -32t-41.5 -47t-29 -57h271zM343 1165q40 54 87 81.5t106 27.5
q75 0 118.5 -48t43.5 -134v-140h-533v86h96v424h82v-297z" />
    <glyph glyph-name="uniFB89" unicode="&#x688;" horiz-adv-x="979" arabic-form="final" 
d="M979 0q-83 0 -137 29t-86 86q-20 -38 -45 -61t-54 -35t-61.5 -15.5t-66.5 -3.5h-468v170h457q61 0 87.5 17.5t31 42.5t-5.5 52.5t-23 47.5l-263 411l151 95l249 -405l72.5 -116t58 -81.5t51 -48t52.5 -15.5q42 0 62 -19.5t20 -62.5q0 -51 -19 -69.5t-63 -18.5zM618 1038
v39q0 22 -4.5 41.5t-15.5 34.5t-29 24t-46 9t-55 -12t-50.5 -32t-41.5 -47t-29 -57h271zM343 1165q40 54 87 81.5t106 27.5q75 0 118.5 -48t43.5 -134v-140h-533v86h96v424h82v-297z" />
    <glyph glyph-name="uni0691" unicode="&#x691;" horiz-adv-x="625" arabic-form="isolated" 
d="M311 788h174v-687q0 -149 -16.5 -252t-59.5 -168t-117.5 -94t-190.5 -29h-61v170h68q73 0 114 23t60.5 71t24 122.5t4.5 178.5v665zM538 1038v39q0 22 -4.5 41.5t-15.5 34.5t-29 24t-46 9t-55 -12t-50.5 -32t-41.5 -47t-29 -57h271zM263 1165q40 54 87 81.5t106 27.5
q75 0 118.5 -48t43.5 -134v-140h-533v86h96v424h82v-297z" />
    <glyph glyph-name="uniFB8D" unicode="&#x691;" horiz-adv-x="671" arabic-form="final" 
d="M671 0q-30 0 -58.5 7t-53.5 19t-44.5 28t-29.5 35q0 -141 -17 -241.5t-60 -165t-117.5 -94.5t-189.5 -30h-61v170h68q76 0 118 23t61 71t22.5 122.5t3.5 178.5v665h174v-393q0 -51 10 -93t31.5 -71t56.5 -45t86 -16q42 0 62 -19.5t20 -62.5q0 -51 -19.5 -69.5
t-62.5 -18.5zM538 1038v39q0 22 -4.5 41.5t-15.5 34.5t-29 24t-46 9t-55 -12t-50.5 -32t-41.5 -47t-29 -57h271zM263 1165q40 54 87 81.5t106 27.5q75 0 118.5 -48t43.5 -134v-140h-533v86h96v424h82v-297z" />
    <glyph glyph-name="uni0698" unicode="&#x698;" horiz-adv-x="625" arabic-form="isolated" 
d="M311 788h174v-687q0 -149 -16.5 -252t-59.5 -168t-117.5 -94t-190.5 -29h-61v170h68q73 0 114 23t60.5 71t24 122.5t4.5 178.5v665zM159 1133q0 22 8.5 41.5t23.5 34.5t34.5 23.5t42.5 8.5q22 0 41.5 -8.5t34.5 -23.5t23.5 -34.5t8.5 -41.5q0 -23 -8.5 -42.5t-23.5 -34.5
t-34.5 -23.5t-41.5 -8.5q-23 0 -42.5 8.5t-34.5 23.5t-23.5 34.5t-8.5 42.5zM425 1133q0 22 8.5 41.5t23.5 34.5t34.5 23.5t42.5 8.5q22 0 41.5 -8.5t34.5 -23.5t23.5 -34.5t8.5 -41.5q0 -23 -8.5 -42.5t-23.5 -34.5t-34.5 -23.5t-41.5 -8.5q-23 0 -42.5 8.5t-34.5 23.5
t-23.5 34.5t-8.5 42.5zM296 1378q0 22 8.5 42t23.5 35t34.5 23.5t42.5 8.5q22 0 41.5 -8.5t34.5 -23.5t23.5 -35t8.5 -42t-8.5 -41.5t-23.5 -34.5t-34.5 -23.5t-41.5 -8.5q-23 0 -42.5 8.5t-34.5 23.5t-23.5 34.5t-8.5 41.5z" />
    <glyph glyph-name="uniFB8B" unicode="&#x698;" horiz-adv-x="671" arabic-form="final" 
d="M671 0q-30 0 -58.5 7t-53.5 19t-44.5 28t-29.5 35q0 -141 -17 -241.5t-60 -165t-117.5 -94.5t-189.5 -30h-61v170h68q76 0 118 23t61 71t22.5 122.5t3.5 178.5v665h174v-393q0 -51 10 -93t31.5 -71t56.5 -45t86 -16q42 0 62 -19.5t20 -62.5q0 -51 -19.5 -69.5
t-62.5 -18.5zM159 1133q0 22 8.5 41.5t23.5 34.5t34.5 23.5t42.5 8.5q22 0 41.5 -8.5t34.5 -23.5t23.5 -34.5t8.5 -41.5q0 -23 -8.5 -42.5t-23.5 -34.5t-34.5 -23.5t-41.5 -8.5q-23 0 -42.5 8.5t-34.5 23.5t-23.5 34.5t-8.5 42.5zM425 1133q0 22 8.5 41.5t23.5 34.5
t34.5 23.5t42.5 8.5q22 0 41.5 -8.5t34.5 -23.5t23.5 -34.5t8.5 -41.5q0 -23 -8.5 -42.5t-23.5 -34.5t-34.5 -23.5t-41.5 -8.5q-23 0 -42.5 8.5t-34.5 23.5t-23.5 34.5t-8.5 42.5zM296 1378q0 22 8.5 42t23.5 35t34.5 23.5t42.5 8.5q22 0 41.5 -8.5t34.5 -23.5t23.5 -35
t8.5 -42t-8.5 -41.5t-23.5 -34.5t-34.5 -23.5t-41.5 -8.5q-23 0 -42.5 8.5t-34.5 23.5t-23.5 34.5t-8.5 41.5z" />
    <glyph glyph-name="uni06A4" unicode="&#x6a4;" horiz-adv-x="2101" arabic-form="isolated" 
d="M1363 412q0 -62 19 -107.5t53 -75.5t80.5 -44.5t101.5 -14.5h188v205q0 50 -8.5 100t-33 90t-68.5 65t-116 25q-48 0 -88 -19.5t-68.5 -52.5t-44 -77t-15.5 -94zM1246 170q-23 43 -40.5 96.5t-17.5 128.5q0 90 28.5 167t81.5 134t128.5 89t169.5 32q116 0 190.5 -41
t117 -104.5t59 -140.5t16.5 -150v-381h-1515q-119 0 -198.5 16t-127.5 52t-68 93t-20 138v317h174v-256q0 -63 15.5 -100.5t53 -57.5t101.5 -26t162 -6h690zM1332 1133q0 22 8.5 41.5t23.5 34.5t34.5 23.5t42.5 8.5q22 0 41.5 -8.5t34.5 -23.5t23.5 -34.5t8.5 -41.5
q0 -23 -8.5 -42.5t-23.5 -34.5t-34.5 -23.5t-41.5 -8.5q-23 0 -42.5 8.5t-34.5 23.5t-23.5 34.5t-8.5 42.5zM1598 1133q0 22 8.5 41.5t23.5 34.5t34.5 23.5t42.5 8.5q22 0 41.5 -8.5t34.5 -23.5t23.5 -34.5t8.5 -41.5q0 -23 -8.5 -42.5t-23.5 -34.5t-34.5 -23.5t-41.5 -8.5
q-23 0 -42.5 8.5t-34.5 23.5t-23.5 34.5t-8.5 42.5zM1469 1378q0 22 8.5 42t23.5 35t34.5 23.5t42.5 8.5q22 0 41.5 -8.5t34.5 -23.5t23.5 -35t8.5 -42t-8.5 -41.5t-23.5 -34.5t-34.5 -23.5t-41.5 -8.5q-23 0 -42.5 8.5t-34.5 23.5t-23.5 34.5t-8.5 41.5z" />
    <glyph glyph-name="uniFB6C" unicode="&#x6a4;" horiz-adv-x="1104" arabic-form="initial" 
d="M249 170q-23 43 -40.5 96.5t-17.5 128.5q0 90 28.5 167t81.5 134t128.5 89t169.5 32q116 0 190.5 -41t117 -104.5t59 -140.5t16.5 -150v-381h-982q-42 0 -62 19.5t-20 62.5q0 51 19.5 69.5t62.5 18.5h249zM366 412q0 -62 19 -107.5t53 -75.5t80.5 -44.5t101.5 -14.5h188
v205q0 50 -8.5 100t-33 90t-68.5 65t-116 25q-48 0 -88 -19.5t-68.5 -52.5t-44 -77t-15.5 -94zM361 1133q0 22 8.5 41.5t23.5 34.5t34.5 23.5t42.5 8.5q22 0 41.5 -8.5t34.5 -23.5t23.5 -34.5t8.5 -41.5q0 -23 -8.5 -42.5t-23.5 -34.5t-34.5 -23.5t-41.5 -8.5
q-23 0 -42.5 8.5t-34.5 23.5t-23.5 34.5t-8.5 42.5zM627 1133q0 22 8.5 41.5t23.5 34.5t34.5 23.5t42.5 8.5q22 0 41.5 -8.5t34.5 -23.5t23.5 -34.5t8.5 -41.5q0 -23 -8.5 -42.5t-23.5 -34.5t-34.5 -23.5t-41.5 -8.5q-23 0 -42.5 8.5t-34.5 23.5t-23.5 34.5t-8.5 42.5z
M498 1378q0 22 8.5 42t23.5 35t34.5 23.5t42.5 8.5q22 0 41.5 -8.5t34.5 -23.5t23.5 -35t8.5 -42t-8.5 -41.5t-23.5 -34.5t-34.5 -23.5t-41.5 -8.5q-23 0 -42.5 8.5t-34.5 23.5t-23.5 34.5t-8.5 41.5z" />
    <glyph glyph-name="uniFB6D" unicode="&#x6a4;" horiz-adv-x="1128" arabic-form="medial" 
d="M366 412q0 -62 19 -107.5t53 -75.5t80.5 -44.5t101.5 -14.5h188v205q0 50 -8.5 100t-33 90t-68.5 65t-116 25q-48 0 -88 -19.5t-68.5 -52.5t-44 -77t-15.5 -94zM1128 170q42 0 62 -19.5t20 -62.5q0 -51 -19.5 -69.5t-62.5 -18.5h-1128q-42 0 -62 19.5t-20 62.5
q0 51 19.5 69.5t62.5 18.5h249q-23 43 -40.5 96.5t-17.5 128.5q0 90 28.5 167t81.5 134t128.5 89t169.5 32q116 0 190.5 -41t117 -104.5t59 -140.5t16.5 -150v-211h146zM353 1133q0 22 8.5 41.5t23.5 34.5t34.5 23.5t42.5 8.5q22 0 41.5 -8.5t34.5 -23.5t23.5 -34.5
t8.5 -41.5q0 -23 -8.5 -42.5t-23.5 -34.5t-34.5 -23.5t-41.5 -8.5q-23 0 -42.5 8.5t-34.5 23.5t-23.5 34.5t-8.5 42.5zM619 1133q0 22 8.5 41.5t23.5 34.5t34.5 23.5t42.5 8.5q22 0 41.5 -8.5t34.5 -23.5t23.5 -34.5t8.5 -41.5q0 -23 -8.5 -42.5t-23.5 -34.5t-34.5 -23.5
t-41.5 -8.5q-23 0 -42.5 8.5t-34.5 23.5t-23.5 34.5t-8.5 42.5zM490 1378q0 22 8.5 42t23.5 35t34.5 23.5t42.5 8.5q22 0 41.5 -8.5t34.5 -23.5t23.5 -35t8.5 -42t-8.5 -41.5t-23.5 -34.5t-34.5 -23.5t-41.5 -8.5q-23 0 -42.5 8.5t-34.5 23.5t-23.5 34.5t-8.5 41.5z" />
    <glyph glyph-name="uniFB6B" unicode="&#x6a4;" horiz-adv-x="2124" arabic-form="final" 
d="M1246 170q-23 43 -40.5 96.5t-17.5 128.5q0 90 28.5 167t81.5 134t128.5 89t169.5 32q116 0 190.5 -41t117 -104.5t59 -140.5t16.5 -150v-211h145q42 0 62 -19.5t20 -62.5q0 -51 -19.5 -69.5t-62.5 -18.5h-1660q-119 0 -198.5 16t-127.5 52t-68 93t-20 138v317h166v-256
q0 -63 15.5 -100.5t53 -57.5t101.5 -26t162 -6h698zM1363 412q0 -62 19 -107.5t53 -75.5t80.5 -44.5t101.5 -14.5h188v205q0 50 -8.5 100t-33 90t-68.5 65t-116 25q-48 0 -88 -19.5t-68.5 -52.5t-44 -77t-15.5 -94zM1334 1133q0 22 8.5 41.5t23.5 34.5t34.5 23.5t42.5 8.5
q22 0 41.5 -8.5t34.5 -23.5t23.5 -34.5t8.5 -41.5q0 -23 -8.5 -42.5t-23.5 -34.5t-34.5 -23.5t-41.5 -8.5q-23 0 -42.5 8.5t-34.5 23.5t-23.5 34.5t-8.5 42.5zM1600 1133q0 22 8.5 41.5t23.5 34.5t34.5 23.5t42.5 8.5q22 0 41.5 -8.5t34.5 -23.5t23.5 -34.5t8.5 -41.5
q0 -23 -8.5 -42.5t-23.5 -34.5t-34.5 -23.5t-41.5 -8.5q-23 0 -42.5 8.5t-34.5 23.5t-23.5 34.5t-8.5 42.5zM1471 1378q0 22 8.5 42t23.5 35t34.5 23.5t42.5 8.5q22 0 41.5 -8.5t34.5 -23.5t23.5 -35t8.5 -42t-8.5 -41.5t-23.5 -34.5t-34.5 -23.5t-41.5 -8.5
q-23 0 -42.5 8.5t-34.5 23.5t-23.5 34.5t-8.5 41.5z" />
    <glyph glyph-name="uni06A9" unicode="&#x6a9;" horiz-adv-x="1812" arabic-form="isolated" 
d="M464 0q-119 0 -198.5 16t-127.5 52t-68 93t-20 138v317h174v-256q0 -63 15 -100.5t52.5 -57.5t101 -26t161.5 -6h810q38 0 70.5 6t56 21t37 39.5t13.5 62.5q0 60 -43 127t-115.5 131t-167 121.5t-197.5 98.5v180l665 432v-200l-485 -298q141 -66 237.5 -141.5
t155.5 -153.5t85 -156.5t26 -150.5q0 -44 -12.5 -94.5t-47.5 -94t-97 -72t-160 -28.5h-921z" />
    <glyph glyph-name="uniFB90" unicode="&#x6a9;" horiz-adv-x="937" arabic-form="initial" 
d="M0 0q-42 0 -62 19.5t-20 62.5q0 51 19.5 69.5t62.5 18.5h489q38 0 70.5 6t56 21t37 39.5t13.5 62.5q0 60 -43 127t-115.5 131t-167 121.5t-197.5 98.5v180l665 432v-200l-485 -298q141 -66 237.5 -141.5t155.5 -153.5t85 -156.5t26 -150.5q0 -44 -12.5 -94.5t-47.5 -94
t-97 -72t-160 -28.5h-510z" />
    <glyph glyph-name="uniFB91" unicode="&#x6a9;" horiz-adv-x="1025" arabic-form="medial" 
d="M823 393q20 -57 39.5 -99t42.5 -69.5t52 -41t68 -13.5q42 0 62 -19.5t20 -62.5q0 -51 -19 -69.5t-63 -18.5q-83 0 -136.5 36t-93.5 118q-21 -48 -53 -78t-71 -47t-82.5 -23t-86.5 -6h-502q-42 0 -62 19.5t-20 62.5q0 51 19.5 69.5t62.5 18.5h489q94 0 135.5 34.5
t41.5 94.5t-43 127t-115.5 131t-167 121.5t-197.5 98.5v180l665 432v-200l-485 -298q109 -52 193.5 -114t146 -128t101 -131.5t59.5 -124.5z" />
    <glyph glyph-name="uniFB8F" unicode="&#x6a9;" horiz-adv-x="1912" arabic-form="final" 
d="M464 0q-119 0 -198.5 16t-127.5 52t-68 93t-20 138v317h174v-256q0 -63 15 -100.5t52.5 -57.5t101 -26t161.5 -6h804q94 0 135.5 34.5t41.5 94.5t-43 127t-115.5 131t-167 121.5t-197.5 98.5v180l665 432v-200l-485 -298q109 -52 193.5 -114t146 -128t101 -131.5
t59.5 -124.5q24 -71 46.5 -114.5t48 -67.5t55.5 -32.5t69 -8.5q42 0 62 -19.5t20 -62.5q0 -51 -19 -69.5t-63 -18.5q-41 0 -77 7t-66 25t-54.5 49t-43.5 79q-19 -48 -52 -79t-73.5 -49t-85.5 -25t-88 -7h-907z" />
    <glyph glyph-name="uni06AF" unicode="&#x6af;" horiz-adv-x="1812" arabic-form="isolated" 
d="M464 0q-119 0 -198.5 16t-127.5 52t-68 93t-20 138v317h174v-256q0 -63 15 -100.5t52.5 -57.5t101 -26t161.5 -6h810q38 0 70.5 6t56 21t37 39.5t13.5 62.5q0 60 -43 127t-115.5 131t-167 121.5t-197.5 98.5v180l665 432v-200l-485 -298q141 -66 237.5 -141.5
t155.5 -153.5t85 -156.5t26 -150.5q0 -44 -12.5 -94.5t-47.5 -94t-97 -72t-160 -28.5h-921zM1017 1077v181l667 412v-178z" />
    <glyph glyph-name="uniFB94" unicode="&#x6af;" horiz-adv-x="937" arabic-form="initial" 
d="M0 0q-42 0 -62 19.5t-20 62.5q0 51 19.5 69.5t62.5 18.5h489q38 0 70.5 6t56 21t37 39.5t13.5 62.5q0 60 -43 127t-115.5 131t-167 121.5t-197.5 98.5v180l665 432v-200l-485 -298q141 -66 237.5 -141.5t155.5 -153.5t85 -156.5t26 -150.5q0 -44 -12.5 -94.5t-47.5 -94
t-97 -72t-160 -28.5h-510zM142 1077v181l667 412v-178z" />
    <glyph glyph-name="uniFB95" unicode="&#x6af;" horiz-adv-x="1025" arabic-form="medial" 
d="M823 393q20 -57 39.5 -99t42.5 -69.5t52 -41t68 -13.5q42 0 62 -19.5t20 -62.5q0 -51 -19 -69.5t-63 -18.5q-83 0 -136.5 36t-93.5 118q-21 -48 -53 -78t-71 -47t-82.5 -23t-86.5 -6h-502q-42 0 -62 19.5t-20 62.5q0 51 19.5 69.5t62.5 18.5h489q94 0 135.5 34.5
t41.5 94.5t-43 127t-115.5 131t-167 121.5t-197.5 98.5v180l665 432v-200l-485 -298q109 -52 193.5 -114t146 -128t101 -131.5t59.5 -124.5zM143 1077v181l667 412v-178z" />
    <glyph glyph-name="uniFB93" unicode="&#x6af;" horiz-adv-x="1912" arabic-form="final" 
d="M464 0q-119 0 -198.5 16t-127.5 52t-68 93t-20 138v317h174v-256q0 -63 15 -100.5t52.5 -57.5t101 -26t161.5 -6h804q94 0 135.5 34.5t41.5 94.5t-43 127t-115.5 131t-167 121.5t-197.5 98.5v180l665 432v-200l-485 -298q109 -52 193.5 -114t146 -128t101 -131.5
t59.5 -124.5q24 -71 46.5 -114.5t48 -67.5t55.5 -32.5t69 -8.5q42 0 62 -19.5t20 -62.5q0 -51 -19 -69.5t-63 -18.5q-41 0 -77 7t-66 25t-54.5 49t-43.5 79q-19 -48 -52 -79t-73.5 -49t-85.5 -25t-88 -7h-907zM1009 1077v181l667 412v-178z" />
    <glyph glyph-name="uni06BA" unicode="&#x6ba;" horiz-adv-x="1314" arabic-form="isolated" 
d="M50 559h174v-280q0 -99 24.5 -167.5t73 -110.5t122.5 -60.5t173 -18.5q103 0 176 15t119 53t67 104t21 168v526h174v-528q0 -142 -37.5 -239t-109 -157t-176 -86t-238.5 -26q-280 0 -421.5 127.5t-141.5 364.5v315z" />
    <glyph glyph-name="uniFB9F" unicode="&#x6ba;" horiz-adv-x="1357" arabic-form="final" 
d="M1357 0q-36 0 -66 8t-53.5 20.5t-39.5 28.5t-24 32v-23q0 -135 -37.5 -231t-109 -157.5t-176 -90.5t-238.5 -29q-280 0 -421.5 118.5t-141.5 372.5v316h174v-281q0 -99 24.5 -167t73 -110t122.5 -60.5t173 -18.5q103 0 176 14.5t119 53t67 104.5t21 168v618h174v-291
q0 -51 7.5 -93t27.5 -71t55.5 -45t92.5 -16q42 0 61.5 -19.5t19.5 -62.5q0 -51 -19 -69.5t-62 -18.5z" />
    <glyph glyph-name="uniFBAC" unicode="&#x6be;" horiz-adv-x="1287" arabic-form="initial" 
d="M190 393q0 88 28 162.5t77 127.5q-24 -2 -48 -3.5t-48 -3.5v165q235 18 417 -11t306.5 -111.5t189.5 -223t65 -345.5v-150h-1177q-42 0 -62 19.5t-20 62.5q0 51 19.5 69.5t62.5 18.5h246q-26 48 -41 104t-15 119zM341 392q0 -46 12 -86.5t33 -70.5t49.5 -47.5t60.5 -17.5
t60.5 17.5t49.5 47.5t33 70.5t12 86.5t-12 86.5t-33 70.5t-49.5 47.5t-60.5 17.5t-60.5 -17.5t-49.5 -47.5t-33 -70.5t-12 -86.5zM1003 208q0 90 -20 159t-55.5 121t-85 88t-108.5 59q32 -50 50 -111.5t18 -130.5q0 -63 -15 -119t-42 -104h258v38z" />
    <glyph glyph-name="uniFBAD" unicode="&#x6be;" horiz-adv-x="1061" arabic-form="medial" 
d="M861 0q13 -18 22 -40t14.5 -44.5t8 -44.5t2.5 -41q0 -54 -20 -103.5t-60.5 -87t-100.5 -59.5t-140 -22q-89 0 -159 26.5t-118 77t-73 124t-25 168.5v46h-212q-42 0 -62 19.5t-20 62.5q0 51 19.5 69.5t62.5 18.5h212v119q0 125 26 223.5t75 166t119 103t159 35.5
q91 0 152.5 -32.5t99 -82t54 -107.5t16.5 -108q0 -52 -10 -96t-27.5 -82t-41.5 -70.5t-52 -60.5v-8h279q42 0 62 -19.5t20 -62.5q0 -51 -19.5 -69.5t-62.5 -18.5h-200zM380 170h92q78 0 132 29.5t87 73.5t47.5 94t14.5 92q0 49 -13.5 85t-36 60t-52 35.5t-62.5 11.5
q-100 0 -154.5 -89.5t-54.5 -256.5v-135zM380 0q0 -67 10.5 -119.5t36 -88.5t67.5 -55t105 -19q80 0 118 34t38 94q0 27 -6.5 54.5t-29.5 49.5t-67 36t-120 14h-152z" />
    <glyph glyph-name="uniFBAB" unicode="&#x6be;" horiz-adv-x="1165" arabic-form="final" 
d="M270 0q-40 0 -61.5 -9t-31.5 -26t-12 -40.5t-3 -51.5h-117q-3 16 -5.5 36.5l-5 41.5t-3.5 40t-1 32q0 48 16 76.5t41.5 44.5t56.5 21t60 5h113v119q0 125 26 223.5t75 166t119 103t159 35.5q91 0 152.5 -32.5t99 -82t54 -107.5t16.5 -108q0 -52 -10 -96t-27.5 -82
t-41.5 -70.5t-52 -60.5v-8h279q42 0 62 -19.5t20 -62.5q0 -51 -19.5 -69.5t-62.5 -18.5h-200q13 -18 22 -40t14.5 -44.5t8 -44.5t2.5 -41q0 -54 -20 -103.5t-60.5 -87t-100.5 -59.5t-140 -22q-89 0 -159 26.5t-118 77t-73 124t-25 168.5v46h-47zM485 170h92q78 0 132 29.5
t87 73.5t47.5 94t14.5 92q0 49 -13.5 85t-36 60t-52 35.5t-62.5 11.5q-100 0 -154.5 -89.5t-54.5 -256.5v-135zM485 0q0 -67 10.5 -119.5t36 -88.5t67.5 -55t105 -19q80 0 118 34t38 94q0 27 -6.5 54.5t-29.5 49.5t-67 36t-120 14h-152z" />
    <glyph glyph-name="uni06C0" unicode="&#x6c0;" horiz-adv-x="954" arabic-form="isolated" 
d="M440 651q-51 0 -94.5 -22t-75 -59.5t-49 -87.5t-17.5 -107q0 -56 19 -97t51 -67.5t74.5 -39.5t89.5 -13q45 0 86.5 12.5t73.5 39.5t51 68t19 98q0 63 -18.5 114t-50 87t-73 55t-86.5 19zM30 358q0 101 30 185.5t84 145t129.5 94.5t166.5 34t165.5 -33.5t127.5 -91.5
t82 -136.5t29 -169.5q0 -103 -30.5 -178t-84.5 -123.5t-128 -71.5t-161 -23q-90 0 -165 23t-129.5 69t-85 115t-30.5 161zM613 1028h-375v93h92q-14 23 -21.5 48t-7.5 56q0 45 15 79t39.5 57t56 34.5t64.5 11.5q34 0 59.5 -4.5t38.5 -13.5v-94q-41 18 -88 18q-25 0 -42.5 -8
t-29 -20.5t-17 -29t-5.5 -34.5q0 -42 26 -71t80 -29h115v-93z" />
    <glyph glyph-name="uni06C1" unicode="&#x6c1;" horiz-adv-x="954" arabic-form="isolated" 
d="M440 651q-51 0 -94.5 -22t-75 -59.5t-49 -87.5t-17.5 -107q0 -56 19 -97t51 -67.5t74.5 -39.5t89.5 -13q45 0 86.5 12.5t73.5 39.5t51 68t19 98q0 63 -18.5 114t-50 87t-73 55t-86.5 19zM30 358q0 101 30 185.5t84 145t129.5 94.5t166.5 34t165.5 -33.5t127.5 -91.5
t82 -136.5t29 -169.5q0 -103 -30.5 -178t-84.5 -123.5t-128 -71.5t-161 -23q-90 0 -165 23t-129.5 69t-85 115t-30.5 161z" />
    <glyph glyph-name="uniFBA8" unicode="&#x6c1;" horiz-adv-x="627" arabic-form="initial" 
d="M373 0q-37 -54 -54.5 -95t-17.5 -81q0 -34 17 -57t51 -23q12 0 26 2.5t33 7.5q-5 -35 -18 -60.5t-31 -41.5t-39.5 -23.5t-42.5 -7.5q-38 0 -65 12.5t-45 33.5t-26.5 50t-8.5 62q0 54 21.5 112.5t59.5 108.5h-233q-42 0 -62 19.5t-20 62.5q0 51 19.5 69.5t62.5 18.5h313
v618h174v-788h-114z" />
    <glyph glyph-name="uniFBA9" unicode="&#x6c1;" horiz-adv-x="880" arabic-form="medial" 
d="M0 0q-42 0 -62 19.5t-20 62.5q0 51 19.5 69.5t62.5 18.5h339q-19 -59 -24 -99t-5 -72q0 -29 4 -58t15.5 -56t32 -50.5t53.5 -42.5q29 102 70 173.5t93.5 117t117.5 66.5t143 21h41q42 0 62 -19.5t20 -62.5q0 -51 -19.5 -69.5t-62.5 -18.5h-47q-71 0 -120 -22.5t-85 -74.5
t-64.5 -136.5t-58.5 -208.5q-75 26 -139.5 61.5t-112.5 82t-75 104.5t-27 129q0 15 1 31.5t5 33.5h-157z" />
    <glyph glyph-name="uniFBA7" unicode="&#x6c1;" horiz-adv-x="767" arabic-form="final" 
d="M767 0q-78 0 -131 25t-89 63t-61 82l-47 82t-47 63t-61 25q-18 0 -38.5 -9t-38 -37t-29 -81.5t-11.5 -141.5q0 -46 1.5 -71.5t4.5 -48.5h-164q-2 12 -3 24.5t-1.5 29t-1 39t-0.5 54.5q0 111 22.5 189t61 127.5t88.5 72.5t105 23q65 0 108.5 -25t75 -63t56 -82t52 -82
t62 -63t86.5 -25q42 0 62 -19.5t20 -62.5q0 -51 -19.5 -69.5t-62.5 -18.5z" />
    <glyph glyph-name="uni06C2.fina" unicode="&#x6c2;" horiz-adv-x="767" 
d="M767 0q-78 0 -131 25t-89 63t-61 82l-47 82t-47 63t-61 25q-18 0 -38.5 -9t-38 -37t-29 -81.5t-11.5 -141.5q0 -46 1.5 -71.5t4.5 -48.5h-164q-2 12 -3 24.5t-1.5 29t-1 39t-0.5 54.5q0 111 22.5 189t61 127.5t88.5 72.5t105 23q65 0 108.5 -25t75 -63t56 -82t52 -82
t62 -63t86.5 -25q42 0 62 -19.5t20 -62.5q0 -51 -19.5 -69.5t-62.5 -18.5zM495 713h-375v93h92q-14 23 -21.5 48t-7.5 56q0 45 15 79t39.5 57t56 34.5t64.5 11.5q34 0 59.5 -4.5t38.5 -13.5v-94q-41 18 -88 18q-25 0 -42.5 -8t-29 -20.5t-17 -29t-5.5 -34.5q0 -42 26 -71
t80 -29h115v-93z" />
    <glyph glyph-name="uni06C3.fina" unicode="&#x6c3;" horiz-adv-x="969" 
d="M204 535q0 -42 12 -77.5t38 -61t67 -40t100 -14.5q22 0 48 2.5t51.5 7.5t49.5 11.5t44 15.5v364h-182q-50 0 -91.5 -12t-72 -37.5t-47.5 -65t-17 -93.5zM407 168q-37 0 -79 5.5t-84 20.5t-80.5 40t-68.5 64.5t-47.5 94t-17.5 127.5q0 110 36.5 185.5t96.5 122t136 67
t155 20.5h332v-587q0 -43 5.5 -73t21 -49t44 -27.5t74.5 -8.5h38q42 0 62 -19.5t20 -62.5q0 -51 -19 -69.5t-63 -18.5h-64q-53 0 -101 9t-86.5 32.5t-65 63t-34.5 100.5q-45 -16 -101 -26.5t-110 -10.5zM239 1289q0 22 8.5 41.5t23.5 34.5t34.5 23.5t42.5 8.5
q22 0 41.5 -8.5t34.5 -23.5t23.5 -34.5t8.5 -41.5q0 -23 -8.5 -42.5t-23.5 -34.5t-34.5 -23.5t-41.5 -8.5q-23 0 -42.5 8.5t-34.5 23.5t-23.5 34.5t-8.5 42.5zM505 1289q0 22 8.5 41.5t23.5 34.5t34.5 23.5t42.5 8.5q22 0 41.5 -8.5t34.5 -23.5t23.5 -34.5t8.5 -41.5
q0 -23 -8.5 -42.5t-23.5 -34.5t-34.5 -23.5t-41.5 -8.5q-23 0 -42.5 8.5t-34.5 23.5t-23.5 34.5t-8.5 42.5z" />
    <glyph glyph-name="uni06CC" unicode="&#x6cc;" horiz-adv-x="1559" arabic-form="isolated" 
d="M224 156q0 -87 25 -155t87.5 -115t168 -72t267.5 -25q92 0 181.5 9t160.5 30t115 56.5t44 89.5q0 35 -18.5 61t-49.5 46.5t-70 38l-79.5 36.5t-79.5 41.5t-70 53.5t-49.5 72t-18.5 97q0 78 28 150t84.5 127t141 87.5t197.5 32.5q34 0 65 -4.5t55 -10.5t40 -11.5t20 -8.5
v-172q-42 13 -90 21t-94 8q-68 0 -119.5 -14t-86 -39.5t-51.5 -61t-17 -78.5q0 -37 19.5 -63.5t51 -47t72.5 -38l83 -35t83 -38.5t72.5 -49.5t51 -66t19.5 -89.5q0 -85 -35.5 -158t-116 -127t-210 -84.5t-316.5 -30.5q-211 0 -352.5 38t-226.5 105t-120.5 158.5t-35.5 198.5
v205h174v-168z" />
    <glyph glyph-name="uniFBFE" unicode="&#x6cc;" horiz-adv-x="627" arabic-form="initial" 
d="M0 0q-42 0 -62 19.5t-20 62.5q0 51 19.5 69.5t62.5 18.5h313v618h174v-788h-487zM81 -333q0 22 8.5 41.5t23.5 34.5t34.5 23.5t42.5 8.5q22 0 41.5 -8.5t34.5 -23.5t23.5 -34.5t8.5 -41.5q0 -23 -8.5 -42.5t-23.5 -34.5t-34.5 -23.5t-41.5 -8.5q-23 0 -42.5 8.5
t-34.5 23.5t-23.5 34.5t-8.5 42.5zM347 -333q0 22 8.5 41.5t23.5 34.5t34.5 23.5t42.5 8.5q22 0 41.5 -8.5t34.5 -23.5t23.5 -34.5t8.5 -41.5q0 -23 -8.5 -42.5t-23.5 -34.5t-34.5 -23.5t-41.5 -8.5q-23 0 -42.5 8.5t-34.5 23.5t-23.5 34.5t-8.5 42.5z" />
    <glyph glyph-name="uniFBFF" unicode="&#x6cc;" horiz-adv-x="680" arabic-form="medial" 
d="M0 0q-42 0 -62 19.5t-20 62.5q0 51 19.5 69.5t62.5 18.5h154q37 0 68 4t52.5 19t33.5 45t12 81v469h176v-393q0 -51 8.5 -93t29.5 -71t56.5 -45t89.5 -16q42 0 62 -19.5t20 -62.5q0 -51 -19.5 -69.5t-62.5 -18.5q-33 0 -66 8.5t-61 24t-49.5 36.5t-33.5 46
q-20 -37 -51.5 -59.5t-67.5 -35t-74.5 -16.5t-72.5 -4h-204zM162 -333q0 22 8.5 41.5t23.5 34.5t34.5 23.5t42.5 8.5q22 0 41.5 -8.5t34.5 -23.5t23.5 -34.5t8.5 -41.5q0 -23 -8.5 -42.5t-23.5 -34.5t-34.5 -23.5t-41.5 -8.5q-23 0 -42.5 8.5t-34.5 23.5t-23.5 34.5
t-8.5 42.5zM428 -333q0 22 8.5 41.5t23.5 34.5t34.5 23.5t42.5 8.5q22 0 41.5 -8.5t34.5 -23.5t23.5 -34.5t8.5 -41.5q0 -23 -8.5 -42.5t-23.5 -34.5t-34.5 -23.5t-41.5 -8.5q-23 0 -42.5 8.5t-34.5 23.5t-23.5 34.5t-8.5 42.5z" />
    <glyph glyph-name="uniFBFD" unicode="&#x6cc;" horiz-adv-x="1504" arabic-form="final" 
d="M1483 0q3 -5 6 -16t3 -19q0 -62 -39.5 -118t-123.5 -98t-216.5 -67t-318.5 -25q-207 0 -349 37.5t-229.5 103.5t-126.5 155.5t-39 193.5v177h174v-146q0 -183 146 -267t428 -84q105 0 202.5 8t172.5 27t120 50.5t45 78.5q0 30 -29 62.5t-105 79.5l-277 174l86 140
l251 -161l54 -34t66 -38t66.5 -31t55.5 -13q42 0 62 -19.5t20 -62.5q0 -51 -19.5 -69.5t-62.5 -18.5h-23z" />
    <glyph glyph-name="uni06D2" unicode="&#x6d2;" horiz-adv-x="1693" arabic-form="isolated" 
d="M783 778q-8 -74 -19.5 -125.5t-30 -87t-44.5 -58t-61 -38t-80.5 -27t-102.5 -24.5q-69 -16 -116 -34t-76.5 -37.5t-42 -41.5t-12.5 -47q0 -40 38.5 -65.5t112 -40.5t179.5 -21t241 -6q76 0 159 3.5t165.5 9t163 13.5t152 17.5t131 19t101.5 19.5v-172
q-101 -22 -218.5 -37t-236 -24.5t-230.5 -14t-201 -4.5q-177 0 -312.5 12t-227 43.5t-138.5 86.5t-47 141q0 66 28 117t78.5 89.5t119.5 66.5t150 48q62 15 99.5 28t59 34.5t32 58t18.5 98.5h168z" />
    <glyph glyph-name="uniFBAF" unicode="&#x6d2;" horiz-adv-x="952" arabic-form="final" 
d="M427 0q-64 0 -108 -9t-71.5 -26.5t-40 -42t-12.5 -54.5q0 -33 26 -59t87.5 -44.5t162 -28t249.5 -9.5q122 0 273.5 16.5t324.5 41.5v-165l-164 -24.5t-158 -19.5t-154.5 -13t-154.5 -5q-143 0 -247.5 12t-177.5 33t-118 50t-70.5 63t-34.5 71t-9 75q0 66 24 122t76 97.5
t133.5 65t196.5 23.5h492q42 0 62 -19.5t20 -62.5q0 -51 -19.5 -69.5t-62.5 -18.5h-525z" />
    <glyph glyph-name="uni06D3" unicode="&#x6d3;" horiz-adv-x="1693" arabic-form="isolated" 
d="M783 778q-8 -74 -19.5 -125.5t-30 -87t-44.5 -58t-61 -38t-80.5 -27t-102.5 -24.5q-69 -16 -116 -34t-76.5 -37.5t-42 -41.5t-12.5 -47q0 -40 38.5 -65.5t112 -40.5t179.5 -21t241 -6q76 0 159 3.5t165.5 9t163 13.5t152 17.5t131 19t101.5 19.5v-172
q-101 -22 -218.5 -37t-236 -24.5t-230.5 -14t-201 -4.5q-177 0 -312.5 12t-227 43.5t-138.5 86.5t-47 141q0 66 28 117t78.5 89.5t119.5 66.5t150 48q62 15 99.5 28t59 34.5t32 58t18.5 98.5h168zM503 884h-375v93h92q-14 23 -21.5 48t-7.5 56q0 45 15 79t39.5 57t56 34.5
t64.5 11.5q34 0 59.5 -4.5t38.5 -13.5v-94q-41 18 -88 18q-25 0 -42.5 -8t-29 -20.5t-17 -29t-5.5 -34.5q0 -42 26 -71t80 -29h115v-93z" />
    <glyph glyph-name="uniFBB1" unicode="&#x6d3;" horiz-adv-x="952" arabic-form="final" 
d="M427 0q-64 0 -108 -9t-71.5 -26.5t-40 -42t-12.5 -54.5q0 -33 26 -59t87.5 -44.5t162 -28t249.5 -9.5q122 0 273.5 16.5t324.5 41.5v-165l-164 -24.5t-158 -19.5t-154.5 -13t-154.5 -5q-143 0 -247.5 12t-177.5 33t-118 50t-70.5 63t-34.5 71t-9 75q0 66 24 122t76 97.5
t133.5 65t196.5 23.5h492q42 0 62 -19.5t20 -62.5q0 -51 -19.5 -69.5t-62.5 -18.5h-525zM473 400h-375v93h92q-14 23 -21.5 48t-7.5 56q0 45 15 79t39.5 57t56 34.5t64.5 11.5q34 0 59.5 -4.5t38.5 -13.5v-94q-41 18 -88 18q-25 0 -42.5 -8t-29 -20.5t-17 -29t-5.5 -34.5
q0 -42 26 -71t80 -29h115v-93z" />
    <glyph glyph-name="uni06D5.fina" unicode="&#x6d5;" horiz-adv-x="969" 
d="M204 535q0 -42 12 -77.5t38 -61t67 -40t100 -14.5q22 0 48 2.5t51.5 7.5t49.5 11.5t44 15.5v364h-182q-50 0 -91.5 -12t-72 -37.5t-47.5 -65t-17 -93.5zM407 168q-37 0 -79 5.5t-84 20.5t-80.5 40t-68.5 64.5t-47.5 94t-17.5 127.5q0 110 36.5 185.5t96.5 122t136 67
t155 20.5h332v-587q0 -43 5.5 -73t21 -49t44 -27.5t74.5 -8.5h38q42 0 62 -19.5t20 -62.5q0 -51 -19 -69.5t-63 -18.5h-64q-53 0 -101 9t-86.5 32.5t-65 63t-34.5 100.5q-45 -16 -101 -26.5t-110 -10.5z" />
    <glyph glyph-name="uniFDF2" unicode="&#xfdf2;" horiz-adv-x="2720" arabic-form="isolated" 
d="M2582 1462v-1462h-174v1462h174zM180 535q0 -42 12 -77.5t38 -61t67 -40t100 -14.5q22 0 48 2.5t51.5 7.5t49.5 11.5t44 15.5v364h-182q-50 0 -91.5 -12t-72 -37.5t-47.5 -65t-17 -93.5zM879 0q-53 0 -101 9t-86 32.5t-64 63t-34 100.5q-45 -16 -101 -26.5t-110 -10.5
q-37 0 -79 5.5t-84 20.5t-80.5 40t-68.5 64.5t-47.5 94t-17.5 127.5q0 110 36.5 185.5t96.5 122t136 67t155 20.5h332v-587q0 -43 5.5 -73t21 -49t44 -27.5t74.5 -8.5h186q37 0 68 4t52.5 19t33.5 45t12 81v1143h176v-1067q0 -51 7 -93t26.5 -71t54 -45t88.5 -16h308v1292
h174v-1462h-482q-33 0 -64.5 8.5t-58 24t-47 36.5t-32.5 46q-20 -37 -51.5 -59.5t-67.5 -35t-74.5 -16.5t-72.5 -4h-264z" />
    <glyph glyph-name="uniFDFA" unicode="&#xfdfa;" horiz-adv-x="2165" arabic-form="isolated" 
d="M2083 895q0 -29 -32 -79t-64 -64q-93 -43 -238 -43q-23 0 -47.5 1t-50.5 3q-49 -97 -78 -97q-8 0 -8 13q0 30 45 96q-85 33 -99 53q-80 -53 -102 -53q14 -288 51 -361q38 -74 172 -81l4 4q-43 31 -43 88q0 69 66 155q49 66 125 66q58 0 108 -35q50 -33 50 -63
q-53 18 -107 18q-73 0 -133 -29q-53 -29 -53 -55q0 -29 51 -80q52 -52 90 -59q37 4 139 36q103 33 137 52l-34 -76q-207 -108 -392 -108q-196 0 -243 149q-61 -133 -117 -133q-53 0 -137 90q-130 -115 -404 -115q-42 0 -77 3t-66 8q8 -68 18 -107q19 -74 48 -102
q90 -90 360 -90q232 0 338 65q31 76 57 76q8 0 8 -16q0 -30 -24 -91q12 -26 55 -26q53 0 100 24q43 136 68 136q8 0 8 -23q0 -36 -20 -88q63 -27 90 -27q15 0 16 7q2 7 -16 79l35 74q24 -74 24 -106q0 -138 -90 -138q-47 0 -98 39q-32 -53 -121 -53q-98 0 -98 53
q-38 -28 -131 -49q-103 -22 -248 -22q-199 0 -293 57q-119 72 -123 258l-45 -66q-35 -51 -53 -53q24 -44 24 -84q0 -51 -32 -86q-16 -16 -43 -16q-40 0 -125 47q-27 -64 -86 -96q-15 -8 -49 -9q-34 -2 -44 -6l-22 -8q-12 0 -12 10q0 12 49 31q31 13 50.5 22.5t29.5 16.5
l69 53q-20 38 -20 82t37 85q37 42 69 42q6 0 13 -4q38 -20 59 -20q36 0 74 47l47 86q-80 24 -113 55q-60 54 -80 174h-4q-59 -102 -162 -102q-41 0 -79 16q-33 13 -33 25q0 51 88 118q83 64 174 91l-4 34l41 68q8 -111 19 -182.5t25 -105.5q28 -66 114 -93l-27 270l39 88
l35 -368q108 -12 194 -12q213 0 363 81q25 78 39 78q8 0 8 -18q0 -17 -8 -51q73 -72 120 -72q55 0 86 88l-26 330q-152 -6 -180 151h-4q-8 -31 -15.5 -52t-13.5 -34q-22 -50 -55 -61l4 -4q143 11 143 -80q0 -60 -51 -94q-173 -121 -328 -121q-94 0 -151.5 47.5t-57.5 134.5
q0 63 33 137q-57 16 -78 88h-4q-32 -104 -113 -104q-101 0 -96 158l-55 -50q-17 -14 -80 -14q-100 0 -100 37q0 20 27 64q28 45 50 55l156 76v20l35 74l8 -246q5 -86 66 -86q30 0 60 21q30 22 34 47l-33 233l37 80l57 -330q19 -43 68 -43q47 0 47 27q0 41 -33 151l-20 66
l-21 67l27 68q82 -256 82 -321q0 -42 -21 -91q-23 -57 -51 -57q-11 0 -18 6q-15 -44 -15 -80q0 -153 187 -153q145 0 291 98q4 4 4 6q0 11 -78 25l-125 20q-25 19 27 82q122 51 131 109q1 5 1.5 12t0.5 16q0 100 -10.5 217.5t-30.5 255.5l34 115q50 -434 78 -524
q38 -117 148 -135l-10 196l43 92l16 -286q29 10 60 28.5t63 44.5l61 -43q39 -24 80 -30q22 23 55 51.5t78 60.5q105 78 144 78q37 0 84 -28q53 -32 53 -68zM2064 4q0 -100 -79 -221q-87 -131 -183 -131q-45 0 -121 33q-75 31 -75 47q0 8 10 8q8 0 55 -15q45 -16 72 -16
q138 -4 287 217l-15 45q-38 -53 -76 -53q-14 0 -26.5 7.5t-22.5 19.5t-16.5 27t-7.5 30q-2 48 31 110q34 64 57 64q26 0 65 -49q45 -56 45 -123zM1987 1309q-70 -25 -238 -105q-197 -96 -197 -125q0 -24 54 -51l-19 -49q-67 22 -67 82q0 61 53 90q131 75 238 127t194 82z
M975 915q-6 -136 -27 -149l-51 496l45 116zM1233 76l-53 -64l-99 72l-57 -74l-102 74l59 72l96 -72l56 68zM2025 860q0 14 -36 32q-34 19 -54 19q-44 0 -123 -49q-63 -39 -96 -69q7 -1 17 -1.5t24 -0.5q42 0 84 4t84 12q100 19 100 53zM1294 -248q0 -49 -4 -61
q-12 -27 -51 -27q-18 0 -29 8q-30 -32 -61 -32q-15 0 -34 17q-17 17 -25 17q-16 0 -77 -35q-59 -36 -143 -36q-90 0 -90 16q0 14 66 14q36 0 59.5 1.5t34.5 3.5q27 6 72 32q61 39 82 39q16 0 38 -16q23 -17 27 -17q31 0 37 35q4 27 23 27q8 0 8 -12q0 -5 -0.5 -9.5
t-1.5 -9.5q5 -8 22 -12q25 0 25 24q0 33 22 33zM1669 1444l-12 -45l-400 -197l9 51zM346 539q-180 -72 -180 -107q0 -20 63 -20q69 0 121 49zM664 1362q0 -66 -43 -66q-26 0 -43 17q-37 -31 -62 -31q-43 0 -43 55q0 41 6 56l13 12q-4 -76 34 -76q22 0 39 33l-4 47l19 29
l8 -62q4 -33 30 -33q27 0 23 31l-6 45l14 21q15 -39 15 -78zM387 997q-20 -9 -41 -17.5t-43 -16.5q-67 -31 -70 -50q-1 -22 52 -22q57 0 104 27zM438 -78q-8 41 -49 70q-37 28 -70 28q-28 0 -28 -24q0 -26 53 -55q49 -31 80 -31q15 0 14 12zM2005 20q-12 66 -53 66
q-31 0 -41 -51q7 -37 63 -37q27 0 31 22z" />
    <glyph glyph-name=".notdef" horiz-adv-x="1049" 
d="M1049 1470v-1470h-1049v1470h1049zM946 102v1264h-844v-1264h844zM530 1247q110 0 182 -74t72 -194q0 -82 -33 -136q-34 -54 -98 -112q-34 -30 -54.5 -54t-28.5 -41q-15 -35 -15 -157h-94l-4 40q0 117 34 175q35 60 94 114q34 31 64 70q31 40 31 93q0 71 -47 123
q-47 51 -109 51q-67 0 -111.5 -47.5t-56.5 -146.5l-102 16q14 138 85 209t191 71zM455 377h114v-137h-114v137z" />
    <glyph glyph-name=".null" horiz-adv-x="0" 
 />
    <glyph glyph-name="nonmarkingreturn" unicode="&#xd;" horiz-adv-x="569" 
 />
    <glyph glyph-name="space" unicode=" " horiz-adv-x="569" 
 />
    <glyph glyph-name="exclam" unicode="!" horiz-adv-x="530" 
d="M362 1462v-450l-51 -637h-92l-51 637v450h194zM379 227v-227h-227v227h227z" />
    <glyph glyph-name="quotedbl" unicode="&#x22;" horiz-adv-x="872" 
d="M362 1462v-528h-139v528h139zM649 1462v-528h-139v528h139z" />
    <glyph glyph-name="numbersign" unicode="#" 
d="M551 1427l-59 -419h253l59 412l2 7h140l-59 -419h182v-140h-201l-43 -307h187v-139h-207l-60 -421h-141l60 421h-254l-60 -421h-141l59 421h-198v139h219l43 307h-209v140h227l59 412l2 7h140zM430 561h254l43 307h-254z" />
    <glyph glyph-name="dollar" unicode="$" 
d="M514 1632h113v-137q162 -19 260 -119.5t143 -285.5h-174q-21 106 -81 164t-148 73v-504l128 -34q76 -21 155 -74q79 -52 122 -130t43 -175q0 -189 -120 -307q-119 -119 -327 -138v-168h-114v168q-209 23 -327 147.5t-136 333.5h174q6 -132 81 -213t208 -104v543
q-235 55 -328 141q-92 87 -92 254q0 171 113 292q112 120 307 138v135zM279 1085q0 -91 52 -143t183 -88v479q-54 -6 -97.5 -25t-74 -50.5t-47 -75t-16.5 -97.5zM627 129q133 10 198.5 77t65.5 185q0 90 -55 148t-209 104v-514z" />
    <glyph glyph-name="percent" unicode="%" horiz-adv-x="2048" 
d="M1661 1479l-1100 -1524h-176l1102 1524h174zM520 1452q167 0 247.5 -104t80.5 -305q0 -189 -86 -301q-86 -111 -242 -111q-164 0 -248 105t-84 300q0 199 85 307.5t247 108.5zM342 1039q0 -156 45 -226t127 -70q88 0 134 73.5t46 225.5q0 156 -44 226.5t-131 70.5
q-85 0 -131 -74t-46 -226zM1532 797q163 0 245.5 -102t82.5 -307q0 -185 -86 -300q-86 -113 -242 -113q-161 0 -246.5 103.5t-85.5 302.5t85 307.5t247 108.5zM1354 385q0 -157 44.5 -227t127.5 -70q180 0 180 300q0 153 -44 224.5t-131 71.5q-85 0 -131 -73.5t-46 -225.5z
" />
    <glyph glyph-name="ampersand" unicode="&#x26;" horiz-adv-x="1290" 
d="M578 1462q153 0 253 -82q101 -83 101 -217q0 -111 -69.5 -206t-205.5 -173l265 -321q19 54 31.5 109t15.5 118h166q-14 -128 -31 -190q-9 -32 -26 -74t-42 -96l285 -330h-227l-156 181q-63 -96 -175 -151q-111 -55 -240 -55q-220 0 -338 114q-117 115 -117 287
q0 137 79 241q79 106 263 200l-69 93q-46 63 -69.5 122t-23.5 129q0 127 90 214q91 87 240 87zM422 1154q0 -47 28 -99q14 -26 42 -65t71 -91q57 36 95.5 68.5t58.5 61.5q41 59 41 124q0 63 -47 110q-46 46 -122 46q-66 0 -117 -42q-50 -42 -50 -113zM252 378
q0 -106 84 -178q85 -71 194 -71q97 0 176 45t136 129l-337 404q-138 -76 -196 -151q-57 -75 -57 -178z" />
    <glyph glyph-name="quotesingle" unicode="'" horiz-adv-x="569" 
d="M354 1462v-528h-139v528h139z" />
    <glyph glyph-name="parenleft" unicode="(" horiz-adv-x="530" 
d="M551 1497q-138 -216 -204 -445q-66 -230 -66 -499q0 -272 65 -505q66 -232 205 -454h-133q-176 274 -249 501q-73 225 -73 458q0 241 82 486q82 246 240 458h133z" />
    <glyph glyph-name="parenright" unicode=")" horiz-adv-x="530" 
d="M113 1497q82 -127 142 -247t100 -236q79 -228 79 -475q0 -248 -83 -492q-42 -122 -101 -234.5t-137 -218.5h-133q69 109 119.5 220t83.5 226q67 228 67 499q0 136 -16.5 261.5t-50 243t-84 230t-119.5 223.5h133z" />
    <glyph glyph-name="asterisk" unicode="*" horiz-adv-x="721" 
d="M303 1462h109v-231l219 82l41 -99l-223 -77l135 -187l-84 -63l-142 196l-133 -196l-92 63l133 187l-217 77l37 99l217 -82v231z" />
    <glyph glyph-name="plus" unicode="+" horiz-adv-x="1229" 
d="M684 1036v-448h446v-139h-446v-449h-139v449h-447v139h447v448h139z" />
    <glyph glyph-name="comma" unicode="," horiz-adv-x="569" 
d="M397 227v-218q0 -113 -55.5 -194t-169.5 -116v102q54 19 86.5 69t32.5 119v11h-121v227h227z" />
    <glyph glyph-name="hyphen" unicode="-" horiz-adv-x="797" 
d="M694 651v-164h-592v164h592z" />
    <glyph glyph-name="period" unicode="." horiz-adv-x="569" 
d="M397 227v-227h-227v227h227z" />
    <glyph glyph-name="slash" unicode="/" horiz-adv-x="682" 
d="M719 1497l-606 -1532h-150l606 1532h150z" />
    <glyph glyph-name="zero" unicode="0" 
d="M569 1452q123 0 211.5 -39.5t151.5 -120.5q121 -157 121 -579q0 -212 -29.5 -354.5t-91.5 -223.5q-60 -78 -150 -119t-213 -41q-242 0 -362 162q-121 161 -121 576q0 417 121 577q121 162 362 162zM270 715q0 -175 19.5 -288.5t56.5 -176.5q76 -121 223 -121
q162 0 232 139q35 72 51 180t16 261q0 51 -1 114t-9 128t-25.5 127t-50.5 110q-34 49 -85.5 79.5t-129.5 30.5q-69 0 -124 -29t-95 -89q-78 -119 -78 -465z" />
    <glyph glyph-name="one" unicode="1" 
d="M729 1452v-1452h-174v1040h-377v140h6q184 0 285 66t127 206h133z" />
    <glyph glyph-name="two" unicode="2" 
d="M557 1452q200 0 328 -114q127 -112 127 -304q0 -150 -84 -271q-83 -119 -356 -278q-165 -95 -236 -172q-69 -77 -84 -159h745v-154h-948q15 180 93 317q79 136 294 264q255 156 322 243q69 88 69 211q0 114 -80 188q-80 75 -200 75q-130 0 -207 -98q-76 -97 -76 -248v-14
h-174l-1 36q0 216 128 347t340 131z" />
    <glyph glyph-name="three" unicode="3" 
d="M540 1452q209 0 325 -104q117 -104 117 -284q0 -88 -51 -165t-150 -125v-4q128 -29 195 -121t67 -231q0 -203 -139 -323q-140 -120 -360 -120q-218 0 -351 121t-133 346v7h175q3 -78 26 -137.5t62.5 -100t95.5 -61.5t125 -21q136 0 225 79q90 79 90 202q0 128 -85 203
q-86 75 -231 75q-21 0 -46.5 -1.5t-51.5 -4.5v147q11 -1 27.5 -1.5t36.5 -0.5q100 0 161 32q60 33 94 83.5t34 122.5q0 109 -70 170q-71 63 -188 63q-128 0 -200 -82.5t-75 -232.5h-174q10 226 128 348q117 121 321 121z" />
    <glyph glyph-name="four" unicode="4" 
d="M858 1452v-958h197v-154h-197v-340h-164v340h-637v168l662 944h139zM690 1204l-483 -710h487v710h-4z" />
    <glyph glyph-name="five" unicode="5" 
d="M963 1427v-153h-586l-78 -418l4 -4q46 51 115 77.5t156 26.5q211 0 339 -132q129 -132 129 -364q0 -209 -140 -347t-367 -138q-195 0 -326 112q-131 113 -137 302v2h174q7 -116 93 -189q85 -73 212 -73q134 0 220 92q87 91 87 252q0 147 -95 239q-94 91 -233 91
q-154 0 -270 -137l-149 8l135 753h717z" />
    <glyph glyph-name="six" unicode="6" 
d="M612 1452q90 0 162 -25t124.5 -72t83.5 -116.5t40 -157.5h-174q-14 105 -79 161t-165 56q-169 0 -257 -139t-95 -411l4 -5q60 97 148.5 144t213.5 47q198 0 321 -131q124 -130 124 -339t-128 -349t-357 -140q-247 0 -373.5 173.5t-126.5 526.5q0 188 34.5 333t102 243.5
t167 149.5t230.5 51zM285 453q0 -142 83 -234q82 -90 218 -90q129 0 211 91t82 231q0 151 -79 239q-80 90 -216 90t-218 -91q-81 -92 -81 -236z" />
    <glyph glyph-name="seven" unicode="7" 
d="M1042 1427v-149q-223 -223 -378 -578t-179 -700h-194q24 340 169 663q145 322 404 601h-762v163h940z" />
    <glyph glyph-name="eight" unicode="8" 
d="M560 1452q206 0 322 -101q117 -101 117 -269q0 -94 -50.5 -174t-149.5 -128q128 -39 193 -131t65 -231q0 -200 -136 -321q-136 -122 -346 -122q-223 0 -358 117q-135 118 -135 326q0 64 17 121t49 103.5t79.5 81.5t108.5 56q-96 40 -150 123q-53 83 -53 179
q0 165 123 267q122 103 304 103zM317 1075q0 -105 69 -169q68 -64 189 -64q109 0 174 63q66 63 66 170q0 106 -65.5 164.5t-180.5 58.5q-113 0 -183 -63q-69 -62 -69 -160zM266 410q0 -127 86 -204t223 -77q130 0 213 79q84 79 84 204q0 116 -88 195q-89 81 -213 81
q-129 0 -217 -78q-88 -76 -88 -200z" />
    <glyph glyph-name="nine" unicode="9" 
d="M547 1452q252 0 374.5 -172.5t122.5 -522.5q0 -401 -126 -591.5t-377 -190.5q-187 0 -305 95q-117 96 -136 280h174q13 -105 87 -164q73 -57 180 -57q159 0 239 138t88 423l-4 4q-26 -47 -61 -84t-78.5 -62.5t-93.5 -39.5t-104 -14q-214 0 -335 130q-122 131 -122 355
q0 205 134 339t343 134zM254 955q0 -126 84 -217t203 -91q129 0 213 92q84 93 84 228q0 140 -81 235q-80 96 -220 96q-133 0 -208 -93q-75 -92 -75 -250z" />
    <glyph glyph-name="colon" unicode=":" horiz-adv-x="569" 
d="M397 1059v-228h-227v228h227zM397 227v-227h-227v227h227z" />
    <glyph glyph-name="semicolon" unicode=";" horiz-adv-x="569" 
d="M397 1059v-228h-227v228h227zM397 227v-229q0 -99 -55 -181q-53 -82 -170 -118v102q54 18 86.5 69.5t32.5 118.5v11h-121v227h227z" />
    <glyph glyph-name="less" unicode="&#x3c;" horiz-adv-x="1229" 
d="M1135 913l-871 -395l871 -395v-139l-1041 471v127l1041 471v-140z" />
    <glyph glyph-name="equal" unicode="=" horiz-adv-x="1229" 
d="M1130 795v-140h-1032v140h1032zM1130 381v-139h-1032v139h1032z" />
    <glyph glyph-name="greater" unicode="&#x3e;" horiz-adv-x="1229" 
d="M94 1053l1041 -471v-127l-1041 -471v139l871 395l-871 395v140z" />
    <glyph glyph-name="question" unicode="?" 
d="M569 1497q196 0 315 -111q118 -109 118 -299q0 -101 -44 -184q-43 -81 -148 -177q-72 -66 -104 -114q-32 -46 -46 -89q-13 -39 -13 -105v-62h-174v88q0 97 39 175q40 78 141 171q108 100 136 163q29 66 29 127q0 118 -65 191q-65 72 -184 72q-68 0 -120.5 -23
t-88.5 -66.5t-55 -106t-19 -141.5h-175v22q0 196 124 332q125 137 334 137zM672 227v-227h-228v227h228z" />
    <glyph glyph-name="at" unicode="@" horiz-adv-x="1638" 
d="M846 1497q291 0 493 -181q203 -182 203 -450q0 -161 -75 -299q-75 -136 -191 -216q-115 -79 -213 -79q-57 0 -92 35.5t-39 98.5h-6q-60 -69 -125.5 -103.5t-128.5 -34.5q-126 0 -210 92q-83 94 -83 233q0 229 140 405q141 176 341 176q82 0 140 -43t90 -125l47 129h129
l-170 -577l-13.5 -46t-7.5 -28q-4 -16 -4 -35q0 -64 49 -64q94 0 188 154q95 155 95 317q0 228 -163 378q-164 150 -392 150q-257 0 -440 -197t-183 -460q0 -268 186 -458q188 -191 447 -191q143 0 281 66q140 68 227 182h129q-97 -166 -271 -265q-173 -96 -370 -96
q-209 0 -387 102q-180 103 -280 281q-101 179 -101 389q0 312 224 536q226 224 536 224zM532 606q0 -83 48 -141q49 -57 129 -57q123 0 220 148t97 287q0 72 -50 131q-50 60 -118 60q-129 0 -228 -140q-98 -140 -98 -288z" />
    <glyph glyph-name="A" unicode="A" horiz-adv-x="1327" 
d="M772 1462l571 -1462h-215l-159 440h-619l-164 -440h-200l571 1462h215zM659 1286l-247 -682h495l-243 682h-5z" />
    <glyph glyph-name="B" unicode="B" horiz-adv-x="1403" 
d="M784 1462q270 0 368 -110q97 -109 97 -248q0 -117 -57 -201.5t-160 -126.5v-4q135 -29 207 -123q72 -95 72 -229q0 -178 -125 -300q-125 -120 -312 -120h-714v1462h624zM753 834q146 0 224 54.5t78 178.5q0 116 -65 173q-64 58 -235 58h-401v-464h399zM849 164
q120 0 193 70q74 71 74 192q0 124 -83.5 184t-241.5 60h-437v-506h495z" />
    <glyph glyph-name="C" unicode="C" horiz-adv-x="1479" 
d="M780 1497q242 0 406 -126q165 -127 196 -349h-194q-16 75 -52 133t-88.5 97.5t-120.5 60t-149 20.5q-232 0 -364 -164q-131 -164 -131 -428q0 -280 129 -446t368 -166q178 0 293 113q115 114 129 309h195q-32 -284 -198 -435q-164 -151 -435 -151q-314 0 -495 208
t-181 554q0 341 187 555q188 215 505 215z" />
    <glyph glyph-name="D" unicode="D" horiz-adv-x="1442" 
d="M673 1462q332 0 511 -176q180 -176 180 -521q0 -386 -177.5 -575.5t-513.5 -189.5h-513v1462h513zM685 164q219 0 351 143q133 142 133 432q0 145 -30 250.5t-90 174t-149.5 101.5t-207.5 33h-338v-1134h331z" />
    <glyph glyph-name="E" unicode="E" horiz-adv-x="1251" 
d="M1169 1462v-164h-815v-464h760v-164h-760v-506h822v-164h-1016v1462h1009z" />
    <glyph glyph-name="F" unicode="F" horiz-adv-x="1176" 
d="M1120 1462v-164h-766v-464h672v-164h-672v-670h-194v1462h960z" />
    <glyph glyph-name="G" unicode="G" horiz-adv-x="1554" 
d="M785 1497q259 0 425 -124q165 -124 203 -361h-194q-15 78 -51 137.5t-91.5 100.5t-129 62t-163.5 21q-234 0 -368 -173q-133 -172 -133 -447q0 -252 138 -418t363 -166q209 0 340 126q130 127 130 328v23h-468v164h641v-770h-122l-52 182q-81 -105 -203 -161
q-124 -56 -266 -56q-299 0 -498 214q-198 214 -198 524q0 347 187 570q188 224 510 224z" />
    <glyph glyph-name="H" unicode="H" horiz-adv-x="1479" 
d="M354 1462v-628h770v628h195v-1462h-195v670h-770v-670h-194v1462h194z" />
    <glyph glyph-name="I" unicode="I" horiz-adv-x="530" 
d="M362 1462v-1462h-194v1462h194z" />
    <glyph glyph-name="J" unicode="J" horiz-adv-x="1063" 
d="M903 1462v-1104q0 -174 -109 -283q-110 -110 -323 -110q-196 0 -312 104q-114 105 -114 361v51h195v-45q0 -180 58 -244q58 -63 177 -63q121 0 177.5 63t56.5 193v1077h194z" />
    <glyph glyph-name="K" unicode="K" horiz-adv-x="1366" 
d="M354 1462v-729l742 729h252l-617 -590l641 -872h-246l-528 739l-244 -227v-512h-194v1462h194z" />
    <glyph glyph-name="L" unicode="L" 
d="M354 1462v-1298h774v-164h-968v1462h194z" />
    <glyph glyph-name="M" unicode="M" horiz-adv-x="1784" 
d="M430 1462l461 -1228l463 1228h266v-1462h-184v1217h-4l-457 -1217h-166l-457 1217h-4v-1217h-184v1462h266z" />
    <glyph glyph-name="N" unicode="N" horiz-adv-x="1479" 
d="M365 1462l770 -1186h4v1186h184v-1462h-213l-764 1174h-4v-1174h-184v1462h207z" />
    <glyph glyph-name="O" unicode="O" horiz-adv-x="1556" 
d="M778 1497q213 0 371 -99q158 -98 244 -277q86 -180 86 -390q0 -212 -86 -392q-86 -178 -245 -276q-160 -98 -370 -98t-370 98q-159 98 -244 275q-86 180 -86 393q0 332 190 549t510 217zM272 731q0 -162 59 -304q60 -142 175 -220t272 -78q235 0 370 169q136 169 136 433
q0 259 -134 431q-134 171 -374 171q-235 0 -370 -172q-134 -173 -134 -430z" />
    <glyph glyph-name="P" unicode="P" horiz-adv-x="1327" 
d="M810 1462q202 0 320 -109q119 -110 119 -323q0 -214 -119 -324q-119 -108 -306 -108h-470v-598h-194v1462h650zM756 762q69 0 124.5 16t94.5 49t59.5 83.5t20.5 119.5q0 136 -78.5 202t-232.5 66h-390v-536h402z" />
    <glyph glyph-name="Q" unicode="Q" horiz-adv-x="1556" 
d="M778 1497q213 0 371 -99q158 -97 244 -277t86 -390q0 -165 -54 -316q-55 -153 -168 -265l193 -154l-98 -123l-224 180q-145 -88 -350 -88q-210 0 -370 98q-159 100 -244 276q-86 178 -86 392q0 331 191 549q190 217 509 217zM272 731q0 -162 59 -304q60 -142 175 -220
t272 -78q106 0 203 41l-162 129l103 119l194 -156q81 81 124.5 203t43.5 266q0 259 -134 431q-134 171 -374 171q-235 0 -370 -172q-134 -173 -134 -430z" />
    <glyph glyph-name="R" unicode="R" horiz-adv-x="1403" 
d="M857 1462q191 0 313 -101t122 -282q0 -145 -62.5 -239.5t-191.5 -130.5v-4q111 -23 163 -104q54 -83 61 -279q4 -128 24 -201q19 -73 57 -121h-217q-9 12 -14.5 23.5t-9 24t-5.5 28t-5 36.5l-8 161q-3 114 -49 230q-45 117 -200 122h-481v-625h-194v1462h697zM770 788
q163 0 245.5 63t82.5 198q0 118 -66 183.5t-187 65.5h-491v-510h416z" />
    <glyph glyph-name="S" unicode="S" horiz-adv-x="1327" 
d="M651 1497q245 0 387 -118q143 -119 152 -345h-184q-34 299 -363 299q-157 0 -242.5 -64t-85.5 -185q0 -86 73 -141t397 -120q117 -24 204.5 -60t145.5 -87t87 -119t29 -156q0 -204 -167 -320t-405 -116q-266 0 -433 133q-169 134 -170 383h184q2 -167 119 -260
q119 -92 307 -92q178 0 274.5 68t96.5 198q0 104 -89 167q-88 63 -323 108q-311 58 -418 152q-106 94 -106 247q0 196 149 312q151 116 381 116z" />
    <glyph glyph-name="T" unicode="T" horiz-adv-x="1176" 
d="M1174 1462v-164h-488v-1298h-194v1298h-488v164h1170z" />
    <glyph glyph-name="U" unicode="U" horiz-adv-x="1479" 
d="M346 1462v-942q0 -179 102 -285q103 -106 304 -106q189 0 285 105q96 106 96 286v942h194v-944q0 -258 -145 -406q-144 -147 -430 -147q-150 0 -262.5 37t-187.5 107.5t-112.5 173.5t-37.5 235v944h194z" />
    <glyph glyph-name="V" unicode="V" horiz-adv-x="1251" 
d="M209 1462l418 -1267h4l422 1267h202l-520 -1462h-221l-516 1462h211z" />
    <glyph glyph-name="W" unicode="W" horiz-adv-x="1896" 
d="M223 1462l287 -1216h4l328 1216h211l323 -1216h4l297 1216h195l-391 -1462h-203l-334 1229h-4l-338 -1229h-203l-374 1462h198z" />
    <glyph glyph-name="X" unicode="X" horiz-adv-x="1251" 
d="M260 1462l365 -571l381 571h217l-484 -710l514 -752h-237l-393 604l-406 -604h-219l510 752l-481 710h233z" />
    <glyph glyph-name="Y" unicode="Y" horiz-adv-x="1327" 
d="M236 1462l438 -696l428 696h221l-559 -864v-598h-195v598l-565 864h232z" />
    <glyph glyph-name="Z" unicode="Z" horiz-adv-x="1251" 
d="M1184 1462v-164l-908 -1134h932v-164h-1163v164l909 1134h-839v164h1069z" />
    <glyph glyph-name="bracketleft" unicode="[" horiz-adv-x="530" 
d="M530 1497v-139h-219v-1624h219v-140h-383v1903h383z" />
    <glyph glyph-name="backslash" unicode="\" horiz-adv-x="682" 
d="M113 1497l606 -1532h-150l-606 1532h150z" />
    <glyph glyph-name="bracketright" unicode="]" horiz-adv-x="530" 
d="M383 1497v-1903h-383v140h219v1624h-219v139h383z" />
    <glyph glyph-name="asciicircum" unicode="^" horiz-adv-x="1229" 
d="M680 1427l446 -886h-143l-371 737l-364 -737h-146l447 886h131z" />
    <glyph glyph-name="underscore" unicode="_" horiz-adv-x="1024" 
d="M1024 -154v-102h-1024v102h1024z" />
    <glyph glyph-name="grave" unicode="`" horiz-adv-x="455" 
d="M176 1499l176 -293h-131l-269 293h224z" />
    <glyph glyph-name="a" unicode="a" horiz-adv-x="1100" 
d="M564 1083q215 0 306 -77q91 -76 91 -206v-611q0 -60 55 -60q12 0 26 3t27 7v-135q-49 -29 -124 -29q-72 0 -110 40t-38 124q-138 -164 -373 -164q-163 0 -257 77q-93 78 -93 220q0 144 91 226q92 84 428 126q113 15 154 44t41 87q0 88 -56 131.5t-180 43.5
q-130 0 -194 -49t-69 -152h-174q8 176 124 265t325 89zM258 285q0 -75 54 -115.5t151 -40.5q147 0 235 73t88 163v182q-44 -32 -114 -42l-186 -27q-117 -17 -172.5 -62.5t-55.5 -130.5z" />
    <glyph glyph-name="b" unicode="b" horiz-adv-x="1214" 
d="M311 1462v-547h4q42 82 128.5 125t209.5 43q226 0 357 -156q131 -157 131 -401q0 -247 -130 -399q-131 -152 -353 -152q-98 0 -194 41q-93 40 -149 125h-4v-141h-174v1462h174zM305 530q0 -183 89 -293q88 -108 245 -108q75 0 134 28t99.5 80.5t62 128.5t21.5 172
q0 172 -88 281q-87 111 -241 111q-153 0 -238 -112q-84 -113 -84 -288z" />
    <glyph glyph-name="c" unicode="c" horiz-adv-x="1100" 
d="M573 1083q193 0 315 -92q121 -91 142 -272h-180q-21 103 -89 157t-173 54q-81 0 -142.5 -27.5t-103.5 -80.5t-63 -130t-21 -176q0 -175 83 -282q82 -105 226 -105q128 0 201 68.5t90 189.5h178q-29 -199 -148.5 -305.5t-318.5 -106.5q-231 0 -363 145t-132 396
q0 261 133 413q133 154 366 154z" />
    <glyph glyph-name="d" unicode="d" horiz-adv-x="1214" 
d="M1077 1462v-1462h-174v143h-4q-42 -82 -131 -125t-207 -43q-222 0 -355 154q-132 154 -132 403q0 244 128 398q129 153 354 153q104 0 197 -42q93 -41 146 -123h4v544h174zM258 521q0 -172 88 -282q89 -110 240 -110q154 0 238 110q85 110 85 289q0 181 -87 291
q-87 111 -249 111q-150 0 -233 -110q-82 -109 -82 -299z" />
    <glyph glyph-name="e" unicode="e" horiz-adv-x="1100" 
d="M571 1083q228 0 354 -164t126 -421v-21h-793v-13q0 -152 88 -243q89 -92 242 -92q117 0 185 53.5t89 153.5h172q-18 -88 -57 -155.5t-97 -113t-133 -69t-165 -23.5q-168 0 -283 75q-114 76 -170 210q-55 134 -55 276q0 234 141 390q141 157 356 157zM866 631
q-7 127 -94 214q-85 85 -213 85q-120 0 -205 -81t-96 -218h608z" />
    <glyph glyph-name="f" unicode="f" horiz-adv-x="606" 
d="M494 1479q11 0 25.5 -1.5t31.5 -3.5q36 -5 57 -12v-151q-20 7 -49 10.5t-49 3.5q-73 0 -103 -30t-30 -84v-152h205v-154h-205v-905h-174v905h-178v154h178v165q0 117 73.5 186t217.5 69z" />
    <glyph glyph-name="g" unicode="g" horiz-adv-x="1176" 
d="M562 1083q112 0 192 -47.5t125 -128.5h2v152h163v-980q0 -249 -120 -379t-370 -130q-182 0 -307 80q-125 79 -132 231h174q5 -82 86 -126q82 -46 188 -46q155 0 236.5 101.5t81.5 303.5v66h-4q-20 -45 -52.5 -79.5t-77.5 -60.5q-88 -52 -201 -52q-215 0 -344 148
q-128 149 -128 388q0 243 128 401q129 158 360 158zM258 545q0 -190 79 -297q80 -107 220 -107q143 0 229 111q86 113 86 299q0 171 -79 274q-80 105 -224 105q-147 0 -229 -105q-82 -104 -82 -280z" />
    <glyph glyph-name="h" unicode="h" 
d="M305 1462v-559h4q37 85 129 132q91 48 206 48q96 0 164.5 -25t113 -73t65.5 -118.5t21 -161.5v-705h-174v723q0 90 -58 148q-57 59 -159 59q-148 0 -230 -91q-82 -89 -82 -234v-605h-174v1462h174z" />
    <glyph glyph-name="i" unicode="i" horiz-adv-x="455" 
d="M315 1462v-213h-174v213h174zM315 1059v-1059h-174v1059h174z" />
    <glyph glyph-name="j" unicode="j" horiz-adv-x="455" 
d="M315 1462v-213h-174v213h174zM315 1059v-1201q0 -124 -63.5 -194t-190.5 -70q-24 0 -46 2t-44 7v149q14 -3 28.5 -3.5t28.5 -0.5q52 1 70 12q9 5 17 13t14 22.5t9 36t3 53.5v1174h174z" />
    <glyph glyph-name="k" unicode="k" horiz-adv-x="1063" 
d="M315 1462v-866l484 463h233l-420 -385l451 -674h-221l-363 553l-164 -152v-401h-174v1462h174z" />
    <glyph glyph-name="l" unicode="l" horiz-adv-x="455" 
d="M315 1462v-1462h-174v1462h174z" />
    <glyph glyph-name="m" unicode="m" horiz-adv-x="1747" 
d="M641 1083q117 0 190 -46.5t101 -133.5q54 85 140.5 132.5t192.5 47.5q90 0 156 -21t109.5 -60t64.5 -94.5t21 -124.5v-783h-174v702q0 114 -48.5 171t-156.5 57q-130 0 -203 -76t-73 -189v-665h-175v702q0 115 -47.5 171.5t-150.5 56.5q-83 0 -147 -40q-65 -41 -100 -110
q-36 -69 -36 -117v-663h-174v1059h164v-156h4q119 180 342 180z" />
    <glyph glyph-name="n" unicode="n" 
d="M644 1083q96 0 164.5 -25t113 -73t65.5 -118.5t21 -161.5v-705h-174v723q0 90 -58 148q-57 59 -159 59q-148 0 -230 -91q-82 -89 -82 -234v-605h-174v1059h164v-168h4q58 100 142.5 146t202.5 46z" />
    <glyph glyph-name="o" unicode="o" horiz-adv-x="1176" 
d="M588 1083q240 0 377 -155t137 -400q0 -246 -140 -400q-140 -153 -374 -153q-230 0 -372 150q-142 151 -142 403t139 403q140 152 375 152zM258 528q0 -182 93 -291q93 -108 237 -108q143 0 236 109q94 109 94 290t-93 291q-93 111 -239 111q-140 0 -234 -109
q-94 -107 -94 -293z" />
    <glyph glyph-name="p" unicode="p" horiz-adv-x="1214" 
d="M653 1083q226 0 357 -156q131 -157 131 -401q0 -247 -130 -399q-131 -152 -353 -152q-98 0 -194 41q-93 40 -149 125h-4v-547h-174v1465h174v-144h4q42 82 129.5 125t208.5 43zM305 530q0 -183 89 -293q88 -108 245 -108q75 0 134 28t99.5 80.5t62 128.5t21.5 172
q0 172 -88 281q-87 111 -241 111q-153 0 -238 -112q-84 -113 -84 -288z" />
    <glyph glyph-name="q" unicode="q" horiz-adv-x="1214" 
d="M556 1083q104 0 197 -42q93 -41 146 -123h4v141h174v-1465h-174v549h-4q-42 -82 -131 -125t-207 -43q-222 0 -355 154q-132 154 -132 403q0 245 129 398q130 153 353 153zM258 521q0 -172 88 -282q89 -110 240 -110q154 0 238 110q85 110 85 289q0 181 -87 291
q-87 111 -249 111q-150 0 -233 -110q-82 -109 -82 -299z" />
    <glyph glyph-name="r" unicode="r" horiz-adv-x="682" 
d="M658 1084h11t13 -1v-184q-196 0 -289.5 -104t-93.5 -321v-474h-174v1059h164v-223h4q61 127 150 187.5t215 60.5z" />
    <glyph glyph-name="s" unicode="s" horiz-adv-x="1024" 
d="M483 1083q214 0 318 -83t114 -248h-174v2q-3 42 -22 74.5t-51 55t-76 34.5t-96 12q-106 0 -166 -35.5t-60 -99.5q0 -58 53 -95t162 -60l164 -37q154 -34 234 -104.5t80 -189.5q0 -157 -121 -245q-122 -89 -330 -89q-204 0 -322 91q-120 92 -127 268h175
q3 -100 77.5 -152.5t206.5 -52.5q127 0 191.5 40t64.5 118q0 71 -65 112q-63 41 -264 82q-199 39 -282 110q-81 72 -81 191q0 139 113 220q112 81 284 81z" />
    <glyph glyph-name="t" unicode="t" horiz-adv-x="645" 
d="M373 1376v-317h211v-154h-211v-663q0 -80 52 -84q26 -2 53.5 -3t56.5 -1h49v-154h-144q-143 0 -192 51q-49 50 -49 171v683h-181v154h181v317h174z" />
    <glyph glyph-name="u" unicode="u" 
d="M305 1059v-722q0 -91 57 -149q59 -59 159 -59q150 0 231 91q82 91 82 234v605h174v-1059h-164v168h-4q-58 -102 -144.5 -147.5t-200.5 -45.5q-186 0 -275 95t-89 283v706h174z" />
    <glyph glyph-name="v" unicode="v" horiz-adv-x="1024" 
d="M223 1059l297 -883h4l289 883h182l-387 -1059h-186l-393 1059h194z" />
    <glyph glyph-name="w" unicode="w" horiz-adv-x="1552" 
d="M227 1059l240 -866h4l213 866h190l221 -861l2 -5h3l237 866h181l-337 -1056l-2 -3h-184l-214 837l-2 5h-3l-213 -842h-188l-340 1059h192z" />
    <glyph glyph-name="x" unicode="x" horiz-adv-x="1061" 
d="M270 1059l253 -369h2l263 369h209l-364 -488l409 -571h-223l-295 438l-295 -438h-211l398 557l-369 502h223z" />
    <glyph glyph-name="y" unicode="y" horiz-adv-x="1024" 
d="M213 1059l309 -866h4l297 866h185l-450 -1172q-70 -181 -137 -247q-64 -64 -181 -64q-32 0 -62 4t-59 14v160l50.5 -16t51.5 -8q106 0 148 106l67 170l-420 1053h197z" />
    <glyph glyph-name="z" unicode="z" horiz-adv-x="983" 
d="M909 1059v-119l-647 -786h676v-154h-893v133l639 772h-598v154h823z" />
    <glyph glyph-name="braceleft" unicode="{" horiz-adv-x="872" 
d="M360 1360q-57 0 -87 -52.5t-31 -146.5h120v-227h-227v217q0 142 59 227q58 84 166 84v-102zM735 1360q-57 0 -87.5 -51t-31.5 -148h121v-227h-227v225q0 134 59 219q58 84 166 84v-102z" />
    <glyph glyph-name="bar" unicode="|" horiz-adv-x="455" 
d="M297 1610v-2048h-139v2048h139z" />
    <glyph glyph-name="braceright" unicode="}" horiz-adv-x="872" 
d="M362 1462v-235q0 -128 -59 -211q-58 -82 -166 -82v102q57 0 87.5 51t31.5 148h-121v227h227zM737 1462v-235q0 -124 -58 -209q-57 -84 -167 -84v102q57 0 87.5 51t31.5 148h-121v227h227z" />
    <glyph glyph-name="asciitilde" unicode="~" horiz-adv-x="1229" 
d="M1014 653l73 -102q-59 -92 -119 -134t-137 -42q-100 0 -218 73q-121 72 -225 74q-52 0 -92.5 -34.5t-80.5 -120.5l-74 102q90 176 256 176q30 0 66 -7t81 -24q43 -17 85 -36.5l82 -38.5q80 -41 123 -41q40 0 72.5 24t58.5 61z" />
    <glyph glyph-name="Adieresis" unicode="&#xc4;" horiz-adv-x="1327" 
d="M565 1837v-213h-184v213h184zM950 1837v-213h-184v213h184zM772 1462l571 -1462h-215l-159 440h-619l-164 -440h-200l571 1462h215zM659 1286l-247 -682h495l-243 682h-5z" />
    <glyph glyph-name="Aring" unicode="&#xc5;" horiz-adv-x="1327" 
d="M663 1993q93 0 163 -68q69 -68 69 -162t-69 -161q-68 -68 -163 -68t-163 68t-68 161q0 96 70 163t161 67zM526 1761q0 -60 39 -100q40 -39 98 -39q62 0 99 40q39 40 39 99q0 58 -39 99t-100 41q-57 0 -97 -40q-39 -41 -39 -100zM772 1462l571 -1462h-215l-159 440h-619
l-164 -440h-200l571 1462h215zM659 1286l-247 -682h495l-243 682h-5z" />
    <glyph glyph-name="Ccedilla" unicode="&#xc7;" horiz-adv-x="1479" 
d="M780 1497q242 0 406 -126q165 -127 196 -349h-194q-16 75 -52 133t-88.5 97.5t-120.5 60t-149 20.5q-232 0 -364 -164q-131 -164 -131 -428q0 -280 129 -446t368 -166q178 0 293 113q115 114 129 309h195q-15 -138 -63.5 -245t-127 -181.5t-186 -114.5t-240.5 -43
l-59 -76l4 -4q18 10 35.5 12.5t32.5 2.5q73 0 123 -41q49 -42 49 -109q0 -86 -71 -134t-183 -48q-42 0 -88 8.5t-101 30.5l37 90q36 -14 69 -20.5t64 -6.5q54 0 86.5 16.5t32.5 47.5q0 27 -26 45t-71 18q-22 0 -41 -3.5t-42 -12.5l-35 57l100 129q-291 24 -450 229
q-158 206 -158 529q0 216 81 393q82 178 241 277q158 100 370 100z" />
    <glyph glyph-name="Eacute" unicode="&#xc9;" horiz-adv-x="1251" 
d="M953 1888l-269 -293h-131l177 293h223zM1169 1462v-164h-815v-464h760v-164h-760v-506h822v-164h-1016v1462h1009z" />
    <glyph glyph-name="Ntilde" unicode="&#xd1;" horiz-adv-x="1479" 
d="M1096 1858q-16 -93 -66 -161q-49 -67 -141 -67q-48 0 -94 17.5l-102 40.5q-56 22 -93 22t-62.5 -24t-37.5 -62h-107q48 225 217 225q63 0 151 -41t134 -41q32 0 55.5 21t38.5 70h107zM365 1462l770 -1186h4v1186h184v-1462h-213l-764 1174h-4v-1174h-184v1462h207z" />
    <glyph glyph-name="Odieresis" unicode="&#xd6;" horiz-adv-x="1556" 
d="M680 1837v-213h-184v213h184zM1065 1837v-213h-184v213h184zM778 1497q213 0 371 -99q158 -98 244 -277q86 -180 86 -390q0 -212 -86 -392q-86 -178 -245 -276q-160 -98 -370 -98t-370 98q-159 98 -244 275q-86 180 -86 393q0 332 190 549t510 217zM272 731
q0 -162 59 -304q60 -142 175 -220t272 -78q235 0 370 169q136 169 136 433q0 259 -134 431q-134 171 -374 171q-235 0 -370 -172q-134 -173 -134 -430z" />
    <glyph glyph-name="Udieresis" unicode="&#xdc;" horiz-adv-x="1479" 
d="M643 1837v-213h-184v213h184zM1028 1837v-213h-184v213h184zM346 1462v-942q0 -179 102 -285q103 -106 304 -106q189 0 285 105q96 106 96 286v942h194v-944q0 -258 -145 -406q-144 -147 -430 -147q-150 0 -262.5 37t-187.5 107.5t-112.5 173.5t-37.5 235v944h194z" />
    <glyph glyph-name="aacute" unicode="&#xe1;" horiz-adv-x="1100" 
d="M564 1083q215 0 306 -77q91 -76 91 -206v-611q0 -60 55 -60q12 0 26 3t27 7v-135q-49 -29 -124 -29q-72 0 -110 40t-38 124q-138 -164 -373 -164q-163 0 -257 77q-93 78 -93 220q0 144 91 226q92 84 428 126q113 15 154 44t41 87q0 88 -56 131.5t-180 43.5
q-130 0 -194 -49t-69 -152h-174q8 176 124 265t325 89zM258 285q0 -75 54 -115.5t151 -40.5q147 0 235 73t88 163v182q-44 -32 -114 -42l-186 -27q-117 -17 -172.5 -62.5t-55.5 -130.5zM854 1499l-269 -293h-131l177 293h223z" />
    <glyph glyph-name="agrave" unicode="&#xe0;" horiz-adv-x="1100" 
d="M564 1083q215 0 306 -77q91 -76 91 -206v-611q0 -60 55 -60q12 0 26 3t27 7v-135q-49 -29 -124 -29q-72 0 -110 40t-38 124q-138 -164 -373 -164q-163 0 -257 77q-93 78 -93 220q0 144 91 226q92 84 428 126q113 15 154 44t41 87q0 88 -56 131.5t-180 43.5
q-130 0 -194 -49t-69 -152h-174q8 176 124 265t325 89zM258 285q0 -75 54 -115.5t151 -40.5q147 0 235 73t88 163v182q-44 -32 -114 -42l-186 -27q-117 -17 -172.5 -62.5t-55.5 -130.5zM473 1499l176 -293h-131l-269 293h224z" />
    <glyph glyph-name="acircumflex" unicode="&#xe2;" horiz-adv-x="1100" 
d="M564 1083q215 0 306 -77q91 -76 91 -206v-611q0 -60 55 -60q12 0 26 3t27 7v-135q-49 -29 -124 -29q-72 0 -110 40t-38 124q-138 -164 -373 -164q-163 0 -257 77q-93 78 -93 220q0 144 91 226q92 84 428 126q113 15 154 44t41 87q0 88 -56 131.5t-180 43.5
q-130 0 -194 -49t-69 -152h-174q8 176 124 265t325 89zM258 285q0 -75 54 -115.5t151 -40.5q147 0 235 73t88 163v182q-44 -32 -114 -42l-186 -27q-117 -17 -172.5 -62.5t-55.5 -130.5zM654 1499l213 -293h-173l-141 197l-143 -197h-158l211 293h191z" />
    <glyph glyph-name="adieresis" unicode="&#xe4;" horiz-adv-x="1100" 
d="M564 1083q215 0 306 -77q91 -76 91 -206v-611q0 -60 55 -60q12 0 26 3t27 7v-135q-49 -29 -124 -29q-72 0 -110 40t-38 124q-138 -164 -373 -164q-163 0 -257 77q-93 78 -93 220q0 144 91 226q92 84 428 126q113 15 154 44t41 87q0 88 -56 131.5t-180 43.5
q-130 0 -194 -49t-69 -152h-174q8 176 124 265t325 89zM258 285q0 -75 54 -115.5t151 -40.5q147 0 235 73t88 163v182q-44 -32 -114 -42l-186 -27q-117 -17 -172.5 -62.5t-55.5 -130.5zM457 1446v-213h-184v213h184zM842 1446v-213h-184v213h184z" />
    <glyph glyph-name="atilde" unicode="&#xe3;" horiz-adv-x="1100" 
d="M564 1083q215 0 306 -77q91 -76 91 -206v-611q0 -60 55 -60q12 0 26 3t27 7v-135q-49 -29 -124 -29q-72 0 -110 40t-38 124q-138 -164 -373 -164q-163 0 -257 77q-93 78 -93 220q0 144 91 226q92 84 428 126q113 15 154 44t41 87q0 88 -56 131.5t-180 43.5
q-130 0 -194 -49t-69 -152h-174q8 176 124 265t325 89zM258 285q0 -75 54 -115.5t151 -40.5q147 0 235 73t88 163v182q-44 -32 -114 -42l-186 -27q-117 -17 -172.5 -62.5t-55.5 -130.5zM912 1468q-16 -92 -66 -160q-49 -67 -141 -67q-48 0 -94 17.5l-102 40.5q-56 22 -93 22
t-62.5 -24t-37.5 -62h-107q48 225 217 225q63 0 151 -41t134 -41q32 0 55.5 21t38.5 69h107z" />
    <glyph glyph-name="aring" unicode="&#xe5;" horiz-adv-x="1100" 
d="M564 1083q215 0 306 -77q91 -76 91 -206v-611q0 -60 55 -60q12 0 26 3t27 7v-135q-49 -29 -124 -29q-72 0 -110 40t-38 124q-138 -164 -373 -164q-163 0 -257 77q-93 78 -93 220q0 144 91 226q92 84 428 126q113 15 154 44t41 87q0 88 -56 131.5t-180 43.5
q-130 0 -194 -49t-69 -152h-174q8 176 124 265t325 89zM258 285q0 -75 54 -115.5t151 -40.5q147 0 235 73t88 163v182q-44 -32 -114 -42l-186 -27q-117 -17 -172.5 -62.5t-55.5 -130.5zM557 1614q95 0 163 -68q69 -68 69 -161q0 -96 -69 -163q-68 -67 -163 -67
q-92 0 -162 67q-69 67 -69 163q0 93 69 161q70 68 162 68zM420 1383q0 -58 38 -99t99 -41t99 41q39 40 39 99q0 57 -39 98q-38 41 -100 41q-57 0 -97 -40q-39 -39 -39 -99z" />
    <glyph glyph-name="ccedilla" unicode="&#xe7;" horiz-adv-x="1100" 
d="M573 1083q193 0 315 -92q121 -91 142 -272h-180q-21 103 -89 157t-173 54q-81 0 -142.5 -27.5t-103.5 -80.5t-63 -130t-21 -176q0 -175 83 -282q82 -105 226 -105q128 0 201 68.5t90 189.5h178q-29 -193 -141 -297t-295 -110l-68 -89l5 -4q16 9 33.5 12t33.5 3
q74 0 123 -41q49 -42 49 -109q0 -88 -72 -134q-71 -48 -182 -48q-42 0 -89.5 9t-98.5 30l37 90q36 -14 69 -20.5t64 -6.5q51 0 85 16.5t34 47.5q0 28 -27.5 45.5t-69.5 17.5q-22 0 -39.5 -3.5t-44.5 -12.5l-34 57l108 140h-2q-209 16 -324 159q-116 143 -116 377
q0 261 133 413q133 154 366 154z" />
    <glyph glyph-name="eacute" unicode="&#xe9;" horiz-adv-x="1100" 
d="M571 1083q228 0 354 -164t126 -421v-21h-793v-13q0 -152 88 -243q89 -92 242 -92q117 0 185 53.5t89 153.5h172q-18 -88 -57 -155.5t-97 -113t-133 -69t-165 -23.5q-168 0 -283 75q-114 76 -170 210q-55 134 -55 276q0 234 141 390q141 157 356 157zM866 631
q-7 127 -94 214q-85 85 -213 85q-120 0 -205 -81t-96 -218h608zM873 1499l-269 -293h-131l177 293h223z" />
    <glyph glyph-name="egrave" unicode="&#xe8;" horiz-adv-x="1100" 
d="M571 1083q228 0 354 -164t126 -421v-21h-793v-13q0 -152 88 -243q89 -92 242 -92q117 0 185 53.5t89 153.5h172q-18 -88 -57 -155.5t-97 -113t-133 -69t-165 -23.5q-168 0 -283 75q-114 76 -170 210q-55 134 -55 276q0 234 141 390q141 157 356 157zM866 631
q-7 127 -94 214q-85 85 -213 85q-120 0 -205 -81t-96 -218h608zM491 1499l176 -293h-131l-269 293h224z" />
    <glyph glyph-name="ecircumflex" unicode="&#xea;" horiz-adv-x="1100" 
d="M571 1083q228 0 354 -164t126 -421v-21h-793v-13q0 -152 88 -243q89 -92 242 -92q117 0 185 53.5t89 153.5h172q-18 -88 -57 -155.5t-97 -113t-133 -69t-165 -23.5q-168 0 -283 75q-114 76 -170 210q-55 134 -55 276q0 234 141 390q141 157 356 157zM866 631
q-7 127 -94 214q-85 85 -213 85q-120 0 -205 -81t-96 -218h608zM672 1499l213 -293h-173l-141 197l-143 -197h-158l211 293h191z" />
    <glyph glyph-name="edieresis" unicode="&#xeb;" horiz-adv-x="1100" 
d="M571 1083q228 0 354 -164t126 -421v-21h-793v-13q0 -152 88 -243q89 -92 242 -92q117 0 185 53.5t89 153.5h172q-18 -88 -57 -155.5t-97 -113t-133 -69t-165 -23.5q-168 0 -283 75q-114 76 -170 210q-55 134 -55 276q0 234 141 390q141 157 356 157zM866 631
q-7 127 -94 214q-85 85 -213 85q-120 0 -205 -81t-96 -218h608zM475 1446v-213h-184v213h184zM860 1446v-213h-184v213h184z" />
    <glyph glyph-name="iacute" unicode="&#xed;" horiz-adv-x="455" 
d="M315 1059v-1059h-174v1059h174zM527 1499l-269 -293h-131l177 293h223z" />
    <glyph glyph-name="igrave" unicode="&#xec;" horiz-adv-x="455" 
d="M315 1059v-1059h-174v1059h174zM147 1499l176 -293h-131l-269 293h224z" />
    <glyph glyph-name="icircumflex" unicode="&#xee;" horiz-adv-x="455" 
d="M315 1059v-1059h-174v1059h174zM326 1499l213 -293h-173l-141 197l-143 -197h-158l211 293h191z" />
    <glyph glyph-name="idieresis" unicode="&#xef;" horiz-adv-x="455" 
d="M315 1059v-1059h-174v1059h174zM129 1446v-213h-184v213h184zM514 1446v-213h-184v213h184z" />
    <glyph glyph-name="ntilde" unicode="&#xf1;" 
d="M644 1083q96 0 164.5 -25t113 -73t65.5 -118.5t21 -161.5v-705h-174v723q0 90 -58 148q-57 59 -159 59q-148 0 -230 -91q-82 -89 -82 -234v-605h-174v1059h164v-168h4q58 100 142.5 146t202.5 46zM930 1468q-16 -92 -66 -160q-49 -67 -141 -67q-48 0 -94 17.5l-102 40.5
q-56 22 -93 22t-62.5 -24t-37.5 -62h-107q48 225 217 225q63 0 151 -41t134 -41q32 0 55.5 21t38.5 69h107z" />
    <glyph glyph-name="oacute" unicode="&#xf3;" horiz-adv-x="1176" 
d="M588 1083q240 0 377 -155t137 -400q0 -246 -140 -400q-140 -153 -374 -153q-230 0 -372 150q-142 151 -142 403t139 403q140 152 375 152zM258 528q0 -182 93 -291q93 -108 237 -108q143 0 236 109q94 109 94 290t-93 291q-93 111 -239 111q-140 0 -234 -109
q-94 -107 -94 -293zM891 1499l-269 -293h-131l177 293h223z" />
    <glyph glyph-name="ograve" unicode="&#xf2;" horiz-adv-x="1176" 
d="M588 1083q240 0 377 -155t137 -400q0 -246 -140 -400q-140 -153 -374 -153q-230 0 -372 150q-142 151 -142 403t139 403q140 152 375 152zM258 528q0 -182 93 -291q93 -108 237 -108q143 0 236 109q94 109 94 290t-93 291q-93 111 -239 111q-140 0 -234 -109
q-94 -107 -94 -293zM502 1499l176 -293h-131l-269 293h224z" />
    <glyph glyph-name="ocircumflex" unicode="&#xf4;" horiz-adv-x="1176" 
d="M588 1083q240 0 377 -155t137 -400q0 -246 -140 -400q-140 -153 -374 -153q-230 0 -372 150q-142 151 -142 403t139 403q140 152 375 152zM258 528q0 -182 93 -291q93 -108 237 -108q143 0 236 109q94 109 94 290t-93 291q-93 111 -239 111q-140 0 -234 -109
q-94 -107 -94 -293zM687 1499l213 -293h-173l-141 197l-143 -197h-158l211 293h191z" />
    <glyph glyph-name="odieresis" unicode="&#xf6;" horiz-adv-x="1176" 
d="M588 1083q240 0 377 -155t137 -400q0 -246 -140 -400q-140 -153 -374 -153q-230 0 -372 150q-142 151 -142 403t139 403q140 152 375 152zM258 528q0 -182 93 -291q93 -108 237 -108q143 0 236 109q94 109 94 290t-93 291q-93 111 -239 111q-140 0 -234 -109
q-94 -107 -94 -293zM489 1446v-213h-184v213h184zM874 1446v-213h-184v213h184z" />
    <glyph glyph-name="otilde" unicode="&#xf5;" horiz-adv-x="1176" 
d="M588 1083q240 0 377 -155t137 -400q0 -246 -140 -400q-140 -153 -374 -153q-230 0 -372 150q-142 151 -142 403t139 403q140 152 375 152zM258 528q0 -182 93 -291q93 -108 237 -108q143 0 236 109q94 109 94 290t-93 291q-93 111 -239 111q-140 0 -234 -109
q-94 -107 -94 -293zM944 1468q-16 -92 -66 -160q-49 -67 -141 -67q-48 0 -94 17.5l-102 40.5q-56 22 -93 22t-62.5 -24t-37.5 -62h-107q48 225 217 225q63 0 151 -41t134 -41q32 0 55.5 21t38.5 69h107z" />
    <glyph glyph-name="uacute" unicode="&#xfa;" 
d="M305 1059v-722q0 -91 57 -149q59 -59 159 -59q150 0 231 91q82 91 82 234v605h174v-1059h-164v168h-4q-58 -102 -144.5 -147.5t-200.5 -45.5q-186 0 -275 95t-89 283v706h174zM867 1499l-269 -293h-131l177 293h223z" />
    <glyph glyph-name="ugrave" unicode="&#xf9;" 
d="M305 1059v-722q0 -91 57 -149q59 -59 159 -59q150 0 231 91q82 91 82 234v605h174v-1059h-164v168h-4q-58 -102 -144.5 -147.5t-200.5 -45.5q-186 0 -275 95t-89 283v706h174zM485 1499l176 -293h-131l-269 293h224z" />
    <glyph glyph-name="ucircumflex" unicode="&#xfb;" 
d="M305 1059v-722q0 -91 57 -149q59 -59 159 -59q150 0 231 91q82 91 82 234v605h174v-1059h-164v168h-4q-58 -102 -144.5 -147.5t-200.5 -45.5q-186 0 -275 95t-89 283v706h174zM666 1499l213 -293h-173l-141 197l-143 -197h-158l211 293h191z" />
    <glyph glyph-name="udieresis" unicode="&#xfc;" 
d="M305 1059v-722q0 -91 57 -149q59 -59 159 -59q150 0 231 91q82 91 82 234v605h174v-1059h-164v168h-4q-58 -102 -144.5 -147.5t-200.5 -45.5q-186 0 -275 95t-89 283v706h174zM469 1446v-213h-184v213h184zM854 1446v-213h-184v213h184z" />
    <glyph glyph-name="dagger" unicode="&#x2020;" 
d="M647 1462v-403h406v-154h-406v-1222h-164v1222h-397v154h397v403h164z" />
    <glyph glyph-name="degree" unicode="&#xb0;" horiz-adv-x="819" 
d="M410 1452q121 0 208 -88q87 -89 87 -207q0 -121 -87 -208q-86 -87 -208 -87q-121 0 -208 84q-87 85 -87 211q0 124 87 210q88 85 208 85zM217 1157q0 -76 53 -135q54 -57 140 -57t139 57q53 59 53 135t-54 135q-54 58 -139 58q-82 0 -137 -57q-55 -56 -55 -136z" />
    <glyph glyph-name="cent" unicode="&#xa2;" 
d="M557 1278h80v-195q180 -5 286.5 -96.5t129.5 -267.5h-179q-23 105 -85 156t-152 55v-801q103 11 165 76t83 182h174q-23 -180 -136 -295q-112 -115 -286 -117v-213h-80v213q-216 11 -340 158q-123 148 -123 383q0 241 124 396q124 156 339 171v195zM279 517
q0 -165 72 -271q74 -105 206 -117v801q-63 -7 -114.5 -36.5t-88 -81t-56 -125.5t-19.5 -170z" />
    <glyph glyph-name="sterling" unicode="&#xa3;" 
d="M586 1497q233 0 357 -133q126 -134 126 -375v-20h-174q-5 185 -80 279.5t-219 94.5q-125 0 -209 -78t-84 -191q0 -67 21 -131q21 -65 86 -181h325v-92h-280q41 -82 41 -155q0 -99 -49 -185t-189 -199l4 -4q86 38 127 48q44 11 89 11q61 0 123 -13t125 -33q61 -21 117 -21
q25 0 50 6.5t49 17t45 24t39 28.5l88 -136q-57 -48 -129 -71t-169 -23q-82 0 -205 42t-213 42q-57 0 -108.5 -20t-96.5 -52l-97 136q114 78 170 173.5t56 191.5q0 35 -12.5 83t-39.5 109h-174v92h119q-48 78 -72 154.5t-24 164.5q0 184 133 299q133 117 334 117z" />
    <glyph glyph-name="section" unicode="&#xa7;" 
d="M576 1497q88 0 157.5 -25.5t117.5 -74t73.5 -119t27.5 -160.5h-174q-1 102 -59 164q-55 61 -148 61t-143.5 -47t-50.5 -128q0 -66 61 -127q31 -31 82 -64.5t124 -70.5q262 -135 337 -231q76 -94 76 -206q0 -95 -57 -177q-55 -82 -156 -124q121 -91 121 -246
q0 -145 -109 -236q-109 -92 -274 -92q-174 0 -286 100q-113 100 -126 288h174q3 -109 67 -171q64 -63 167 -63q85 0 146 47q60 46 60 123q0 62 -47 117t-144 111l-99.5 56l-103.5 56q-81 43 -141 88.5t-99 95t-58.5 105t-19.5 118.5q0 94 62 174q63 81 157 109
q-48 53 -71 103t-23 114q0 148 112 239q112 93 267 93zM240 674q0 -76 53 -135q26 -29 84 -66.5t148 -85.5q54 -29 107.5 -62t108.5 -71q73 30 110.5 80t37.5 110q0 59 -47 115q-47 58 -216 155l-144 85.5t-93 60.5q-35 -12 -62.5 -31.5t-46.5 -44t-29.5 -52.5t-10.5 -58z
" />
    <glyph glyph-name="bullet" unicode="&#x2022;" horiz-adv-x="1024" 
d="M512 1096q151 0 259 -108t108 -257q0 -147 -107 -257q-106 -109 -260 -109t-260 109q-105 109 -105 257q0 149 106 256q106 109 259 109z" />
    <glyph glyph-name="paragraph" unicode="&#xb6;" horiz-adv-x="1229" 
d="M1055 1462v-1779h-140v1667h-249v-1667h-140v976q-198 5 -313 115q-115 112 -115 267q0 198 125 309q125 112 333 112h499z" />
    <glyph glyph-name="germandbls" unicode="&#xdf;" 
d="M537 1497q172 0 298 -99t126 -260q0 -123 -52 -202t-161 -115v-4q128 -15 203 -118q75 -104 75 -248q0 -212 -133 -344q-134 -132 -340 -132q-24 0 -49 2.5t-39 6.5v151q16 -4 28 -4q5 -1 13.5 -1.5t20.5 -0.5q150 0 233 84q82 83 82 216q0 163 -78 234q-78 72 -281 72
h-18v139h41q62 0 112 15.5t85 45.5t54 74.5t19 102.5q0 95 -65 163t-163 68q-134 0 -189 -73q-54 -74 -54 -204v-1066h-174v1081q0 185 109 300q110 116 297 116z" />
    <glyph glyph-name="registered" unicode="&#xae;" horiz-adv-x="1638" 
d="M821 1497q317 0 542 -222q226 -222 226 -540q0 -324 -226 -547t-542 -223q-320 0 -546 225t-226 545q0 315 227 539q226 223 545 223zM188 735q0 -278 182 -468q181 -189 451 -189q266 0 448 189q181 190 181 468q0 274 -181 461q-182 188 -450 188q-266 0 -449 -188
q-182 -188 -182 -461zM877 1180q146 0 225.5 -62t79.5 -194q0 -102 -56.5 -165.5t-178.5 -78.5l255 -395h-149l-244 385h-147v-385h-140v895h355zM822 782q125 0 172 34q48 34 48 114q0 137 -189 137h-191v-285h160z" />
    <glyph glyph-name="copyright" unicode="&#xa9;" horiz-adv-x="1638" 
d="M821 1497q317 0 542 -222q226 -222 226 -540q0 -324 -226 -547t-542 -223q-320 0 -546 225t-226 545q0 315 227 539q226 223 545 223zM188 735q0 -278 182 -468q181 -189 451 -189q266 0 448 189q181 190 181 468q0 271 -181 459q-181 190 -450 190q-266 0 -449 -189
q-182 -188 -182 -460zM840 1198q153 0 256 -82q104 -81 129 -229h-129q-21 94 -89 146t-165 52q-145 0 -229 -98q-83 -98 -83 -252q0 -152 88 -256q89 -104 228 -104q97 0 165 55q69 55 85 154h131q-36 -153 -139 -238q-104 -84 -243 -84q-200 0 -328 131q-126 130 -126 338
q0 207 121 337t328 130z" />
    <glyph glyph-name="trademark" unicode="&#x2122;" horiz-adv-x="2028" 
d="M799 1462v-112h-264v-732h-140v732h-264v112h668zM1186 1462l252 -641l248 641h212v-844h-139v705h-4l-276 -705h-88l-277 705h-4v-705h-139v844h215z" />
    <glyph glyph-name="acute" unicode="&#xb4;" horiz-adv-x="455" 
d="M502 1499l-269 -293h-131l177 293h223z" />
    <glyph glyph-name="dieresis" unicode="&#xa8;" horiz-adv-x="455" 
d="M127 1446v-213h-184v213h184zM512 1446v-213h-184v213h184z" />
    <glyph glyph-name="notequal" unicode="&#x2260;" horiz-adv-x="1229" 
d="M862 1081l119 -65l-127 -221h276v-136h-356l-156 -282h512v-135h-591l-170 -299l-119 65l133 234h-285v135h365l155 282h-520v136h600z" />
    <glyph glyph-name="AE" unicode="&#xc6;" horiz-adv-x="1896" 
d="M1821 1462v-164h-719v-464h676v-164h-676v-506h731v-164h-915v426h-504l-209 -426h-219l739 1462h1096zM489 590h429v708h-84z" />
    <glyph glyph-name="Oslash" unicode="&#xd8;" horiz-adv-x="1556" 
d="M778 1497q148 0 264.5 -44.5t210.5 -135.5l162 178l66 -61l-168 -185q79 -100 122.5 -230.5t43.5 -287.5q0 -212 -86 -392q-86 -178 -245 -276q-160 -98 -370 -98q-134 0 -251.5 42.5t-217.5 133.5l-166 -182l-67 61l172 189q-84 102 -127 235t-43 287q0 332 190 549
t510 217zM272 731q0 -112 26 -208.5t77 -174.5l754 833h2q-69 76 -155 114t-200 38q-236 0 -370 -173t-134 -429zM430 274q132 -145 348 -145q234 0 370 169t136 433q0 106 -25 202.5t-73 174.5z" />
    <glyph glyph-name="infinity" unicode="&#x221e;" horiz-adv-x="1554" 
d="M1165 840q131 0 217 -89t86 -229q0 -139 -82 -230t-219 -91q-87 0 -178 48q-91 49 -211 175l-96 -87t-94.5 -71t-97 -47.5t-103.5 -15.5q-133 0 -217 88t-84 225q0 140 84 230t213 90q93 0 181 -52q91 -53 214 -182q144 150 224 193q81 45 163 45zM866 514
q56 -54 100 -88.5t77 -51.5q67 -34 131 -34q36 0 66 12.5t51 36t32.5 56t11.5 71.5q0 40 -11 74t-33 58.5t-53.5 38t-71.5 13.5q-53 0 -117 -36q-65 -36 -183 -150zM219 516q0 -39 12 -71.5t34 -55.5t53.5 -36t70.5 -13q63 0 139.5 43.5t161.5 130.5q-91 88 -166.5 136
t-141.5 48q-73 0 -118 -53t-45 -129z" />
    <glyph glyph-name="plusminus" unicode="&#xb1;" horiz-adv-x="1229" 
d="M684 1034v-340h446v-139h-446v-342h-139v342h-447v139h447v340h139zM1130 139v-139h-1032v139h1032z" />
    <glyph glyph-name="lessequal" unicode="&#x2264;" horiz-adv-x="1229" 
d="M1130 936l-856 -307l853 -306h3v-147l-1032 385v135l1032 385v-145zM1130 139v-139h-1032v139h1032z" />
    <glyph glyph-name="greaterequal" unicode="&#x2265;" horiz-adv-x="1229" 
d="M98 1081l1032 -385v-135l-1031 -385l-2 146l857 307l-856 307v145zM1130 139v-139h-1032v139h1032z" />
    <glyph glyph-name="yen" unicode="&#xa5;" 
d="M223 1462l357 -723l346 723h213l-365 -706h191v-123h-258l-37 -68v-86h295v-123h-295v-356h-195v356h-289v123h289v86l-37 68h-252v123h189l-375 706h223z" />
    <glyph glyph-name="uni00B5" 
d="M311 1059v-723q0 -90 56 -149q57 -58 156 -58q148 0 229 92q82 91 82 233v605h174v-1059h-164v168h-4q-57 -94 -139.5 -143.5t-182.5 -49.5q-60 0 -115 18.5t-88 53.5h-4v-453h-174v1465h174z" />
    <glyph glyph-name="partialdiff" unicode="&#x2202;" horiz-adv-x="1047" 
d="M446 1477q248 0 381 -202q134 -203 134 -535q0 -365 -121 -565q-120 -200 -355 -200q-181 0 -299 132q-118 133 -118 329q0 191 113 315q114 123 294 123q94 0 177.5 -38t152.5 -116l2 96q0 132 -41 261q-42 130 -123 200.5t-190 70.5q-58 0 -114 -23t-120 -74l-86 103
q72 63 148.5 93t164.5 30zM219 430q0 -139 75 -236q76 -96 195 -96q141 0 223 142q84 142 84 333q-66 88 -144.5 131.5t-159.5 43.5q-122 0 -198 -91q-75 -90 -75 -227z" />
    <glyph glyph-name="summation" unicode="&#x2211;" horiz-adv-x="1260" 
d="M1182 1610v-148h-895l616 -868l-653 -885h956v-147h-1155v131l660 901l-631 885v131h1102z" />
    <glyph glyph-name="product" unicode="&#x220f;" horiz-adv-x="1473" 
d="M1331 1610v-2048h-160v1900h-872v-1900h-160v2048h1192z" />
    <glyph glyph-name="pi" unicode="&#x3c0;" horiz-adv-x="1348" 
d="M1300 1059v-154h-217v-674q0 -45 19.5 -74.5t71.5 -29.5q17 0 32.5 2t38.5 8v-135q-30 -13 -67.5 -20t-71.5 -7q-101 0 -149 55t-48 149v726h-485v-905h-174v905h-209v154h1259z" />
    <glyph glyph-name="integral" unicode="&#x222b;" horiz-adv-x="1135" 
d="M697 1610q69 0 115 -31q48 -30 48 -84q0 -36 -25 -57t-61 -21q-25 0 -46 18.5t-37 44.5q-16 25 -32 25q-64 0 -64 -193l5 -175v-1122q0 -243 -65 -347t-192 -104q-58 0 -101 29q-41 29 -41 77q0 15 6.5 28.5t17.5 23.5t24 16t27 6q42 0 67 -43t40 -43q28 0 43.5 57
t15.5 175q0 14 -0.5 32.5t-1.5 42.5l-2 1197q0 253 66 351q66 97 193 97z" />
    <glyph glyph-name="ordfeminine" unicode="&#xaa;" horiz-adv-x="774" 
d="M383 1452q136 0 201 -47t65 -126v-104v-102v-106q0 -57 5 -72q5 -14 35 -14h16t18 4v-90q-21 -9 -45 -13t-43 -4q-95 0 -105 93q-90 -93 -239 -93q-54 0 -98.5 12.5t-76 36.5t-48.5 58t-17 76q0 88 63 139q62 50 161 61q175 19 216 33q41 15 41 56q0 52 -36.5 76
t-120.5 24t-125 -27.5t-45 -87.5h-123q1 50 22 90t59.5 68.5t94 43.5t125.5 15zM190 965q0 -42 27.5 -63t99.5 -21q100 0 154.5 40t54.5 103v94q-16 -12 -56 -21q-19 -5 -51 -10l-77 -12q-84 -13 -118 -38.5t-34 -71.5z" />
    <glyph glyph-name="ordmasculine" unicode="&#xba;" horiz-adv-x="786" 
d="M393 1452q155 0 248 -93q94 -93 94 -247q0 -157 -91 -245q-92 -89 -249 -89q-156 0 -250 91t-94 243q0 149 92 244q93 96 250 96zM190 1112q0 -105 53 -168t152 -63q100 0 150.5 62.5t50.5 167.5q0 121 -54.5 180t-150.5 59q-45 0 -82 -16t-63.5 -46t-41 -74.5
t-14.5 -101.5z" />
    <glyph glyph-name="uni2126" horiz-adv-x="1554" 
d="M782 1497q300 0 492 -193q192 -194 192 -483q0 -204 -82.5 -366t-253.5 -283v-8h359v-164h-578v147q180 124 270.5 294t90.5 381q0 222 -135 366q-133 145 -355 145q-224 0 -362 -145q-137 -146 -137 -385q0 -206 91 -367.5t277 -288.5v-147h-579v164h350v8
q-169 117 -251.5 272.5t-82.5 356.5q0 299 195 497q196 199 499 199z" />
    <glyph glyph-name="ae" unicode="&#xe6;" horiz-adv-x="1782" 
d="M564 1083q147 0 232 -39t122 -114q45 70 133 111.5t205 41.5q475 0 477 -606h-777q3 -165 88 -256q86 -92 230 -92q105 0 175 53t93 152h178q-39 -174 -160 -267q-121 -92 -298 -92q-146 0 -242 52.5t-141 154.5q-30 -53 -75 -91.5t-102 -64.5t-125 -38.5t-144 -12.5
q-171 0 -265 76t-94 221q0 122 63 197q63 77 190 105q64 15 131.5 28.5t139.5 24.5q113 18 153 46q42 28 42 93q0 80 -55 122t-184 42q-134 0 -197 -50t-68 -151h-174q8 176 124 265t325 89zM1548 631q-4 132 -83 215q-77 84 -212 84q-128 0 -211 -79q-83 -80 -86 -220h592z
M258 285q0 -75 54 -115.5t151 -40.5q149 0 240 74q90 73 90 162v181q-36 -20 -79 -30q-22 -5 -53.5 -11t-73.5 -11q-205 -25 -267 -74q-62 -48 -62 -135z" />
    <glyph glyph-name="oslash" unicode="&#xf8;" horiz-adv-x="1176" 
d="M1051 1096l55 -54l-123 -135q61 -75 90 -171.5t29 -207.5q0 -246 -140 -400q-140 -153 -374 -153q-102 0 -188.5 30t-149.5 87l-123 -137l-57 49l127 141q-60 73 -91.5 169.5t-31.5 213.5q0 252 139 403q140 152 375 152q109 0 193 -29.5t151 -90.5zM258 528
q0 -69 14.5 -129.5t46.5 -117.5l494 551h3q-45 48 -101.5 73t-128.5 25q-139 0 -234 -110q-94 -109 -94 -292zM366 222q45 -48 100.5 -70.5t121.5 -22.5q143 0 236 108q94 107 94 291q0 66 -14 126.5t-44 117.5z" />
    <glyph glyph-name="questiondown" unicode="&#xbf;" 
d="M690 1059v-228h-227v228h227zM668 694v-42q0 -122 -36 -198q-34 -73 -151 -183q-102 -96 -130 -158t-28 -126q0 -123 65.5 -193t182.5 -70q68 0 121 23t89 66.5t55.5 106t19.5 141.5h174v-3q0 -223 -128 -356q-128 -132 -331 -132q-197 0 -315 111q-117 111 -117 299
q0 87 34 167q34 81 157 195q100 91 132 153t32 167v32h174z" />
    <glyph glyph-name="exclamdown" unicode="&#xa1;" horiz-adv-x="530" 
d="M379 1059v-228h-227v228h227zM219 682h92l51 -637v-451h-194v451z" />
    <glyph glyph-name="logicalnot" unicode="&#xac;" horiz-adv-x="1229" 
d="M1130 795v-572h-139v432h-893v140h1032z" />
    <glyph glyph-name="radical" unicode="&#x221a;" horiz-adv-x="1032" 
d="M1053 1610l-432 -2048h-154l-332 684l-96 -45l-57 123l229 106l309 -649l376 1823l2 6h155z" />
    <glyph glyph-name="florin" unicode="&#x192;" 
d="M1008 1462l-29 -153h-123q-101 0 -123 -102l-65 -287h209l-29 -140h-205l-111 -626q-51 -295 -136 -393q-84 -99 -247 -99h-143l29 154h69q22 2 43 4.5t43 6.5q45 7 73 39t38 74l18 86l144 754h-189l27 140h186l50 256q19 103 61 161t106 91.5t149 33.5h155z" />
    <glyph glyph-name="approxequal" unicode="&#x2248;" horiz-adv-x="1229" 
d="M1163 862q-15 -135 -88 -214q-72 -79 -186 -79q-79 0 -176 33l-98.5 35l-100.5 38q-102 40 -168 40q-60 0 -97 -39.5t-48 -114.5h-133q15 134 87 214q72 79 187 79q106 0 286 -72q177 -73 257 -73q121 0 145 153h133zM1163 473q-15 -136 -88 -215q-74 -78 -186 -78
q-108 0 -288 73t-255 73q-60 0 -97 -39.5t-48 -114.5h-133q15 133 87 213q74 80 187 80q108 0 288 -73t255 -73q58 0 95.5 39t49.5 115h133z" />
    <glyph glyph-name="uni2206" unicode="&#x2206;" horiz-adv-x="1327" 
d="M772 1462l565 -1462h-1345l565 1462h215zM662 1288l-408 -1124h807l-395 1124h-4z" />
    <glyph glyph-name="guillemotleft" unicode="&#xab;" horiz-adv-x="948" 
d="M414 905v-176l-205 -160l205 -159v-177l-312 246v180zM815 905v-176l-205 -160l205 -159v-177l-311 246v180z" />
    <glyph glyph-name="guillemotright" unicode="&#xbb;" horiz-adv-x="948" 
d="M133 905l311 -246v-180l-311 -246v177l205 159l-205 160v176zM535 905l311 -246v-180l-311 -246v177l204 159l-204 160v176z" />
    <glyph glyph-name="ellipsis" unicode="&#x2026;" horiz-adv-x="2048" 
d="M455 227v-227h-228v227h228zM1137 227v-227h-228v227h228zM1819 227v-227h-228v227h228z" />
    <glyph glyph-name="Agrave" unicode="&#xc0;" horiz-adv-x="1327" 
d="M588 1888l176 -293h-131l-268 293h223zM772 1462l571 -1462h-215l-159 440h-619l-164 -440h-200l571 1462h215zM659 1286l-247 -682h495l-243 682h-5z" />
    <glyph glyph-name="Atilde" unicode="&#xc3;" horiz-adv-x="1327" 
d="M1020 1858q-16 -93 -66 -161q-49 -67 -141 -67q-48 0 -94 17.5l-102 40.5q-56 22 -93 22t-62.5 -24t-37.5 -62h-107q48 225 217 225q63 0 151 -41t134 -41q32 0 55.5 21t38.5 70h107zM772 1462l571 -1462h-215l-159 440h-619l-164 -440h-200l571 1462h215zM659 1286
l-247 -682h495l-243 682h-5z" />
    <glyph glyph-name="Otilde" unicode="&#xd5;" horiz-adv-x="1556" 
d="M1135 1858q-16 -93 -66 -161q-49 -67 -141 -67q-48 0 -94 17.5l-102 40.5q-56 22 -93 22t-62.5 -24t-37.5 -62h-107q48 225 217 225q63 0 151 -41t134 -41q32 0 55.5 21t38.5 70h107zM778 1497q213 0 371 -99q158 -98 244 -277q86 -180 86 -390q0 -212 -86 -392
q-86 -178 -245 -276q-160 -98 -370 -98t-370 98q-159 98 -244 275q-86 180 -86 393q0 332 190 549t510 217zM272 731q0 -162 59 -304q60 -142 175 -220t272 -78q235 0 370 169q136 169 136 433q0 259 -134 431q-134 171 -374 171q-235 0 -370 -172q-134 -173 -134 -430z" />
    <glyph glyph-name="OE" unicode="&#x152;" horiz-adv-x="2200" 
d="M763 1497q122 0 221 -43q102 -44 140 -113h4v121h977v-164h-782v-464h717v-164h-717v-506h795v-164h-990v141h-4q-54 -84 -158 -131q-101 -45 -219 -45q-304 0 -487 210q-182 211 -182 552q0 346 187 557q187 213 498 213zM272 719q0 -259 131 -425q132 -165 359 -165
q155 0 261 83q105 82 105 201v642q0 90 -45 143q-43 52 -124 93q-80 42 -195 42q-155 0 -267 -81q-111 -79 -169 -223q-56 -144 -56 -310z" />
    <glyph glyph-name="oe" unicode="&#x153;" horiz-adv-x="1825" 
d="M556 1083q146 0 232.5 -45t133.5 -141q56 92 155 138q100 48 219 48q234 0 359 -155q111 -137 116 -386v-32.5t-2 -32.5h-768v-13q0 -146 83 -241q82 -94 223 -94q52 0 98 14.5t83 41t63.5 65t41.5 86.5h166q-52 -181 -164 -271t-289 -90q-295 0 -384 209
q-48 -108 -142 -158.5t-225 -50.5q-225 0 -353 149q-128 151 -128 406q0 256 127 404q128 149 355 149zM258 509q0 -167 79 -273q80 -107 218 -107q144 0 219.5 105.5t75.5 297.5q0 196 -73 297t-223 101q-138 0 -217 -114q-79 -113 -79 -307zM1585 631q0 138 -78 218
q-78 81 -213 81q-126 0 -209 -80t-84 -219h584z" />
    <glyph glyph-name="endash" unicode="&#x2013;" horiz-adv-x="1024" 
d="M1024 651v-164h-1024v164h1024z" />
    <glyph glyph-name="emdash" unicode="&#x2014;" horiz-adv-x="2048" 
d="M1782 651v-164h-1516v164h1516z" />
    <glyph glyph-name="quotedblleft" unicode="&#x201c;" horiz-adv-x="872" 
d="M360 1360q-57 0 -87 -52.5t-31 -146.5h120v-227h-227v217q0 142 59 227q58 84 166 84v-102zM735 1360q-57 0 -87.5 -51t-31.5 -148h121v-227h-227v225q0 134 59 219q58 84 166 84v-102z" />
    <glyph glyph-name="quotedblright" unicode="&#x201d;" horiz-adv-x="872" 
d="M362 1462v-235q0 -128 -59 -211q-58 -82 -166 -82v102q57 0 87.5 51t31.5 148h-121v227h227zM737 1462v-235q0 -124 -58 -209q-57 -84 -167 -84v102q57 0 87.5 51t31.5 148h-121v227h227z" />
    <glyph glyph-name="quoteleft" unicode="&#x2018;" horiz-adv-x="569" 
d="M397 1360q-57 0 -87.5 -51t-30.5 -148h120v-227h-227v213q0 73 15 131.5t44 99.5t70.5 62.5t95.5 21.5v-102z" />
    <glyph glyph-name="quoteright" unicode="&#x2019;" horiz-adv-x="569" 
d="M397 1462v-235q0 -125 -58 -208q-57 -83 -167 -85v102q57 0 87.5 51t31.5 148h-121v227h227z" />
    <glyph glyph-name="divide" unicode="&#xf7;" horiz-adv-x="1229" 
d="M614 1071q53 0 92 -39q39 -38 39 -92q0 -51 -40 -91q-39 -40 -89 -40q-54 0 -94 40q-39 40 -39 91q0 50 38 91q37 40 93 40zM1130 588v-139h-1032v139h1032zM614 227q55 0 93 -38t38 -93q0 -50 -40 -90q-39 -41 -89 -41q-53 0 -93 39t-40 92q0 51 38 91q37 40 93 40z" />
    <glyph glyph-name="lozenge" unicode="&#x25ca;" horiz-adv-x="1214" 
d="M680 1530l352 -801l-352 -801h-148l-350 801l350 801h148zM338 729l268 -645l271 645l-271 645z" />
    <glyph glyph-name="ydieresis" unicode="&#xff;" horiz-adv-x="1024" 
d="M213 1059l309 -866h4l297 866h185l-450 -1172q-70 -181 -137 -247q-64 -64 -181 -64q-32 0 -62 4t-59 14v160l50.5 -16t51.5 -8q106 0 148 106l67 170l-420 1053h197zM422 1446v-213h-184v213h184zM807 1446v-213h-184v213h184z" />
    <glyph glyph-name="Ydieresis" unicode="&#x178;" horiz-adv-x="1327" 
d="M571 1837v-213h-184v213h184zM956 1837v-213h-184v213h184zM236 1462l438 -696l428 696h221l-559 -864v-598h-195v598l-565 864h232z" />
    <glyph glyph-name="fraction" unicode="&#x2044;" horiz-adv-x="342" 
d="M682 1485l-891 -1542h-131l891 1542h131z" />
    <glyph glyph-name="Euro" unicode="&#x20ac;" 
d="M772 1485q94 0 185.5 -32.5t184.5 -95.5l-93 -171q-147 141 -293 141q-142 0 -236 -109q-96 -111 -133 -296h580l-56 -125h-538q-5 -54 0 -107h510l-54 -125h-446q68 -440 389 -440q86 0 152 28t163 119v-215q-140 -90 -315 -90q-249 0 -397 149t-191 449h-157l56 125h93
q-5 53 0 107h-149l53 125h110q53 267 203 414q152 149 379 149z" />
    <glyph glyph-name="guilsinglleft" unicode="&#x2039;" horiz-adv-x="530" 
d="M414 905v-176l-205 -160l205 -159v-177l-312 246v180z" />
    <glyph glyph-name="guilsinglright" unicode="&#x203a;" horiz-adv-x="530" 
d="M117 905l311 -246v-180l-311 -246v177l205 159l-205 160v176z" />
    <glyph glyph-name="fi" unicode="&#xfb01;" horiz-adv-x="1061" 
d="M494 1479q11 0 25.5 -1.5t31.5 -3.5q36 -5 57 -12v-151q-20 7 -49 10.5t-49 3.5q-73 0 -103 -30t-30 -84v-152h205v-154h-205v-905h-174v905h-178v154h178v165q0 117 73.5 186t217.5 69zM922 1462v-213h-174v213h174zM922 1059v-1059h-174v1059h174z" />
    <glyph glyph-name="fl" unicode="&#xfb02;" horiz-adv-x="1061" 
d="M494 1479q11 0 25.5 -1.5t31.5 -3.5q36 -5 57 -12v-151q-20 7 -49 10.5t-49 3.5q-73 0 -103 -30t-30 -84v-152h205v-154h-205v-905h-174v905h-178v154h178v165q0 117 73.5 186t217.5 69zM922 1462v-1462h-174v1462h174z" />
    <glyph glyph-name="daggerdbl" unicode="&#x2021;" 
d="M647 1462v-403h406v-154h-406v-665h406v-154h-406v-403h-164v403h-397v154h397v665h-397v154h397v403h164z" />
    <glyph glyph-name="periodcentered" unicode="&#xb7;" horiz-adv-x="569" 
d="M285 768q56 0 93 -40q38 -41 38 -91t-39 -90q-39 -41 -90 -41q-52 0 -93 38q-40 39 -40 93t39 92q39 39 92 39z" />
    <glyph glyph-name="quotesinglbase" unicode="&#x201a;" horiz-adv-x="569" 
d="M397 227v-235q0 -125 -58 -208q-57 -85 -167 -85v102q58 0 88.5 53t30.5 146h-121v227h227z" />
    <glyph glyph-name="quotedblbase" unicode="&#x201e;" horiz-adv-x="872" 
d="M362 227v-225q0 -137 -59 -220t-166 -83v102q58 0 88.5 53t30.5 146h-121v227h227zM737 227v-225q0 -135 -58 -218q-57 -85 -167 -85v102q58 0 88.5 53t30.5 146h-121v227h227z" />
    <glyph glyph-name="perthousand" unicode="&#x2030;" horiz-adv-x="2351" 
d="M1460 1479l-1100 -1524h-176l1102 1524h174zM451 1452q147 0 223 -89.5t76 -256.5q0 -151 -76 -251q-75 -101 -228 -101q-74 0 -130 23t-93.5 67t-56.5 107.5t-19 144.5q0 171 77.5 263.5t226.5 92.5zM301 1101q0 -123 38 -179t110 -56t109.5 61t37.5 173q0 54 -9 98
t-26.5 75.5t-43.5 48.5t-61 17q-75 0 -115 -65t-40 -173zM1198 674q147 0 223 -89t76 -256q0 -153 -77 -254q-76 -100 -226 -100q-144 0 -221.5 88t-77.5 254q0 168 76.5 262.5t226.5 94.5zM1905 674q147 0 223 -89.5t76 -255.5q0 -152 -76 -253q-77 -101 -227 -101
q-142 0 -220.5 85.5t-78.5 256.5q0 173 76.5 265t226.5 92zM1049 323q0 -121 37.5 -178t109.5 -57t109.5 60.5t37.5 172.5q0 54 -9 98.5t-26.5 76t-44 48.5t-60.5 17q-69 0 -111.5 -60t-42.5 -178zM1755 323q0 -123 38 -179t110 -56q70 0 108.5 61t38.5 173q0 54 -9 98
t-26.5 75.5t-44 48.5t-60.5 17q-73 0 -114 -63.5t-41 -174.5z" />
    <glyph glyph-name="Acircumflex" unicode="&#xc2;" horiz-adv-x="1327" 
d="M762 1888l213 -293h-173l-141 197l-143 -197h-158l211 293h191zM772 1462l571 -1462h-215l-159 440h-619l-164 -440h-200l571 1462h215zM659 1286l-247 -682h495l-243 682h-5z" />
    <glyph glyph-name="Ecircumflex" unicode="&#xca;" horiz-adv-x="1251" 
d="M748 1888l213 -293h-173l-141 197l-143 -197h-158l211 293h191zM1169 1462v-164h-815v-464h760v-164h-760v-506h822v-164h-1016v1462h1009z" />
    <glyph glyph-name="Aacute" unicode="&#xc1;" horiz-adv-x="1327" 
d="M957 1888l-269 -293h-131l177 293h223zM772 1462l571 -1462h-215l-159 440h-619l-164 -440h-200l571 1462h215zM659 1286l-247 -682h495l-243 682h-5z" />
    <glyph glyph-name="Edieresis" unicode="&#xcb;" horiz-adv-x="1251" 
d="M553 1837v-213h-184v213h184zM938 1837v-213h-184v213h184zM1169 1462v-164h-815v-464h760v-164h-760v-506h822v-164h-1016v1462h1009z" />
    <glyph glyph-name="Egrave" unicode="&#xc8;" horiz-adv-x="1251" 
d="M563 1888l176 -293h-131l-268 293h223zM1169 1462v-164h-815v-464h760v-164h-760v-506h822v-164h-1016v1462h1009z" />
    <glyph glyph-name="Iacute" unicode="&#xcd;" horiz-adv-x="530" 
d="M563 1888l-269 -293h-131l177 293h223zM362 1462v-1462h-194v1462h194z" />
    <glyph glyph-name="Icircumflex" unicode="&#xce;" horiz-adv-x="530" 
d="M363 1888l213 -293h-173l-141 197l-143 -197h-158l211 293h191zM362 1462v-1462h-194v1462h194z" />
    <glyph glyph-name="Idieresis" unicode="&#xcf;" horiz-adv-x="530" 
d="M166 1837v-213h-184v213h184zM551 1837v-213h-184v213h184zM362 1462v-1462h-194v1462h194z" />
    <glyph glyph-name="Igrave" unicode="&#xcc;" horiz-adv-x="530" 
d="M186 1888l176 -293h-131l-268 293h223zM362 1462v-1462h-194v1462h194z" />
    <glyph glyph-name="Oacute" unicode="&#xd3;" horiz-adv-x="1556" 
d="M1082 1888l-269 -293h-131l177 293h223zM778 1497q213 0 371 -99q158 -98 244 -277q86 -180 86 -390q0 -212 -86 -392q-86 -178 -245 -276q-160 -98 -370 -98t-370 98q-159 98 -244 275q-86 180 -86 393q0 332 190 549t510 217zM272 731q0 -162 59 -304q60 -142 175 -220
t272 -78q235 0 370 169q136 169 136 433q0 259 -134 431q-134 171 -374 171q-235 0 -370 -172q-134 -173 -134 -430z" />
    <glyph glyph-name="Ocircumflex" unicode="&#xd4;" horiz-adv-x="1556" 
d="M877 1888l213 -293h-173l-141 197l-143 -197h-158l211 293h191zM778 1497q213 0 371 -99q158 -98 244 -277q86 -180 86 -390q0 -212 -86 -392q-86 -178 -245 -276q-160 -98 -370 -98t-370 98q-159 98 -244 275q-86 180 -86 393q0 332 190 549t510 217zM272 731
q0 -162 59 -304q60 -142 175 -220t272 -78q235 0 370 169q136 169 136 433q0 259 -134 431q-134 171 -374 171q-235 0 -370 -172q-134 -173 -134 -430z" />
    <glyph glyph-name="Ograve" unicode="&#xd2;" horiz-adv-x="1556" 
d="M692 1888l176 -293h-131l-268 293h223zM778 1497q213 0 371 -99q158 -98 244 -277q86 -180 86 -390q0 -212 -86 -392q-86 -178 -245 -276q-160 -98 -370 -98t-370 98q-159 98 -244 275q-86 180 -86 393q0 332 190 549t510 217zM272 731q0 -162 59 -304q60 -142 175 -220
t272 -78q235 0 370 169q136 169 136 433q0 259 -134 431q-134 171 -374 171q-235 0 -370 -172q-134 -173 -134 -430z" />
    <glyph glyph-name="Uacute" unicode="&#xda;" horiz-adv-x="1479" 
d="M1045 1888l-269 -293h-131l177 293h223zM346 1462v-942q0 -179 102 -285q103 -106 304 -106q189 0 285 105q96 106 96 286v942h194v-944q0 -258 -145 -406q-144 -147 -430 -147q-150 0 -262.5 37t-187.5 107.5t-112.5 173.5t-37.5 235v944h194z" />
    <glyph glyph-name="Ucircumflex" unicode="&#xdb;" horiz-adv-x="1479" 
d="M840 1888l213 -293h-173l-141 197l-143 -197h-158l211 293h191zM346 1462v-942q0 -179 102 -285q103 -106 304 -106q189 0 285 105q96 106 96 286v942h194v-944q0 -258 -145 -406q-144 -147 -430 -147q-150 0 -262.5 37t-187.5 107.5t-112.5 173.5t-37.5 235v944h194z
" />
    <glyph glyph-name="Ugrave" unicode="&#xd9;" horiz-adv-x="1479" 
d="M655 1888l176 -293h-131l-268 293h223zM346 1462v-942q0 -179 102 -285q103 -106 304 -106q189 0 285 105q96 106 96 286v942h194v-944q0 -258 -145 -406q-144 -147 -430 -147q-150 0 -262.5 37t-187.5 107.5t-112.5 173.5t-37.5 235v944h194z" />
    <glyph glyph-name="dotlessi" unicode="&#x131;" horiz-adv-x="455" 
d="M315 1059v-1059h-174v1059h174z" />
    <glyph glyph-name="circumflex" unicode="&#x2c6;" horiz-adv-x="455" 
d="M322 1499l213 -293h-173l-141 197l-143 -197h-158l211 293h191z" />
    <glyph glyph-name="tilde" unicode="&#x2dc;" horiz-adv-x="455" 
d="M584 1468q-16 -92 -66 -160q-49 -67 -141 -67q-48 0 -94 17.5l-102 40.5q-56 22 -93 22t-62.5 -24t-37.5 -62h-107q48 225 217 225q63 0 151 -41t134 -41q32 0 55.5 21t38.5 69h107z" />
    <glyph glyph-name="macron" unicode="&#xaf;" horiz-adv-x="455" 
d="M578 1397v-113h-699v113h699z" />
    <glyph glyph-name="breve" unicode="&#x2d8;" horiz-adv-x="455" 
d="M10 1493q49 -170 230 -170q37 0 66.5 8.5t54 28.5t44 52.5t37.5 80.5h105q-26 -138 -110 -210.5t-214 -72.5q-137 0 -215.5 69.5t-99.5 213.5h102z" />
    <glyph glyph-name="dotaccent" unicode="&#x2d9;" horiz-adv-x="455" 
d="M319 1450v-213h-184v213h184z" />
    <glyph glyph-name="ring" unicode="&#x2da;" horiz-adv-x="455" 
d="M227 1624q95 0 163 -68q69 -68 69 -161q0 -96 -69 -163q-68 -67 -163 -67q-92 0 -162 67q-69 67 -69 163q0 93 69 161q70 68 162 68zM90 1393q0 -58 38 -99t99 -41t99 41q39 40 39 99q0 57 -39 98q-38 41 -100 41q-57 0 -97 -40q-39 -39 -39 -99z" />
    <glyph glyph-name="cedilla" unicode="&#xb8;" horiz-adv-x="455" 
d="M209 0h86l-86 -109l4 -4q18 10 35.5 12.5t32.5 2.5q73 0 123 -41q49 -42 49 -109q0 -86 -71 -134t-183 -48q-42 0 -88 8.5t-101 30.5l37 90q36 -14 69 -20.5t64 -6.5q54 0 86.5 16.5t32.5 47.5q0 27 -26 45t-71 18q-22 0 -41 -3.5t-42 -12.5l-35 57z" />
    <glyph glyph-name="hungarumlaut" unicode="&#x2dd;" horiz-adv-x="455" 
d="M283 1499l-246 -293h-135l166 293h215zM602 1499l-246 -293h-135l166 293h215z" />
    <glyph glyph-name="ogonek" unicode="&#x2db;" horiz-adv-x="455" 
d="M467 0q-82 -69 -127 -125.5t-45 -116.5q0 -40 22.5 -63t61.5 -23q32 0 63 14t58 48l65 -37q-35 -63 -89 -95t-132 -32q-88 0 -138 40t-50 115q0 72 57.5 140.5t171.5 134.5h82z" />
    <glyph glyph-name="caron" unicode="&#x2c7;" horiz-adv-x="455" 
d="M92 1499l141 -196l144 196h158l-211 -293h-191l-213 293h172z" />
    <glyph glyph-name="Lslash" unicode="&#x141;" 
d="M354 1462v-676l467 328v-156l-467 -327v-467h774v-164h-968v492l-162 -115v155l162 115v815h194z" />
    <glyph glyph-name="Scaron" unicode="&#x160;" horiz-adv-x="1327" 
d="M529 1888l141 -196l144 196h158l-211 -293h-191l-213 293h172zM651 1497q245 0 387 -118q143 -119 152 -345h-184q-34 299 -363 299q-157 0 -242.5 -64t-85.5 -185q0 -86 73 -141t397 -120q117 -24 204.5 -60t145.5 -87t87 -119t29 -156q0 -204 -167 -320t-405 -116
q-266 0 -433 133q-169 134 -170 383h184q2 -167 119 -260q119 -92 307 -92q178 0 274.5 68t96.5 198q0 104 -89 167q-88 63 -323 108q-311 58 -418 152q-106 94 -106 247q0 196 149 312q151 116 381 116z" />
    <glyph glyph-name="Yacute" unicode="&#xdd;" horiz-adv-x="1327" 
d="M973 1888l-269 -293h-131l177 293h223zM236 1462l438 -696l428 696h221l-559 -864v-598h-195v598l-565 864h232z" />
    <glyph glyph-name="Zcaron" unicode="&#x17d;" horiz-adv-x="1251" 
d="M501 1888l141 -196l144 196h158l-211 -293h-191l-213 293h172zM1184 1462v-164l-908 -1134h932v-164h-1163v164l909 1134h-839v164h1069z" />
    <glyph glyph-name="Eth" unicode="&#xd0;" horiz-adv-x="1442" 
d="M673 1462q332 0 511 -176q180 -176 180 -521q0 -386 -177.5 -575.5t-513.5 -189.5h-513v698h-144v131h144v633h513zM793 829v-131h-439v-534h331q219 0 351 143q133 142 133 432q0 145 -30 250.5t-90 174t-149.5 101.5t-207.5 33h-338v-469h439z" />
    <glyph glyph-name="Thorn" unicode="&#xde;" horiz-adv-x="1327" 
d="M354 1462v-233h446q206 0 328 -110q121 -109 121 -324q0 -213 -118 -322q-117 -108 -321 -108h-456v-365h-194v1462h194zM744 528q147 0 229 64.5t82 202.5q0 137 -78.5 203.5t-232.5 66.5h-390v-537h390z" />
    <glyph glyph-name="lslash" unicode="&#x142;" horiz-adv-x="455" 
d="M315 1462v-520l144 115v-146l-144 -114v-797h-174v657l-143 -112v145l143 115v657h174z" />
    <glyph glyph-name="scaron" unicode="&#x161;" horiz-adv-x="1024" 
d="M483 1083q214 0 318 -83t114 -248h-174v2q-3 42 -22 74.5t-51 55t-76 34.5t-96 12q-106 0 -166 -35.5t-60 -99.5q0 -58 53 -95t162 -60l164 -37q154 -34 234 -104.5t80 -189.5q0 -157 -121 -245q-122 -89 -330 -89q-204 0 -322 91q-120 92 -127 268h175
q3 -100 77.5 -152.5t206.5 -52.5q127 0 191.5 40t64.5 118q0 71 -65 112q-63 41 -264 82q-199 39 -282 110q-81 72 -81 191q0 139 113 220q112 81 284 81zM374 1499l141 -196l144 196h158l-211 -293h-191l-213 293h172z" />
    <glyph glyph-name="yacute" unicode="&#xfd;" horiz-adv-x="1024" 
d="M213 1059l309 -866h4l297 866h185l-450 -1172q-70 -181 -137 -247q-64 -64 -181 -64q-32 0 -62 4t-59 14v160l50.5 -16t51.5 -8q106 0 148 106l67 170l-420 1053h197zM819 1499l-269 -293h-131l177 293h223z" />
    <glyph glyph-name="zcaron" unicode="&#x17e;" horiz-adv-x="983" 
d="M909 1059v-119l-647 -786h676v-154h-893v133l639 772h-598v154h823zM359 1499l141 -196l144 196h158l-211 -293h-191l-213 293h172z" />
    <glyph glyph-name="eth" unicode="&#xf0;" horiz-adv-x="1176" 
d="M506 1497l81 -57q23 -16 42 -30.5l35 -27.5l245 115l72 -76l-236 -108q176 -143 266.5 -339.5t90.5 -444.5q0 -247 -140 -401q-140 -153 -374 -153q-233 0 -374 151q-140 152 -140 401q0 218 135 364q135 145 348 145q91 0 161 -27t124 -87h4q-23 48 -52 91.5t-63 85.5
q-68 82 -135 132l-236 -111l-77 82l221 104h3q-36 30 -69.5 53t-75.5 46zM258 528q0 -182 93 -291q93 -108 237 -108q143 0 236 109q94 109 94 289q0 160 -89 258t-253 98q-150 0 -234 -95t-84 -260z" />
    <glyph glyph-name="thorn" unicode="&#xfe;" horiz-adv-x="1214" 
d="M311 1462v-547h4q42 82 128.5 125t209.5 43q226 0 357 -156q131 -157 131 -401q0 -247 -130 -399q-131 -152 -353 -152q-98 0 -194 41q-93 40 -149 125h-4v-547h-174v1868h174zM305 530q0 -183 89 -293q88 -108 245 -108q75 0 134 28t99.5 80.5t62 128.5t21.5 172
q0 172 -88 281q-87 111 -241 111q-153 0 -238 -112q-84 -113 -84 -288z" />
    <glyph glyph-name="brokenbar" unicode="&#xa6;" horiz-adv-x="455" 
d="M297 1354v-512h-139v512h139zM297 330v-512h-139v512h139z" />
    <glyph glyph-name="currency" unicode="&#xa4;" 
d="M985 1239l102 -104l-112 -113q51 -54 78.5 -133t27.5 -170q0 -90 -27.5 -168.5t-78.5 -138.5l112 -115l-96 -96l-114 118q-60 -54 -137 -83t-167 -29q-87 0 -165.5 26t-145.5 84l-112 -118l-99 98l113 119q-54 66 -80.5 143t-26.5 156q0 85 27 164t84 139l-117 119
l101 100l114 -115q60 51 142 78t167 27q81 0 159 -28q82 -29 134 -75zM231 715q0 -148 101 -252q100 -103 241 -103q138 0 236 104q98 106 98 255q0 144 -96 249t-238 105t-242 -103t-100 -255z" />
    <glyph glyph-name="onesuperior" unicode="&#xb9;" horiz-adv-x="758" 
d="M496 1683v-870h-140v623h-235v102q127 0 192.5 39t79.5 106h103z" />
    <glyph glyph-name="twosuperior" unicode="&#xb2;" horiz-adv-x="758" 
d="M397 1698q127 0 207 -72q80 -71 80 -186q0 -92 -48 -164t-211 -156q-104 -54 -150 -99q-46 -46 -56 -95h453v-113h-609q7 137 69 232t217 172q113 56 154 100q42 43 42 119q0 66 -39 107.5t-111 41.5q-82 0 -127.5 -50.5t-48.5 -152.5h-139q0 142 87 229q88 87 230 87z
" />
    <glyph glyph-name="threesuperior" unicode="&#xb3;" horiz-adv-x="758" 
d="M385 1698q126 0 203 -66q78 -66 78 -169q0 -30 -10 -57.5t-29 -51t-45 -42t-58 -30.5v-4q176 -42 176 -207q0 -124 -91 -200t-231 -76q-148 0 -234 77q-85 76 -85 213h136q0 -87 49 -133.5t139 -46.5q85 0 132.5 43.5t47.5 116.5q0 72 -47 112t-134 40h-67v102h22
q73 0 99 9q13 5 24 10.5t21 11.5q19 13 33 38.5t14 65.5q0 61 -39.5 97t-103.5 36q-159 0 -170 -182h-135q4 136 88 215q84 78 217 78z" />
    <glyph glyph-name="onequarter" unicode="&#xbc;" horiz-adv-x="1708" 
d="M1329 1485l-891 -1542h-131l891 1542h131zM469 1452v-879h-139v631h-236v103h6q115 0 181.5 35t85.5 110h102zM1468 866v-544h115v-113h-115v-209h-135v209h-393v139l393 518h135zM1329 692l-276 -370h280v370h-4z" />
    <glyph glyph-name="onehalf" unicode="&#xbd;" horiz-adv-x="1708" 
d="M1288 1485l-891 -1542h-131l891 1542h131zM469 1452v-879h-139v631h-236v103h6q115 0 181.5 35t85.5 110h102zM1325 885q126 0 206 -71q81 -71 81 -187q0 -88 -47 -161t-218 -162q-99 -52 -145.5 -97.5t-54.5 -93.5h452v-113h-608q3 70 21 128t51 106.5t83 88.5t118 74
q69 34 111.5 62t60.5 50q37 43 37 114q0 66 -39 107.5t-111 41.5q-85 0 -129.5 -52t-46.5 -151h-139q1 148 89 232t228 84z" />
    <glyph glyph-name="threequarters" unicode="&#xbe;" horiz-adv-x="1708" 
d="M1434 1485l-891 -1542h-131l891 1542h131zM424 1458q127 0 204 -66t77 -168q0 -57 -36.5 -106.5t-105.5 -75.5v-4q176 -41 176 -207q0 -122 -92 -199t-229 -77q-74 0 -133 19t-100 55.5t-63.5 91t-23.5 125.5h135q3 -91 52 -135.5t137 -44.5q84 0 132 42t48 117
q0 69 -45 110.5t-129 41.5h-74v102h22q69 0 96 8q27 10 45 22q20 13 35 38t15 67q0 60 -40 97t-103 37q-78 0 -121.5 -46t-48.5 -137h-135q4 136 88 215q84 78 217 78zM1468 866v-544h115v-113h-115v-209h-135v209h-393v139l393 518h135zM1329 692l-276 -370h280v370h-4z
" />
    <glyph glyph-name="minus" unicode="&#x2212;" horiz-adv-x="1229" 
d="M1130 588v-139h-1032v139h1032z" />
    <glyph glyph-name="multiply" unicode="&#xd7;" horiz-adv-x="1229" 
d="M245 987l370 -369l369 369l98 -98l-368 -369l370 -373l-98 -98l-371 373l-372 -373l-99 98l373 373l-371 369z" />
    <glyph glyph-name="estimated" unicode="&#x212e;" horiz-adv-x="1556" 
d="M780 1452q299 0 493 -200t200 -539h-1080v-484q81 -81 177 -119t210 -38q86 0 159.5 19.5t136.5 59.5t117.5 100.5t102.5 141.5l95 -57q-124 -193 -265 -278q-140 -83 -345 -83q-199 0 -357 94q-157 94 -246 266q-88 170 -88 378q0 319 193 528q193 211 497 211zM393 811
h778v387q-82 78 -180 119t-215 41q-106 0 -202.5 -38t-180.5 -122v-387z" />
    <glyph glyph-name="liter" unicode="&#x2113;" horiz-adv-x="1024" 
d="M588 1477q96 0 160 -70q65 -70 65 -193q0 -146 -86.5 -307t-263.5 -344v-313q0 -79 40.5 -125.5t112.5 -46.5q43 0 89 18.5t91 58.5h5l49 -71q-122 -113 -266 -113q-116 0 -189 68q-71 69 -71 187v241l-119 -127h-4l-54 76l177 172v538q0 155 74 253q75 98 190 98z
M463 686q110 126 172 264q61 135 61 254q0 39 -8 71t-22.5 55t-34.5 35.5t-44 12.5q-55 0 -90 -65q-34 -64 -34 -164v-463z" />
    <glyph glyph-name="uni25CC" unicode="&#x25cc;" horiz-adv-x="1866" 
d="M991 1374q0 -25 -16 -41t-41 -16q-23 0 -40 16t-17 41q0 23 17 40.5t40 17.5q25 0 41 -17.5t16 -40.5zM1251 1319q0 -23 -16 -40t-41 -17q-23 0 -40 17t-17 40q0 25 17 41t40 16q25 0 41 -16t16 -41zM1466 1174q0 -23 -16 -40.5t-41 -17.5t-41 17.5t-16 40.5
q0 24 16 41.5t41 17.5t41 -17.5t16 -41.5zM1610 956q0 -23 -16.5 -40t-41.5 -17q-23 0 -40 17t-17 40q0 25 17 41.5t40 16.5q25 0 41.5 -16.5t16.5 -41.5zM1661 705q0 -25 -16.5 -41.5t-40.5 -16.5q-23 0 -40.5 16.5t-17.5 41.5q0 23 17.5 40t40.5 17q24 0 40.5 -17
t16.5 -40zM1610 444q0 -24 -16.5 -40.5t-41.5 -16.5q-23 0 -40 16.5t-17 40.5q0 23 17 40.5t40 17.5q25 0 41.5 -17.5t16.5 -40.5zM1466 229q0 -23 -16 -40t-41 -17t-41 17t-16 40t16 40.5t41 17.5t41 -17.5t16 -40.5zM1245 82q0 -23 -16 -40t-41 -17q-23 0 -40.5 17
t-17.5 40q0 25 17.5 41t40.5 16q25 0 41 -16t16 -41zM991 35q0 -25 -16 -42.5t-41 -17.5q-23 0 -40 17.5t-17 42.5q0 23 17 40t40 17q25 0 41 -17t16 -40zM733 86q0 -25 -17 -41t-40 -16q-25 0 -41.5 16t-16.5 41q0 23 16.5 40t41.5 17q23 0 40 -17t17 -40zM518 229
q0 -23 -16 -40t-41 -17t-41.5 17t-16.5 40t16.5 40.5t41.5 17.5t41 -17.5t16 -40.5zM371 451q0 -25 -17.5 -41.5t-40.5 -16.5q-24 0 -40.5 16.5t-16.5 41.5q0 23 16.5 40t40.5 17q23 0 40.5 -17t17.5 -40zM319 705q0 -25 -16 -41.5t-41 -16.5t-41 16.5t-16 41.5q0 23 16 40
t41 17t41 -17t16 -40zM373 965q0 -25 -16.5 -41.5t-41.5 -16.5q-23 0 -40 16.5t-17 41.5q0 21 17 39t40 18q25 0 41.5 -18t16.5 -39zM518 1174q0 -23 -16 -40.5t-41 -17.5t-41.5 17.5t-16.5 40.5q0 24 16.5 41.5t41.5 17.5t41 -17.5t16 -41.5zM739 1323q0 -25 -17 -41
t-40 -16q-25 0 -41 16t-16 41q0 23 16 40t41 17q23 0 40 -17t17 -40z" />
    <glyph glyph-name="uni200C" unicode="&#x200c;" horiz-adv-x="68" 
d="M68 4h-68v2701h68v-2701z" />
    <glyph glyph-name="uni200D" unicode="&#x200d;" horiz-adv-x="68" 
d="M160 2513l-92 94v-2607h-68v2613l-100 -100l-35 37l129 129l-129 131l35 35l131 -129l129 129l37 -35l-129 -129v-2l129 -129z" />
    <glyph glyph-name="uni200E" unicode="&#x200e;" horiz-adv-x="66" 
d="M223 2513v125h-157v-2634h-66v2701h223v140l166 -166z" />
    <glyph glyph-name="uni200F" unicode="&#x200f;" horiz-adv-x="68" 
d="M68 2705v-2701h-68v2634h-158v-125l-166 166l166 166v-140h226z" />
    <glyph glyph-name="uni202A" unicode="&#x202a;" horiz-adv-x="1024" 
 />
    <glyph glyph-name="uni202B" unicode="&#x202b;" horiz-adv-x="1024" 
 />
    <glyph glyph-name="uni202C" unicode="&#x202c;" horiz-adv-x="1024" 
 />
    <glyph glyph-name="uni202D" unicode="&#x202d;" horiz-adv-x="1024" 
 />
    <glyph glyph-name="uni202E" unicode="&#x202e;" horiz-adv-x="1024" 
 />
    <glyph glyph-name="uni2002" unicode="&#x2002;" horiz-adv-x="1024" 
 />
    <glyph glyph-name="uni2003" unicode="&#x2003;" horiz-adv-x="2048" 
 />
    <glyph glyph-name="uni2009" unicode="&#x2009;" horiz-adv-x="205" 
 />
    <glyph glyph-name="uni200A" unicode="&#x200a;" horiz-adv-x="41" 
 />
    <glyph glyph-name="uni0647" unicode="&#x647;" horiz-adv-x="954" 
d="M440 651q-51 0 -94.5 -22t-75 -59.5t-49 -87.5t-17.5 -107q0 -56 19 -97t51 -67.5t74.5 -39.5t89.5 -13q45 0 86.5 12.5t73.5 39.5t51 68t19 98q0 63 -18.5 114t-50 87t-73 55t-86.5 19zM30 358q0 101 30 185.5t84 145t129.5 94.5t166.5 34t165.5 -33.5t127.5 -91.5
t82 -136.5t29 -169.5q0 -103 -30.5 -178t-84.5 -123.5t-128 -71.5t-161 -23q-90 0 -165 23t-129.5 69t-85 115t-30.5 161z" />
    <glyph glyph-name="uni06BE" unicode="&#x6be;" horiz-adv-x="1365" 
d="M327 170q-20 28 -38.5 81.5t-18.5 131.5q0 49 10 97t31 90.5t53 76.5t76 55q-12 1 -28.5 2.5t-35 2.5t-37 1.5t-34.5 0.5v153q251 0 430.5 -34t295 -116.5t170 -219.5t54.5 -342v-150h-985q-40 0 -61.5 -9t-31.5 -26t-12 -40.5t-3 -51.5h-117q-3 16 -5.5 36.5l-5 41.5
t-3.5 40t-1 32q0 48 16 76.5t41.5 44.5t56.5 21t60 5h123zM577 170q44 0 72 21.5t44.5 54t23 71.5t6.5 74q0 44 -8.5 84.5t-26.5 72t-47 50t-70 18.5q-34 0 -62 -17t-47.5 -47t-30.5 -71.5t-11 -89.5q0 -41 7 -80t24.5 -69.5t45.5 -50.5t70 -21h10zM1081 170q0 110 -18 191
t-57 140.5t-100 100.5t-146 71q34 -27 57.5 -62.5t37 -73.5t19.5 -76t6 -70q0 -77 -14 -132t-33 -89h248z" />
    <glyph glyph-name="uniFBA5" horiz-adv-x="969" 
d="M204 535q0 -42 12 -77.5t38 -61t67 -40t100 -14.5q22 0 48 2.5t51.5 7.5t49.5 11.5t44 15.5v364h-182q-50 0 -91.5 -12t-72 -37.5t-47.5 -65t-17 -93.5zM407 168q-37 0 -79 5.5t-84 20.5t-80.5 40t-68.5 64.5t-47.5 94t-17.5 127.5q0 110 36.5 185.5t96.5 122t136 67
t155 20.5h332v-587q0 -43 5.5 -73t21 -49t44 -27.5t74.5 -8.5h38q42 0 62 -19.5t20 -62.5q0 -51 -19 -69.5t-63 -18.5h-64q-53 0 -101 9t-86.5 32.5t-65 63t-34.5 100.5q-45 -16 -101 -26.5t-110 -10.5zM624 1093h-375v93h92q-14 23 -21.5 48t-7.5 56q0 45 15 79t39.5 57
t56 34.5t64.5 11.5q34 0 59.5 -4.5t38.5 -13.5v-94q-41 18 -88 18q-25 0 -42.5 -8t-29 -20.5t-17 -29t-5.5 -34.5q0 -42 26 -71t80 -29h115v-93z" />
    <glyph glyph-name="uni06C2" unicode="&#x6c2;" horiz-adv-x="954" 
d="M440 651q-51 0 -94.5 -22t-75 -59.5t-49 -87.5t-17.5 -107q0 -56 19 -97t51 -67.5t74.5 -39.5t89.5 -13q45 0 86.5 12.5t73.5 39.5t51 68t19 98q0 63 -18.5 114t-50 87t-73 55t-86.5 19zM30 358q0 101 30 185.5t84 145t129.5 94.5t166.5 34t165.5 -33.5t127.5 -91.5
t82 -136.5t29 -169.5q0 -103 -30.5 -178t-84.5 -123.5t-128 -71.5t-161 -23q-90 0 -165 23t-129.5 69t-85 115t-30.5 161zM613 1021h-375v93h92q-14 23 -21.5 48t-7.5 56q0 45 15 79t39.5 57t56 34.5t64.5 11.5q34 0 59.5 -4.5t38.5 -13.5v-94q-41 18 -88 18q-25 0 -42.5 -8
t-29 -20.5t-17 -29t-5.5 -34.5q0 -42 26 -71t80 -29h115v-93z" />
    <glyph glyph-name="uni06C3" unicode="&#x6c3;" horiz-adv-x="954" 
d="M440 651q-51 0 -94.5 -22t-75 -59.5t-49 -87.5t-17.5 -107q0 -56 19 -97t51 -67.5t74.5 -39.5t89.5 -13q45 0 86.5 12.5t73.5 39.5t51 68t19 98q0 63 -18.5 114t-50 87t-73 55t-86.5 19zM30 358q0 101 30 185.5t84 145t129.5 94.5t166.5 34t165.5 -33.5t127.5 -91.5
t82 -136.5t29 -169.5q0 -103 -30.5 -178t-84.5 -123.5t-128 -71.5t-161 -23q-90 0 -165 23t-129.5 69t-85 115t-30.5 161zM181 1133q0 22 8.5 41.5t23.5 34.5t34.5 23.5t42.5 8.5q22 0 41.5 -8.5t34.5 -23.5t23.5 -34.5t8.5 -41.5q0 -23 -8.5 -42.5t-23.5 -34.5t-34.5 -23.5
t-41.5 -8.5q-23 0 -42.5 8.5t-34.5 23.5t-23.5 34.5t-8.5 42.5zM447 1133q0 22 8.5 41.5t23.5 34.5t34.5 23.5t42.5 8.5q22 0 41.5 -8.5t34.5 -23.5t23.5 -34.5t8.5 -41.5q0 -23 -8.5 -42.5t-23.5 -34.5t-34.5 -23.5t-41.5 -8.5q-23 0 -42.5 8.5t-34.5 23.5t-23.5 34.5
t-8.5 42.5z" />
    <glyph glyph-name="uni06D5" unicode="&#x6d5;" horiz-adv-x="954" 
d="M440 651q-51 0 -94.5 -22t-75 -59.5t-49 -87.5t-17.5 -107q0 -56 19 -97t51 -67.5t74.5 -39.5t89.5 -13q45 0 86.5 12.5t73.5 39.5t51 68t19 98q0 63 -18.5 114t-50 87t-73 55t-86.5 19zM30 358q0 101 30 185.5t84 145t129.5 94.5t166.5 34t165.5 -33.5t127.5 -91.5
t82 -136.5t29 -169.5q0 -103 -30.5 -178t-84.5 -123.5t-128 -71.5t-161 -23q-90 0 -165 23t-129.5 69t-85 115t-30.5 161z" />
    <glyph glyph-name="uni0640" unicode="&#x640;" horiz-adv-x="303" 
d="M0 0q-42 0 -62 19.5t-20 62.5q0 51 19.5 69.5t62.5 18.5h303q42 0 62 -19.5t20 -62.5q0 -51 -19.5 -69.5t-62.5 -18.5h-303z" />
    <glyph glyph-name="uni0640.narrow" horiz-adv-x="236" 
d="M0 0q-42 0 -62 19.5t-20 62.5q0 51 19.5 69.5t62.5 18.5h238q42 0 61.5 -19.5t19.5 -62.5q0 -51 -19 -69.5t-62 -18.5h-238z" />
    <glyph glyph-name="uni0640.long" horiz-adv-x="401" 
d="M0 0q-42 0 -62 19.5t-20 62.5q0 51 19.5 69.5t62.5 18.5h403q42 0 62 -19.5t20 -62.5q0 -51 -19 -69.5t-63 -18.5h-403z" />
    <glyph glyph-name="uni064B" unicode="&#x64b;" horiz-adv-x="0" 
d="M246 1083l-492 -69v92l492 69v-92zM246 926l-492 -70v92l492 70v-92z" />
    <glyph glyph-name="uni064C" unicode="&#x64c;" horiz-adv-x="0" 
d="M88 1122q25 0 41.5 5t26.5 10v16q0 53 -22 80.5t-54 27.5q-18 0 -32 -7t-23.5 -18t-14 -24t-4.5 -26q0 -20 8.5 -32t21.5 -19.5t27 -10t25 -2.5zM145 1059q-17 -10 -34.5 -13.5t-40.5 -3.5q-32 0 -59 10t-46.5 28.5t-30 44t-10.5 57.5q0 34 12 63.5t33 51.5t49.5 34
t61.5 12t62 -11t50 -34t33.5 -59t12.5 -86q0 -75 -19 -126t-52 -82t-77 -44.5t-94 -13.5q-42 0 -76.5 10.5t-61.5 28t-48 41t-37 49.5l-125 -70l-41 78l194 110q18 -37 37.5 -67t43.5 -51.5t53 -33t67 -11.5q62 0 98 27t45 61z" />
    <glyph glyph-name="uni064D" unicode="&#x64d;" horiz-adv-x="0" 
d="M246 -167l-492 -70v92l492 70v-92zM246 -325l-492 -70v92l492 70v-92z" />
    <glyph glyph-name="uni064E" unicode="&#x64e;" horiz-adv-x="0" 
d="M246 926l-492 -70v92l492 70v-92z" />
    <glyph glyph-name="uni064F" unicode="&#x64f;" horiz-adv-x="0" 
d="M16 1111q25 0 42 5t26 10v16q0 53 -22 80.5t-54 27.5q-18 0 -32 -7t-23.5 -18t-14 -24t-4.5 -26q0 -20 9 -32t21.5 -19.5t26.5 -10t25 -2.5zM74 1048q-17 -10 -35 -13.5t-41 -3.5q-32 0 -59 10t-46 28.5t-29.5 44t-10.5 57.5q0 34 12 63.5t32.5 51.5t49 34t61.5 12
t62 -11t50 -34t33.5 -59t12.5 -86q0 -75 -19.5 -126t-54 -81.5t-81.5 -43.5t-103 -13q-26 0 -51.5 2.5t-42.5 7.5v82q10 -2 23.5 -4t27 -3.5t25 -2t18.5 -0.5q39 0 68 7.5t49 19.5t32 28t17 33z" />
    <glyph glyph-name="uni0650" unicode="&#x650;" horiz-adv-x="0" 
d="M246 -204l-492 -70v92l492 70v-92z" />
    <glyph glyph-name="uni0651" unicode="&#x651;" horiz-adv-x="0" 
d="M0 949q-12 -20 -28.5 -32t-33.5 -19t-32.5 -9t-26.5 -2q-145 0 -145 166v139h94v-127q0 -45 14 -65.5t46 -20.5q11 0 22.5 3t20.5 12t14.5 25.5t5.5 43.5v93h94v-91q0 -26 6 -42t15 -24.5t20 -11.5t21 -3q37 0 47 19t10 56v133h94v-139q0 -86 -34 -126t-105 -40
q-31 0 -62.5 13.5t-56.5 48.5z" />
    <glyph glyph-name="uni0652" unicode="&#x652;" horiz-adv-x="0" 
d="M-164 1048q0 34 12.5 64t34.5 52t51.5 35t63.5 13t63.5 -13t52 -35t35.5 -52t13 -64t-13 -63.5t-35.5 -51t-52 -34t-63.5 -12.5t-63.5 12.5t-51.5 34t-34.5 51t-12.5 63.5zM-90 1051q0 -38 26.5 -64.5t63.5 -26.5t63.5 26.5t26.5 64.5q0 37 -26.5 63.5t-63.5 26.5
t-63.5 -26.5t-26.5 -63.5z" />
    <glyph glyph-name="uni0653" unicode="&#x653;" horiz-adv-x="0" 
d="M-339 1030q48 29 94.5 41.5t82.5 12.5q51 0 96 -16.5t89.5 -36t90.5 -36t99 -16.5q28 0 63 6.5t83 28.5l23 -91q-47 -26 -89 -37.5t-95 -11.5q-60 0 -111.5 16.5t-97 36.5l-86.5 36.5t-81 16.5q-34 0 -69 -9.5t-69 -29.5z" />
    <glyph glyph-name="uni0654" unicode="&#x654;" horiz-adv-x="0" 
d="M160 887h-375v93h92q-14 23 -21.5 48t-7.5 56q0 45 15 79t39.5 57t56 34.5t64.5 11.5q34 0 59.5 -4.5t38.5 -13.5v-94q-41 18 -88 18q-25 0 -42.5 -8t-29 -20.5t-17 -29t-5.5 -34.5q0 -42 26 -71t80 -29h115v-93z" />
    <glyph glyph-name="uni0655" unicode="&#x655;" horiz-adv-x="0" 
d="M160 -500h-375v94h92q-14 23 -21.5 48.5t-7.5 54.5q0 45 15 79.5t39.5 57.5t56 35t64.5 12q34 0 59.5 -4.5t38.5 -13.5v-97q-39 19 -88 19q-25 0 -42.5 -8t-29 -20.5t-17 -29t-5.5 -34.5q0 -41 26 -70t80 -29h115v-94z" />
    <glyph glyph-name="uni0670" unicode="&#x670;" horiz-adv-x="0" 
d="M-45 1227h96v-340h-96v340z" />
    <glyph glyph-name="uni0656" unicode="&#x656;" horiz-adv-x="0" 
d="M-45 -78h96v-303h-96v303z" />
    <glyph glyph-name="uni0658" unicode="&#x658;" horiz-adv-x="0" 
d="M199 1243v-152q0 -101 -54 -152.5t-143 -51.5q-91 0 -146 52t-55 152v152h88v-156q0 -57 31 -87.5t82 -30.5q50 0 79.5 30.5t29.5 87.5v156h88z" />
    <glyph glyph-name="uni0615" horiz-adv-x="0" 
d="M412 1038v39q0 22 -4.5 41.5t-15.5 34.5t-29 24t-46 9t-55 -12t-50.5 -32t-41.5 -47t-29 -57h271zM137 1165q40 54 87 81.5t106 27.5q75 0 118.5 -48t43.5 -134v-140h-533v86h96v424h82v-297z" />
    <glyph glyph-name="uni064C0651" horiz-adv-x="0" 
d="M0 949q-12 -20 -28.5 -32t-33.5 -19t-32.5 -9t-26.5 -2q-145 0 -145 166v139h94v-127q0 -45 14 -65.5t46 -20.5q11 0 22.5 3t20.5 12t14.5 25.5t5.5 43.5v93h94v-91q0 -26 6 -42t15 -24.5t20 -11.5t21 -3q37 0 47 19t10 56v133h94v-139q0 -86 -34 -126t-105 -40
q-31 0 -62.5 13.5t-56.5 48.5zM139 1523q25 0 41.5 5t26.5 10v16q0 53 -22 80.5t-54 27.5q-18 0 -32 -7t-23.5 -18t-14 -24t-4.5 -26q0 -20 8.5 -32t21.5 -19.5t27 -10t25 -2.5zM196 1460q-17 -10 -34.5 -13.5t-40.5 -3.5q-32 0 -59 10t-46.5 28.5t-30 44t-10.5 57.5
q0 34 12 63.5t33 51.5t49.5 34t61.5 12t62 -11t50 -34t33.5 -59t12.5 -86q0 -75 -19 -126t-52 -82t-77 -44.5t-94 -13.5q-42 0 -76.5 10.5t-61.5 28t-48 41t-37 49.5l-125 -70l-41 78l194 110q18 -37 37.5 -67t43.5 -51.5t53 -33t67 -11.5q62 0 98 27t45 61z" />
    <glyph glyph-name="uni064D0651" horiz-adv-x="0" 
d="M0 1324q-12 -20 -28.5 -32t-33.5 -19t-32.5 -9t-26.5 -2q-145 0 -145 166v139h94v-127q0 -45 14 -65.5t46 -20.5q11 0 22.5 3t20.5 12t14.5 25.5t5.5 43.5v93h94v-91q0 -26 6 -42t15 -24.5t20 -11.5t21 -3q37 0 47 19t10 56v133h94v-139q0 -86 -34 -126t-105 -40
q-31 0 -62.5 13.5t-56.5 48.5zM246 1832l-492 -70v92l492 70v-92zM246 1643l-492 -70v92l492 70v-92z" />
    <glyph glyph-name="uni064B0651" horiz-adv-x="0" 
d="M0 949q-12 -20 -28.5 -32t-33.5 -19t-32.5 -9t-26.5 -2q-145 0 -145 166v139h94v-127q0 -45 14 -65.5t46 -20.5q11 0 22.5 3t20.5 12t14.5 25.5t5.5 43.5v93h94v-91q0 -26 6 -42t15 -24.5t20 -11.5t21 -3q37 0 47 19t10 56v133h94v-139q0 -86 -34 -126t-105 -40
q-31 0 -62.5 13.5t-56.5 48.5zM246 1493l-492 -69v92l492 69v-92zM246 1336l-492 -70v92l492 70v-92z" />
    <glyph glyph-name="uni064E0651" horiz-adv-x="0" 
d="M0 949q-12 -20 -28.5 -32t-33.5 -19t-32.5 -9t-26.5 -2q-145 0 -145 166v139h94v-127q0 -45 14 -65.5t46 -20.5q11 0 22.5 3t20.5 12t14.5 25.5t5.5 43.5v93h94v-91q0 -26 6 -42t15 -24.5t20 -11.5t21 -3q37 0 47 19t10 56v133h94v-139q0 -86 -34 -126t-105 -40
q-31 0 -62.5 13.5t-56.5 48.5zM239 1336l-492 -70v92l492 70v-92z" />
    <glyph glyph-name="uni064F0651" horiz-adv-x="0" 
d="M0 949q-12 -20 -28.5 -32t-33.5 -19t-32.5 -9t-26.5 -2q-145 0 -145 166v139h94v-127q0 -45 14 -65.5t46 -20.5q11 0 22.5 3t20.5 12t14.5 25.5t5.5 43.5v93h94v-91q0 -26 6 -42t15 -24.5t20 -11.5t21 -3q37 0 47 19t10 56v133h94v-139q0 -86 -34 -126t-105 -40
q-31 0 -62.5 13.5t-56.5 48.5zM24 1500q25 0 42 5t26 10v16q0 53 -22 80.5t-54 27.5q-18 0 -32 -7t-23.5 -18t-14 -24t-4.5 -26q0 -20 9 -32t21.5 -19.5t26.5 -10t25 -2.5zM82 1437q-17 -10 -35 -13.5t-41 -3.5q-32 0 -59 10t-46 28.5t-29.5 44t-10.5 57.5q0 34 12 63.5
t32.5 51.5t49 34t61.5 12t62 -11t50 -34t33.5 -59t12.5 -86q0 -75 -19.5 -126t-54 -81.5t-81.5 -43.5t-103 -13q-26 0 -51.5 2.5t-42.5 7.5v82q10 -2 23.5 -4t27 -3.5t25 -2t18.5 -0.5q39 0 68 7.5t49 19.5t32 28t17 33z" />
    <glyph glyph-name="uni06500651" horiz-adv-x="0" 
d="M0 1195q-12 -20 -28.5 -32t-33.5 -19t-32.5 -9t-26.5 -2q-145 0 -145 166v139h94v-127q0 -45 14 -65.5t46 -20.5q11 0 22.5 3t20.5 12t14.5 25.5t5.5 43.5v93h94v-91q0 -26 6 -42t15 -24.5t20 -11.5t21 -3q37 0 47 19t10 56v133h94v-139q0 -86 -34 -126t-105 -40
q-31 0 -62.5 13.5t-56.5 48.5zM246 926l-492 -70v92l492 70v-92z" />
    <glyph glyph-name="uni06510670" horiz-adv-x="0" 
d="M0 949q-12 -20 -28.5 -32t-33.5 -19t-32.5 -9t-26.5 -2q-145 0 -145 166v139h94v-127q0 -45 14 -65.5t46 -20.5q11 0 22.5 3t20.5 12t14.5 25.5t5.5 43.5v93h94v-91q0 -26 6 -42t15 -24.5t20 -11.5t21 -3q37 0 47 19t10 56v133h94v-139q0 -86 -34 -126t-105 -40
q-31 0 -62.5 13.5t-56.5 48.5zM-45 1673h96v-340h-96v340z" />
    </font>
</defs>
</svg>
