<?xml version="1.0" standalone="no"?>
<!DOCTYPE svg PUBLIC "-//W3C//DTD SVG 1.1//EN" "http://www.w3.org/Graphics/SVG/1.1/DTD/svg11.dtd" >
<svg>
<metadata>
Created by FontForge 20090622 at Mon Nov 28 10:54:07 2016
 By deploy user
Copyright 2010 Google Inc. All Rights Reserved.
</metadata>
<defs>
<font id="NotoKufiArabic" horiz-adv-x="0" >
  <font-face 
    font-family="Noto Kufi Arabic"
    font-weight="400"
    font-stretch="normal"
    units-per-em="2048"
    panose-1="2 11 5 6 3 8 4 2 2 4"
    ascent="1638"
    descent="-410"
    bbox="-479 -1123 3111 2605"
    underline-thickness="102"
    underline-position="-103"
    unicode-range="U+000D-U+FEFF"
  />
<missing-glyph horiz-adv-x="1229" 
d="M102 -362v1806h1024v-1806h-1024zM217 -248h795v1577h-795v-1577z" />
    <glyph glyph-name="uni06440627.isol" unicode="&#xfedf;&#xfe8e;" horiz-adv-x="1380" arabic-form="isolated" 
d="M92 160h459l-264 1120h190l264 -1120h56q217 0 217 237v1159h182v-1183q0 -170 -103 -271.5t-276 -101.5h-725v160z" />
    <glyph glyph-name="uni06440627.fina" unicode="&#xfee0;&#xfe8e;" horiz-adv-x="1452" arabic-form="final" 
d="M92 160h459l-264 1120h190l264 -1120h273v1396h182v-1396h266q11 0 11 -8v-142q0 -10 -11 -10h-1370v160z" />
    <glyph glyph-name="uni06440623.isol" unicode="&#xfedf;&#xfe84;" horiz-adv-x="1380" arabic-form="isolated" 
d="M92 160h459l-264 1120h190l264 -1120h56q217 0 217 237v1159h182v-1183q0 -170 -103 -271.5t-276 -101.5h-725v160zM141 1547l97 14q-72 47 -72 130q0 88 57.5 136t151.5 48q80 0 135 -31l-31 -92q-41 25 -102 25q-45 0 -76 -25.5t-31 -79.5q0 -35 18 -59.5t44 -36.5
q20 5 98 15.5t107 10.5v-100q-16 0 -72.5 -5.5t-208.5 -25.5l-115 -18v94z" />
    <glyph glyph-name="uni06440623.fina" unicode="&#xfee0;&#xfe84;" horiz-adv-x="1452" arabic-form="final" 
d="M92 160h459l-264 1120h190l264 -1120h273v1396h182v-1396h266q11 0 11 -8v-142q0 -10 -11 -10h-1370v160zM141 1547l97 14q-72 47 -72 130q0 88 57.5 136t151.5 48q80 0 135 -31l-31 -92q-41 25 -102 25q-45 0 -76 -25.5t-31 -79.5q0 -35 18 -59.5t44 -36.5q20 5 98 15.5
t107 10.5v-100q-16 0 -72.5 -5.5t-208.5 -25.5l-115 -18v94z" />
    <glyph glyph-name="uni06440625.isol" unicode="&#xfedf;&#xfe88;" horiz-adv-x="1380" arabic-form="isolated" 
d="M92 160h459l-264 1120h190l264 -1120h56q217 0 217 237v1159h182v-1183q0 -170 -103 -271.5t-276 -101.5h-725v160zM473 -527l97 14q-29 18 -50.5 51t-21.5 78q0 86 55.5 135t153.5 49q80 0 135 -31l-31 -92q-41 25 -102 25q-45 0 -76 -25.5t-31 -79.5q0 -65 62 -96
q20 5 102 16t103 11v-101q-46 0 -194.5 -19t-201.5 -30v95z" />
    <glyph glyph-name="uni06440625.fina" unicode="&#xfee0;&#xfe88;" horiz-adv-x="1452" arabic-form="final" 
d="M92 160h459l-264 1120h190l264 -1120h273v1396h182v-1396h266q11 0 11 -8v-142q0 -10 -11 -10h-1370v160zM473 -527l97 14q-29 18 -50.5 51t-21.5 78q0 86 55.5 135t153.5 49q80 0 135 -31l-31 -92q-41 25 -102 25q-45 0 -76 -25.5t-31 -79.5q0 -65 62 -96q20 5 102 16
t103 11v-101q-46 0 -194.5 -19t-201.5 -30v95z" />
    <glyph glyph-name="uni06440622.isol" unicode="&#xfedf;&#xfe82;" horiz-adv-x="1380" arabic-form="isolated" 
d="M92 160h459l-264 1120h190l264 -1120h56q217 0 217 237v1159h182v-1183q0 -170 -103 -271.5t-276 -101.5h-725v160zM45 1434q11 98 57 154.5t131 56.5q37 0 74 -14t71.5 -31t66 -31t57.5 -14q41 0 61.5 21.5t34.5 70.5h92q-11 -97 -57 -153.5t-131 -56.5q-37 0 -73 14
t-70 31t-66 31t-60 14q-42 0 -62 -21.5t-34 -71.5h-92z" />
    <glyph glyph-name="uni06440622.fina" unicode="&#xfee0;&#xfe82;" horiz-adv-x="1452" arabic-form="final" 
d="M92 160h459l-264 1120h190l264 -1120h273v1396h182v-1396h266q11 0 11 -8v-142q0 -10 -11 -10h-1370v160zM45 1434q11 98 57 154.5t131 56.5q37 0 74 -14t71.5 -31t66 -31t57.5 -14q41 0 61.5 21.5t34.5 70.5h92q-11 -97 -57 -153.5t-131 -56.5q-37 0 -73 14t-70 31
t-66 31t-60 14q-42 0 -62 -21.5t-34 -71.5h-92z" />
    <glyph glyph-name="uni06440671.isol" unicode="&#xfedf;&#xfb51;" horiz-adv-x="1380" 
d="M92 160h459l-264 1120h190l264 -1120h56q217 0 217 237v1159h182v-1183q0 -170 -103 -271.5t-276 -101.5h-725v160zM90 1527h94q72 209 229 209q85 0 130.5 -55t45.5 -154v-94h-499v94zM485 1527q0 60 -17.5 86.5t-54.5 26.5q-36 0 -68.5 -32t-47.5 -81h188z" />
    <glyph glyph-name="uni06440671.fina" unicode="&#xfee0;&#xfb51;" horiz-adv-x="1452" 
d="M92 160h459l-264 1120h190l264 -1120h273v1396h182v-1396h266q11 0 11 -8v-142q0 -10 -11 -10h-1370v160zM90 1527h94q72 209 229 209q85 0 130.5 -55t45.5 -154v-94h-499v94zM485 1527q0 60 -17.5 86.5t-54.5 26.5q-36 0 -68.5 -32t-47.5 -81h188z" />
    <glyph glyph-name="allah" unicode="&#x627;&#xfedf;&#xfee0;&#xfeea;" horiz-adv-x="3213" arabic-form="isolated" 
d="M653 0q-246 0 -383 124.5t-137 348.5q0 242 152 381t409 139h135v129h175v-962h483v1089h182v-1089h516v1089h182v-1249h-1714zM829 160v674h-129q-184 0 -284.5 -94.5t-100.5 -264.5q0 -153 87 -234t247 -81h180zM2826 1556h183v-1556h-183v1556zM1393 1339
q-80 0 -124 51t-44 148v129h106v-111q0 -55 16.5 -83.5t65.5 -28.5q90 0 90 94v180h96v-139q0 -54 19 -74t59 -20q56 0 75.5 26t19.5 86v152h106v-170q0 -96 -45 -147.5t-131 -51.5q-94 0 -143 62q-49 -103 -166 -103zM1493 2161h117v-338h-117v338z" />
    <glyph glyph-name="riyal" unicode="&#x631;&#xfef3;&#xfe8e;&#x644;" horiz-adv-x="3285" arabic-form="isolated" 
d="M545 -492q-190 0 -301 140t-111 385q0 126 22 255.5t62 227.5h170q-70 -177 -70 -483q0 -175 70 -270t197 -95h100q178 0 261 81t83 245v1562h174v-1548q0 -248 -123 -374t-387 -126h-147zM1565 1556h182v-1396h532v833h183v-993h-897v1556zM2746 -492q-96 0 -209 58
l54 137q76 -35 151 -35q91 0 144 74t53 199v1052h172v-1042q0 -207 -94 -325t-271 -118zM1937 -410q-53 0 -83.5 32t-30.5 91q0 58 30 90.5t84 32.5q55 0 85 -33.5t30 -89.5t-30 -89.5t-85 -33.5zM2292 -410q-48 0 -81.5 29t-33.5 94t33.5 94t81.5 29q52 0 83 -31.5
t31 -91.5q0 -59 -30.5 -91t-83.5 -32z" />
    <glyph glyph-name="uni0621" unicode="&#x621;" horiz-adv-x="1004" arabic-form="isolated" 
d="M133 131q42 5 66 12l116 21q-57 38 -94 114t-37 166q0 124 52.5 212t149 135t222.5 47q147 0 248 -60l-45 -153q-101 53 -199 53q-119 0 -181 -63t-62 -183q0 -77 35.5 -140t93.5 -91l45 5q310 40 379 40v-166q-100 0 -394 -38t-395 -60v149z" />
    <glyph glyph-name="uni0627" unicode="&#x627;" horiz-adv-x="592" arabic-form="isolated" 
d="M205 1556h182v-1556h-182v1556z" />
    <glyph glyph-name="uni0627.fina" unicode="&#x627;" horiz-adv-x="647" arabic-form="final" 
d="M205 1556h182v-1396h270q11 0 11 -8v-142q0 -10 -11 -10h-452v1556z" />
    <glyph glyph-name="uni062D" unicode="&#x62d;" horiz-adv-x="1319" arabic-form="isolated" 
d="M1077 25q-55 44 -94 85t-68 95q-343 -93 -489.5 -201t-146.5 -250q0 -131 76 -192.5t237 -61.5q103 0 301 33l22 -141q-145 -31 -230 -40t-167 -9q-198 0 -312 103.5t-114 291.5q0 129 75 237t236 197.5t457 177.5q-16 54 -39 185q-27 162 -100.5 240.5t-198.5 78.5
q-73 0 -176 -29.5t-182 -72.5l-72 141q79 51 198 86t234 35q392 0 459 -432q25 -160 73 -260.5t130 -155.5z" />
    <glyph glyph-name="uni062D.init" unicode="&#x62d;" horiz-adv-x="1188" arabic-form="initial" 
d="M-10 0q-10 0 -10 10v142q0 8 10 8h878q-75 75 -129 375q-30 177 -87 248t-171 71q-142 0 -297 -82l-71 141q88 57 177.5 79t192.5 22q125 0 209 -45t133.5 -133.5t75.5 -253.5q30 -183 67.5 -282.5t86.5 -143.5v-156h-1065z" />
    <glyph glyph-name="uni062D.medi" unicode="&#x62d;" horiz-adv-x="1176" arabic-form="medial" 
d="M-10 0q-10 0 -10 10v142q0 8 10 8h878q-79 79 -129 375q-29 174 -87 246.5t-171 72.5q-142 0 -297 -82l-71 141q88 57 177.5 79t192.5 22q125 0 209 -45t133.5 -133.5t75.5 -253.5q47 -321 148 -422h137q10 0 10 -8v-142q0 -10 -10 -10h-1196z" />
    <glyph glyph-name="uni062D.fina" unicode="&#x62d;" horiz-adv-x="1257" arabic-form="final" 
d="M518 -657q-198 0 -312 103.5t-114 291.5q0 130 77 239t241 199t452 174q-22 70 -41 185q-27 162 -100.5 240.5t-198.5 78.5q-73 0 -176 -29.5t-182 -72.5l-72 141q79 51 198 86t234 35q392 0 459 -432q32 -196 63 -271t81 -113t130 -38h11q10 0 10 -8v-142q0 -10 -10 -10
h-11q-112 0 -195.5 48.5t-141.5 156.5q-245 -67 -380 -133.5t-198 -145.5t-63 -172q0 -131 76 -192.5t237 -61.5q103 0 301 33l22 -141q-145 -31 -230 -40t-167 -9z" />
    <glyph glyph-name="uni062F" unicode="&#x62f;" horiz-adv-x="1042" arabic-form="isolated" 
d="M92 160h682q-40 275 -153 468.5t-322 334.5l66 155q236 -123 384.5 -365t200.5 -597v-156h-858v160z" />
    <glyph glyph-name="uni0631" unicode="&#x631;" horiz-adv-x="666" arabic-form="isolated" 
d="M127 -492q-98 0 -209 58l53 137q50 -22 82 -28.5t70 -6.5q92 0 144 75t52 198v1052h173v-1042q0 -207 -94 -325t-271 -118z" />
    <glyph glyph-name="uni0631.fina" unicode="&#x631;" horiz-adv-x="735" arabic-form="final" 
d="M492 0v-49q0 -207 -94 -325t-271 -118q-98 0 -209 58l53 137q50 -22 82 -28.5t70 -6.5q92 0 144 75t52 198v1052h173v-833h253q11 0 11 -8v-142q0 -10 -11 -10h-253z" />
    <glyph glyph-name="uni0633" unicode="&#x633;" horiz-adv-x="2544" arabic-form="isolated" 
d="M2071 0q-92 0 -169.5 30.5t-160.5 110.5q-47 -63 -122 -102t-177 -39h-240q0 -242 -123 -367t-387 -125h-147q-190 0 -301 140t-111 385q0 126 22 255.5t62 227.5h170q-70 -177 -70 -483q0 -175 70 -270t197 -95h100q178 0 261 81t83 245v840h174v-674h221q99 0 154 65.5
t55 171.5v437h174v-492l-2 -23q51 -89 113 -124t154 -35h124v833h175v-993h-299z" />
    <glyph glyph-name="uni0633.init" unicode="&#x633;" horiz-adv-x="1798" arabic-form="initial" 
d="M1325 0q-92 0 -169.5 30.5t-160.5 112.5q-45 -63 -120 -103t-179 -40h-706q-10 0 -10 10v142q0 8 10 8h293v674h174v-674h221q99 0 154 65.5t55 171.5v437h174v-492l-2 -23q51 -88 111.5 -123.5t154.5 -35.5h125v833h174v-993h-299z" />
    <glyph glyph-name="uni0633.medi" unicode="&#x633;" horiz-adv-x="1888" arabic-form="medial" 
d="M1325 0q-92 0 -169.5 30.5t-160.5 112.5q-45 -63 -120 -103t-179 -40h-706q-10 0 -10 10v142q0 8 10 8h293v674h174v-674h221q99 0 154 65.5t55 171.5v437h174v-492l-2 -23q51 -88 111.5 -123.5t154.5 -35.5h125v833h174v-833h274q11 0 11 -8v-142q0 -10 -11 -10h-573z
" />
    <glyph glyph-name="uni0633.fina" unicode="&#x633;" horiz-adv-x="2634" arabic-form="final" 
d="M2071 0q-92 0 -169.5 30.5t-160.5 110.5q-47 -63 -122 -102t-177 -39h-240q0 -242 -123 -367t-387 -125h-147q-190 0 -301 140t-111 385q0 126 22 255.5t62 227.5h170q-70 -177 -70 -483q0 -175 70 -270t197 -95h100q178 0 261 81t83 245v840h174v-674h221q99 0 154 65.5
t55 171.5v437h174v-492l-2 -23q51 -89 113 -124t154 -35h124v833h175v-833h274q10 0 10 -8v-142q0 -10 -10 -10h-573z" />
    <glyph glyph-name="uni0635" unicode="&#x635;" horiz-adv-x="2392" arabic-form="isolated" 
d="M545 -492q-190 0 -301 140t-111 385q0 126 22 255.5t62 227.5h170q-70 -177 -70 -483q0 -175 70 -270t197 -95h100q178 0 261 81t83 245v999h174v-440q96 229 241 345t326 116q232 0 350.5 -126t118.5 -394v-494h-1036q0 -248 -123 -370t-387 -122h-147zM2064 160v325
q0 189 -82 278t-249 89q-317 0 -531 -520v-172h862z" />
    <glyph glyph-name="uni0635.init" unicode="&#x635;" horiz-adv-x="1604" arabic-form="initial" 
d="M-10 0q-10 0 -10 10v142q0 8 10 8h250v772h174v-379q96 229 241 345t326 116q232 0 350.5 -126t118.5 -394v-494h-1460zM1276 160v325q0 189 -82.5 278t-249.5 89q-315 0 -530 -524v-168h862z" />
    <glyph glyph-name="uni0635.medi" unicode="&#x635;" horiz-adv-x="1710" arabic-form="medial" 
d="M-10 0q-10 0 -10 10v142q0 8 10 8h250v772h174v-379q96 229 241 345t326 116q232 0 350.5 -126t118.5 -394v-334h270q11 0 11 -8v-142q0 -10 -11 -10h-1730zM1276 160v325q0 189 -82.5 278t-249.5 89q-315 0 -530 -524v-168h862z" />
    <glyph glyph-name="uni0635.fina" unicode="&#x635;" horiz-adv-x="2503" arabic-form="final" 
d="M1202 0q0 -248 -123 -370t-387 -122h-147q-190 0 -301 140t-111 385q0 126 22 255.5t62 227.5h170q-70 -177 -70 -483q0 -175 70 -270t197 -95h100q178 0 261 81t83 245v999h174v-440q96 229 241 345t326 116q232 0 350.5 -126t118.5 -394v-334h275q10 0 10 -8v-142
q0 -10 -10 -10h-1311zM2064 160v325q0 189 -82 278t-249 89q-317 0 -531 -520v-172h862z" />
    <glyph glyph-name="uni0637" unicode="&#x637;" horiz-adv-x="1645" arabic-form="isolated" 
d="M51 0q-10 0 -10 10v142q0 8 10 8h250v1396h174v-1003q96 229 241 345t326 116q232 0 350.5 -126t118.5 -394v-494h-1460zM1337 160v325q0 189 -82 278t-249 89q-155 0 -289 -130.5t-242 -393.5v-168h862z" />
    <glyph glyph-name="uni0637.init" unicode="&#x637;" horiz-adv-x="1583" arabic-form="initial" 
d="M-10 0q-10 0 -10 10v142q0 8 10 8h250v1396h174v-1003q96 229 241 345t326 116q232 0 350.5 -126t118.5 -394v-494h-1460zM1276 160v325q0 189 -82.5 278t-249.5 89q-315 0 -530 -524v-168h862z" />
    <glyph glyph-name="uni0637.medi" unicode="&#x637;" horiz-adv-x="1710" arabic-form="medial" 
d="M-10 0q-10 0 -10 10v142q0 8 10 8h250v1396h174v-1003q96 229 241 345t326 116q232 0 350.5 -126t118.5 -394v-334h270q11 0 11 -8v-142q0 -10 -11 -10h-1730zM1276 160v325q0 189 -82.5 278t-249.5 89q-315 0 -530 -524v-168h862z" />
    <glyph glyph-name="uni0637.fina" unicode="&#x637;" horiz-adv-x="1731" arabic-form="final" 
d="M61 160h199v1396h174v-1003q96 229 241 345t326 116q232 0 350.5 -126t118.5 -394v-334h271q10 0 10 -8v-142q0 -10 -10 -10h-1680v160zM1296 160v325q0 189 -82 278t-249 89q-155 0 -289 -130.5t-242 -393.5v-168h862z" />
    <glyph glyph-name="uni0639" unicode="&#x639;" horiz-adv-x="1096" arabic-form="isolated" 
d="M559 -657q-198 0 -312 103.5t-114 291.5q0 227 264 403q-182 159 -182 408q0 142 65 247t180.5 161.5t258.5 56.5q88 0 162.5 -17.5t122.5 -42.5l-56 -153q-127 53 -239 53q-147 0 -227.5 -78.5t-80.5 -224.5q0 -106 33.5 -194.5t91.5 -139.5q171 85 353 139l49 -151
q-181 -45 -325.5 -118.5t-214 -157.5t-69.5 -175q0 -132 77 -193t237 -61q103 0 301 33l22 -141q-145 -31 -230 -40t-167 -9z" />
    <glyph glyph-name="uni0639.init" unicode="&#x639;" horiz-adv-x="1055" arabic-form="initial" 
d="M-10 0q-10 0 -10 10v142q0 8 10 8h315q-65 55 -105 151t-40 213q0 231 132.5 360.5t354.5 129.5q88 0 162.5 -17.5t122.5 -42.5l-55 -153q-127 53 -240 53q-291 0 -291 -338q0 -159 69.5 -257.5t182.5 -98.5h365v-160h-973z" />
    <glyph glyph-name="uni0639.medi" unicode="&#x639;" horiz-adv-x="1217" arabic-form="medial" 
d="M987 0q-86 0 -185 25.5t-194 76.5q-180 -102 -381 -102h-237q-10 0 -10 10v142q0 8 10 8h235q147 0 244 41q-79 57 -161.5 164.5t-140 232t-75.5 236.5q112 105 252.5 165t286.5 60q129 0 260 -41t229 -109q0 -212 -98 -400t-270 -306q114 -43 227 -43h248q10 0 10 -8
v-142q0 -10 -10 -10h-240zM610 293q158 107 235 235t87 295q-143 76 -295 76q-174 0 -348 -119q31 -140 116 -268t205 -219z" />
    <glyph glyph-name="uni0639.fina" unicode="&#x639;" horiz-adv-x="1257" arabic-form="final" 
d="M193 -262q0 128 74 241.5t237 225.5q-145 139 -247 310.5t-124 318.5q112 105 252.5 165t286.5 60q129 0 260 -41t229 -109q-4 -197 -99 -379.5t-274 -322.5q111 -47 232 -47h248q10 0 10 -8v-142q0 -10 -10 -10h-240q-78 0 -188 31t-197 78q-146 -93 -205 -177.5
t-59 -177.5q0 -131 76 -192.5t237 -61.5q81 0 155 10.5t146 22.5l23 -141q-148 -31 -228 -40t-170 -9q-198 0 -311.5 104t-113.5 291zM330 780q25 -118 110 -250t205 -231q157 108 236.5 235t91.5 289q-143 76 -295 76q-174 0 -348 -119z" />
    <glyph glyph-name="uni0643.init" unicode="&#x643;" horiz-adv-x="1180" arabic-form="initial" 
d="M-10 0q-10 0 -10 10v142q0 8 10 8h862v377q0 153 -92 225t-285 72h-348v167q66 138 182 271.5t259.5 238t279.5 156.5l65 -156q-188 -74 -368 -224.5t-248 -293.5h178q268 0 409.5 -110t141.5 -316v-567h-1036z" />
    <glyph glyph-name="uni0643.medi" unicode="&#x643;" horiz-adv-x="1282" arabic-form="medial" 
d="M-10 0q-10 0 -10 10v142q0 8 10 8h862v377q0 153 -92 225t-285 72h-348v167q66 138 182 271.5t259.5 238t279.5 156.5l65 -156q-188 -74 -368 -224.5t-248 -293.5h178q268 0 409.5 -110t141.5 -316v-407h266q11 0 11 -8v-142q0 -10 -11 -10h-1302z" />
    <glyph glyph-name="uni0643" unicode="&#x643;" horiz-adv-x="1624" arabic-form="isolated" 
d="M586 731l96 14q-72 47 -72 129q0 87 57 136t152 49q76 0 135 -31l-30 -92q-43 25 -103 25q-45 0 -75.5 -25.5t-30.5 -79.5q0 -35 17.5 -59.5t43.5 -36.5q24 5 100 15.5t105 10.5v-100q-17 0 -90 -7.5t-108 -12.5q-177 -25 -197 -29v94zM516 0q-186 0 -284.5 95t-98.5 272
q0 136 51 276h154q-31 -146 -31 -262q0 -103 54.5 -162t148.5 -59h735v1396h174v-1556h-903z" />
    <glyph glyph-name="uni0643.fina" unicode="&#x643;" horiz-adv-x="1681" arabic-form="final" 
d="M516 0q-186 0 -284.5 95t-98.5 272q0 136 51 276h154q-31 -146 -31 -262q0 -103 54.5 -162t148.5 -59h735v1396h174v-1396h273q10 0 10 -8v-142q0 -10 -10 -10h-1176zM586 731l96 14q-72 47 -72 129q0 87 57 136t152 49q76 0 135 -31l-30 -92q-43 25 -103 25
q-45 0 -75.5 -25.5t-30.5 -79.5q0 -35 17.5 -59.5t43.5 -36.5q24 5 100 15.5t105 10.5v-100q-17 0 -90 -7.5t-108 -12.5q-177 -25 -197 -29v94z" />
    <glyph glyph-name="uni0644" unicode="&#x644;" horiz-adv-x="1407" arabic-form="isolated" 
d="M545 -492q-190 0 -301 140t-111 385q0 126 22 255.5t62 227.5h170q-70 -177 -70 -483q0 -175 70 -270t197 -95h100q178 0 261 81t83 245v1562h174v-1548q0 -248 -123 -374t-387 -126h-147z" />
    <glyph glyph-name="uni0644.init" unicode="&#x644;" horiz-adv-x="647" arabic-form="initial" 
d="M-10 0q-10 0 -10 10v142q0 8 10 8h270v1396h182v-1556h-452z" />
    <glyph glyph-name="uni0644.medi" unicode="&#x644;" horiz-adv-x="698" arabic-form="medial" 
d="M-10 0q-10 0 -10 10v142q0 8 10 8h270v1396h182v-1396h267q10 0 10 -8v-142q0 -10 -10 -10h-719z" />
    <glyph glyph-name="uni0644.fina" unicode="&#x644;" horiz-adv-x="1417" arabic-form="final" 
d="M1202 0q-3 -243 -126 -367.5t-384 -124.5h-147q-190 0 -301 140t-111 385q0 126 22 255.5t62 227.5h170q-70 -177 -70 -483q0 -175 70 -270t197 -95h100q178 0 261 81t83 245v1562h174v-1396h225q11 0 11 -8v-142q0 -10 -11 -10h-225z" />
    <glyph glyph-name="uni0645" unicode="&#x645;" horiz-adv-x="1329" arabic-form="isolated" 
d="M451 0q-146 0 -146 -150v-505h-172v536q0 89 33 151t89.5 95t127.5 33h14q-75 195 -75 350q0 182 73 326q76 63 173 100t202 37q128 0 225 -56.5t149 -160.5t52 -236q0 -161 -58.5 -278t-165 -179.5t-243.5 -62.5h-278zM506 545q0 -95 16.5 -186.5t61.5 -198.5h145
q137 0 210 93t73 269q0 129 -70.5 211t-171.5 82q-129 0 -240 -84q-17 -43 -20.5 -87.5t-3.5 -98.5z" />
    <glyph glyph-name="uni0645.init" unicode="&#x645;" horiz-adv-x="1176" arabic-form="initial" 
d="M-10 0q-10 0 -10 10v142q0 8 10 8h254q-76 198 -76 350q0 183 74 326q75 63 172 100t202 37q128 0 225 -56.5t149 -160.5t52 -236q0 -161 -58.5 -278t-165 -179.5t-243.5 -62.5h-585zM352 545q0 -95 17 -186.5t61 -198.5h145q137 0 210 93t73 269q0 129 -70.5 211
t-171.5 82q-65 0 -127.5 -23t-111.5 -61q-17 -43 -21 -87.5t-4 -98.5z" />
    <glyph glyph-name="uni0645.medi" unicode="&#x645;" horiz-adv-x="1241" arabic-form="medial" 
d="M-10 0q-10 0 -10 10v142q0 8 10 8h254q-76 198 -76 350q0 183 74 326q75 63 172 100t202 37q128 0 225 -56.5t149 -160.5t52 -236q0 -131 -43 -241q44 -67 98.5 -93t143.5 -26h10q11 0 11 -8v-142q0 -10 -11 -10h-10q-109 0 -186 30t-148 103q-65 -68 -151.5 -100.5
t-180.5 -32.5h-585zM352 545q0 -95 17 -186.5t61 -198.5h145q137 0 210 93t73 269q0 129 -70.5 211t-171.5 82q-65 0 -127.5 -23t-111.5 -61q-17 -43 -21 -87.5t-4 -98.5z" />
    <glyph glyph-name="uni0645.fina" unicode="&#x645;" horiz-adv-x="1395" arabic-form="final" 
d="M451 0q-146 0 -146 -150v-505h-172v536q0 89 33 151t89.5 95t127.5 33h14q-75 195 -75 350q0 182 73 326q76 63 173 100t202 37q128 0 225 -56.5t149 -160.5t52 -236q0 -131 -43 -241q45 -69 100 -94t142 -25h10q10 0 10 -8v-142q0 -10 -10 -10h-10q-109 0 -186 30
t-148 103q-65 -68 -151.5 -100.5t-180.5 -32.5h-278zM506 545q0 -95 16.5 -186.5t61.5 -198.5h145q137 0 210 93t73 269q0 129 -70.5 211t-171.5 82q-129 0 -240 -84q-17 -43 -20.5 -87.5t-3.5 -98.5z" />
    <glyph glyph-name="uni0647" unicode="&#x647;" horiz-adv-x="1223" arabic-form="isolated" 
d="M608 -20q-226 0 -350.5 123.5t-124.5 351.5q0 150 62.5 280t173 204.5t245.5 74.5q127 0 237.5 -76.5t174.5 -208.5t64 -274q0 -232 -121.5 -353.5t-360.5 -121.5zM612 137q293 0 293 316q0 186 -78 294.5t-217 108.5q-125 0 -209 -112t-84 -291q0 -316 295 -316z" />
    <glyph glyph-name="uni0647.init" unicode="&#x647;" horiz-adv-x="1589" arabic-form="initial" 
d="M799 160v239q0 151 -58.5 221t-173.5 70q-104 0 -162.5 -63.5t-58.5 -180.5q0 -131 79 -208.5t206 -77.5h168zM-10 0q-10 0 -10 10v142q0 8 10 8h317q-65 41 -104 119t-39 174q0 125 55 219.5t149.5 146t206.5 51.5q398 0 398 -440v-270h268v401q0 279 -126 411t-396 132
q-199 0 -379 -60l-47 158q192 64 426 64q334 0 515 -180.5t181 -507.5v-578h-1425z" />
    <glyph glyph-name="uni0647.medi" unicode="&#x647;" horiz-adv-x="1671" arabic-form="medial" 
d="M-10 0q-10 0 -10 10v142q0 8 10 8h317q-65 41 -104 119t-39 174q0 125 55 219.5t149.5 146t206.5 51.5q398 0 398 -440v-270h268v401q0 279 -126 411t-396 132q-199 0 -379 -60l-47 158q192 64 426 64q334 0 515 -180.5t181 -507.5v-418h266q11 0 11 -8v-142
q0 -10 -11 -10h-1691zM799 160v239q0 151 -58.5 221t-173.5 70q-104 0 -162.5 -63.5t-58.5 -180.5q0 -131 79 -208.5t206 -77.5h168z" />
    <glyph glyph-name="uni0647.fina" unicode="&#x647;" horiz-adv-x="1227" arabic-form="final" 
d="M653 0q-246 0 -383 124.5t-137 348.5q0 242 152 381t409 139h135v129h175v-962h233q10 0 10 -8v-142q0 -10 -10 -10h-584zM829 160v674h-129q-184 0 -284.5 -94.5t-100.5 -264.5q0 -153 87 -234t247 -81h180z" />
    <glyph glyph-name="uni0648" unicode="&#x648;" horiz-adv-x="1149" arabic-form="isolated" 
d="M502 -492q-209 0 -369 105l82 137q66 -35 136 -58.5t155 -23.5q139 0 218 74.5t79 198.5v59h-201q-218 0 -337.5 120t-119.5 347q0 241 153 383.5t409 142.5h268v-1042q0 -209 -123.5 -326t-349.5 -117zM801 160v674h-88q-182 0 -283.5 -96t-101.5 -269
q0 -160 69.5 -234.5t210.5 -74.5h193z" />
    <glyph glyph-name="uni0648.fina" unicode="&#x648;" horiz-adv-x="1133" arabic-form="final" 
d="M801 160v674h-88q-182 0 -283.5 -96t-101.5 -269q0 -160 69.5 -234.5t210.5 -74.5h193zM975 -49q0 -209 -123.5 -326t-349.5 -117q-209 0 -369 105l82 137q66 -35 136 -58.5t155 -23.5q139 0 218 74.5t79 198.5v59h-201q-218 0 -337.5 120t-119.5 347q0 241 153 383.5
t409 142.5h268v-833h168q10 0 10 -8v-142q0 -10 -10 -10h-168v-49z" />
    <glyph glyph-name="uni0649" unicode="&#x649;" horiz-adv-x="1718" arabic-form="isolated" 
d="M545 -492q-192 0 -302 133t-110 361q0 107 17.5 193t54.5 176h170q-23 -57 -35.5 -109.5t-17.5 -101.5t-5 -146q0 -166 69 -256t198 -90h401q157 0 248.5 57t91.5 152q0 38 -26 74t-70 71t-150 99q-123 73 -172 115.5t-74.5 88t-25.5 99.5q0 122 90.5 257.5t224.5 223.5
t260 88q49 0 137.5 -28t127.5 -54l-74 -137q-30 15 -85.5 25t-98.5 10q-69 0 -160.5 -56t-155 -138t-63.5 -156q0 -69 153 -162q151 -92 214.5 -152t98.5 -129.5t35 -142.5q0 -171 -137 -268t-389 -97h-440z" />
    <glyph glyph-name="uni0649.fina" unicode="&#x649;" horiz-adv-x="1974" arabic-form="final" 
d="M545 -492q-192 0 -302 133t-110 361q0 107 17.5 193t54.5 176h170q-23 -57 -35.5 -109.5t-17.5 -101.5t-5 -146q0 -166 69 -256t198 -90h381q146 0 242 54.5t96 130.5q0 42 -38 72t-115 52q-155 44 -212.5 77t-88 82t-30.5 116q0 118 70.5 228t182.5 178.5t224 68.5
q69 0 122.5 -25t100.5 -72.5t117 -157.5q88 -142 130.5 -191t72.5 -72.5t63 -36t72 -12.5h11q10 0 10 -8v-142q0 -10 -10 -10h-11q-86 0 -165.5 38.5t-163.5 127.5q-24 25 -105 141q-99 140 -157 188t-109 48q-56 0 -120 -43t-107 -107.5t-43 -116.5q0 -34 36.5 -61
t117.5 -51q147 -43 208.5 -75t93 -75.5t31.5 -99.5q0 -406 -526 -406h-420z" />
    <glyph glyph-name="uni066E.init" unicode="&#x66e;" horiz-adv-x="616" 
d="M-10 0q-10 0 -10 10v142q0 8 10 8h270v833h182v-993h-452z" />
    <glyph glyph-name="uni066E.medi" unicode="&#x66e;" horiz-adv-x="698" 
d="M-10 0q-10 0 -10 10v142q0 8 10 8h270v833h182v-833h267q10 0 10 -8v-142q0 -10 -10 -10h-719z" />
    <glyph glyph-name="uni066E.fina" unicode="&#x66e;" horiz-adv-x="1681" 
d="M516 0q-177 0 -280 106.5t-103 290.5q0 68 14.5 157t36.5 151h164q-31 -148 -31 -293q0 -112 53 -182t140 -70h735v833h174v-833h273q10 0 10 -8v-142q0 -10 -10 -10h-1176z" />
    <glyph glyph-name="uni066F.init" unicode="&#x66f;" horiz-adv-x="1198" 
d="M850 160v674h-88q-182 0 -283.5 -95t-101.5 -268q0 -311 280 -311h193zM-10 0q-10 0 -10 10v142q0 8 10 8h311q-52 59 -79 143t-27 166q0 240 150.5 382t410.5 142h268v-993h-1034z" />
    <glyph glyph-name="uni066F.medi" unicode="&#x66f;" horiz-adv-x="1231" 
d="M850 160v674h-88q-183 0 -284 -96.5t-101 -268.5q0 -309 280 -309h193zM-10 0q-10 0 -10 10v142q0 8 10 8h311q-52 59 -79 143t-27 166q0 244 151.5 384t409.5 140h268v-833h217q6 0 9 -5l1 -5v-142q0 -8 -10 -8h-1251z" />
    <glyph glyph-name="uni066F.fina" unicode="&#x66f;" horiz-adv-x="1835" 
d="M1446 160v674h-88q-182 0 -283.5 -96t-101.5 -269q0 -160 69.5 -234.5t210.5 -74.5h193zM1845 160q10 0 10 -8v-142q0 -10 -10 -10h-225v-12q0 -480 -518 -480h-484q-225 0 -355 133t-130 361q0 261 84 483h170q-70 -196 -70 -471q0 -166 88.5 -256t249.5 -90h414
q200 0 288.5 77.5t88.5 240.5v14h-189q-227 0 -346.5 120t-119.5 347q0 243 153 384.5t408 141.5h268v-833h225z" />
    <glyph glyph-name="uni06C1.init" unicode="&#x6c1;" horiz-adv-x="637" arabic-form="initial" 
d="M285 -416q-87 0 -141 51.5t-54 128.5q0 52 23 106t84 130h-207q-10 0 -10 10v142q0 8 10 8h270v833h182v-993h-90q-100 -125 -100 -188q0 -25 18 -46.5t54 -21.5h139v-160h-178z" />
    <glyph glyph-name="uni06C1.medi" unicode="&#x6c1;" horiz-adv-x="1169" arabic-form="medial" 
d="M1180 160q10 0 10 -8v-142q0 -10 -10 -10h-271v-508h-192q-201 0 -328.5 128t-173.5 380h-225q-10 0 -10 10v142q0 8 10 8h356q70 -508 381 -508v508h453z" />
    <glyph glyph-name="uni06BE" unicode="&#x6be;" horiz-adv-x="1651" arabic-form="isolated" 
d="M860 160v239q0 150 -57 220.5t-174 70.5q-104 0 -162.5 -63.5t-58.5 -180.5q0 -130 77.5 -208t206.5 -78h168zM133 160h236q-66 42 -105 119.5t-39 173.5q0 125 54.5 219t150 146t207.5 52q397 0 397 -440v-270h269v401q0 280 -127 411.5t-396 131.5q-197 0 -379 -60
l-47 158q192 64 426 64q332 0 514.5 -179.5t182.5 -508.5v-578h-1344v160z" />
    <glyph glyph-name="uni06D2" unicode="&#x6d2;" horiz-adv-x="1182" arabic-form="isolated" 
d="M401 -416q-148 0 -228.5 68.5t-80.5 195.5q0 83 37.5 144.5t115 112.5t259.5 124q156 65 212 104.5t77.5 88.5t21.5 143v80h182v-80q0 -118 -31.5 -192.5t-104.5 -131t-251 -130.5q-173 -72 -230.5 -105.5t-81.5 -68t-24 -89.5q0 -44 34.5 -74t88.5 -30h959v-160h-955z
" />
    <glyph glyph-name="uni06D2.fina" unicode="&#x6d2;" horiz-adv-x="795" arabic-form="final" 
d="M813 160q10 0 10 -8v-142q0 -10 -10 -10h-295q-109 0 -176.5 -42.5t-67.5 -109.5q0 -48 33 -76t90 -28h959v-160h-955q-148 0 -228.5 68.5t-80.5 195.5q0 87 61 158t167.5 112.5t224.5 41.5h268z" />
    <glyph glyph-name="uni06A9" unicode="&#x6a9;" horiz-adv-x="1655" arabic-form="isolated" 
d="M516 0q-186 0 -284.5 95t-98.5 272q0 52 11 129t30 147h164q-31 -170 -31 -256q0 -106 54.5 -166.5t148.5 -60.5h817v377q0 153 -92 225t-285 72h-348v167q66 138 182 271.5t259.5 238t279.5 156.5l66 -156q-186 -72 -367 -223t-250 -295h178q268 0 409.5 -110
t141.5 -316v-567h-985z" />
    <glyph glyph-name="uni06A9.fina" unicode="&#x6a9;" horiz-adv-x="1757" arabic-form="final" 
d="M516 0q-186 0 -284.5 95t-98.5 272q0 52 11 129t30 147h164q-31 -170 -31 -256q0 -106 54.5 -166.5t148.5 -60.5h817v377q0 153 -92 225t-285 72h-348v167q66 138 182 271.5t259.5 238t279.5 156.5l66 -156q-186 -72 -367 -223t-250 -295h178q268 0 409.5 -110
t141.5 -316v-407h266q11 0 11 -8v-142q0 -10 -11 -10h-1251z" />
    <glyph glyph-name="uni06AF" unicode="&#x6af;" horiz-adv-x="1655" arabic-form="isolated" 
d="M516 0q-186 0 -284.5 95t-98.5 272q0 52 11 129t30 147h164q-31 -170 -31 -256q0 -106 54.5 -166.5t148.5 -60.5h817v377q0 153 -92 225t-285 72h-348v167q66 138 182 271.5t259.5 238t279.5 156.5l66 -156q-186 -72 -367 -223t-250 -295h178q268 0 409.5 -110
t141.5 -316v-567h-985zM547 1284q67 150 265 331.5t397 264.5l59 -137q-126 -48 -266 -148t-246.5 -215t-153.5 -217z" />
    <glyph glyph-name="uni06AF.init" unicode="&#x6af;" horiz-adv-x="1180" arabic-form="initial" 
d="M-10 0q-10 0 -10 10v142q0 8 10 8h862v377q0 153 -92 225t-285 72h-348v167q66 138 182 271.5t259.5 238t279.5 156.5l65 -156q-188 -74 -368 -224.5t-248 -293.5h178q268 0 409.5 -110t141.5 -316v-567h-1036zM76 1284q67 150 265 331.5t397 264.5l59 -137
q-126 -48 -266 -148t-246.5 -215t-153.5 -217z" />
    <glyph glyph-name="uni06AF.medi" unicode="&#x6af;" horiz-adv-x="1282" arabic-form="medial" 
d="M-10 0q-10 0 -10 10v142q0 8 10 8h862v377q0 153 -92 225t-285 72h-348v167q66 138 182 271.5t259.5 238t279.5 156.5l65 -156q-188 -74 -368 -224.5t-248 -293.5h178q268 0 409.5 -110t141.5 -316v-407h266q11 0 11 -8v-142q0 -10 -11 -10h-1302zM76 1284
q67 150 265 331.5t397 264.5l59 -137q-126 -48 -266 -148t-246.5 -215t-153.5 -217z" />
    <glyph glyph-name="uni06AF.fina" unicode="&#x6af;" horiz-adv-x="1757" arabic-form="final" 
d="M516 0q-186 0 -284.5 95t-98.5 272q0 52 11 129t30 147h164q-31 -170 -31 -256q0 -106 54.5 -166.5t148.5 -60.5h817v377q0 153 -92 225t-285 72h-348v167q66 138 182 271.5t259.5 238t279.5 156.5l66 -156q-186 -72 -367 -223t-250 -295h178q268 0 409.5 -110
t141.5 -316v-407h266q11 0 11 -8v-142q0 -10 -11 -10h-1251zM547 1284q67 150 265 331.5t397 264.5l59 -137q-126 -48 -266 -148t-246.5 -215t-153.5 -217z" />
    <glyph glyph-name="uni06BA" unicode="&#x6ba;" horiz-adv-x="1376" arabic-form="isolated" 
d="M545 -492q-192 0 -302 133t-110 361q0 245 84 453h170q-70 -177 -70 -441q0 -166 69 -256t198 -90h100q178 0 261 81t83 245v999h174v-985q0 -248 -123 -374t-387 -126h-147z" />
    <glyph glyph-name="uni06BA.fina" unicode="&#x6ba;" horiz-adv-x="1417" arabic-form="final" 
d="M1202 0q-3 -243 -126 -367.5t-384 -124.5h-147q-192 0 -302 133t-110 361q0 245 84 453h170q-70 -177 -70 -441q0 -166 69 -256t198 -90h100q178 0 261 81t83 247v997h174v-833h225q11 0 11 -8v-142q0 -10 -11 -10h-225z" />
    <glyph glyph-name="uni062F.fina" unicode="&#x62f;" horiz-adv-x="1165" arabic-form="final" 
d="M92 160h682q-40 275 -153 468.5t-322 334.5l66 155q236 -125 384.5 -367t198.5 -591h228q10 0 10 -8v-142q0 -10 -10 -10h-1084v160z" />
    <glyph glyph-name="uni06C1.fina" unicode="&#x6c1;" horiz-adv-x="1335" arabic-form="final" 
d="M102 0q153 291 260 429t231.5 225.5t289.5 133.5h192v-628h271q10 0 10 -8v-142q0 -10 -10 -10h-453v621q-133 -52 -221.5 -118.5t-163.5 -171t-186 -331.5h-220z" />
    <glyph glyph-name="uni0686" unicode="&#x686;" horiz-adv-x="1319" arabic-form="isolated" 
d="M1077 25q-55 44 -94 85t-68 95q-343 -93 -489.5 -201t-146.5 -250q0 -254 278 -254l-39 -157q-198 0 -312 103.5t-114 291.5q0 129 75 237t236 197.5t457 177.5q-16 54 -39 185q-27 162 -100.5 240.5t-198.5 78.5q-73 0 -176 -29.5t-182 -72.5l-72 141q79 51 198 86
t234 35q392 0 459 -432q25 -160 73 -260.5t130 -155.5zM801 -588q-46 0 -76 26.5t-30 86.5q0 58 30 85t76 27q43 0 74.5 -27t31.5 -85q0 -60 -31.5 -86.5t-74.5 -26.5zM625 -338q-48 0 -81.5 29t-33.5 94q0 64 33.5 93t81.5 29q54 0 84.5 -33t30.5 -89t-30 -89.5t-85 -33.5z
M979 -338q-53 0 -84 32t-31 91q0 58 31 90t84 32q54 0 84.5 -33t30.5 -89t-30 -89.5t-85 -33.5z" />
    <glyph glyph-name="uni0686.fina" unicode="&#x686;" horiz-adv-x="1257" arabic-form="final" 
d="M518 -657q-198 0 -312 103.5t-114 291.5q0 130 77 239t241 199t452 174q-22 70 -41 185q-27 162 -100.5 240.5t-198.5 78.5q-73 0 -176 -29.5t-182 -72.5l-72 141q79 51 198 86t234 35q392 0 459 -432q32 -196 63 -271t81 -113t130 -38h11q10 0 10 -8v-142q0 -10 -10 -10
h-11q-112 0 -195.5 48.5t-141.5 156.5q-245 -67 -380 -133.5t-198 -145.5t-63 -172q0 -254 278 -254zM801 -588q-46 0 -76 26.5t-30 86.5q0 58 30 85t76 27q43 0 74.5 -27t31.5 -85q0 -60 -31.5 -86.5t-74.5 -26.5zM625 -338q-48 0 -81.5 29t-33.5 94q0 64 33.5 93t81.5 29
q54 0 84.5 -33t30.5 -89t-30 -89.5t-85 -33.5zM979 -338q-53 0 -84 32t-31 91q0 58 31 90t84 32q54 0 84.5 -33t30.5 -89t-30 -89.5t-85 -33.5z" />
    <glyph glyph-name="uni0623" unicode="&#x623;" horiz-adv-x="592" arabic-form="isolated" 
d="M205 1434h182v-1434h-182v1434zM90 1628l97 14q-72 47 -72 130q0 88 57.5 136t151.5 48q80 0 135 -31l-31 -92q-41 25 -102 25q-45 0 -76 -25.5t-31 -79.5q0 -35 18 -59.5t44 -36.5q20 5 98 15.5t107 10.5v-100q-16 0 -72.5 -5.5t-208.5 -25.5l-115 -18v94z" />
    <glyph glyph-name="uni0623.fina" unicode="&#x623;" horiz-adv-x="647" arabic-form="final" 
d="M205 1434h182v-1274h270q11 0 11 -8v-142q0 -10 -11 -10h-452v1434zM90 1628l97 14q-72 47 -72 130q0 88 57.5 136t151.5 48q80 0 135 -31l-31 -92q-41 25 -102 25q-45 0 -76 -25.5t-31 -79.5q0 -35 18 -59.5t44 -36.5q20 5 98 15.5t107 10.5v-100q-16 0 -72.5 -5.5
t-208.5 -25.5l-115 -18v94z" />
    <glyph glyph-name="uni0625" unicode="&#x625;" horiz-adv-x="592" arabic-form="isolated" 
d="M205 1556h182v-1556h-182v1556zM104 -446l97 14q-29 18 -50.5 51t-21.5 78q0 86 55.5 135t153.5 49q80 0 135 -31l-31 -92q-41 25 -102 25q-45 0 -76 -25.5t-31 -79.5q0 -65 62 -96q20 5 102 16t103 11v-101q-46 0 -194.5 -19t-201.5 -30v95z" />
    <glyph glyph-name="uni0625.fina" unicode="&#x625;" horiz-adv-x="647" arabic-form="final" 
d="M205 1556h182v-1396h270q11 0 11 -8v-142q0 -10 -11 -10h-452v1556zM104 -446l97 14q-29 18 -50.5 51t-21.5 78q0 86 55.5 135t153.5 49q80 0 135 -31l-31 -92q-41 25 -102 25q-45 0 -76 -25.5t-31 -79.5q0 -65 62 -96q20 5 102 16t103 11v-101q-46 0 -194.5 -19
t-201.5 -30v95z" />
    <glyph glyph-name="uni0622" unicode="&#x622;" horiz-adv-x="592" arabic-form="isolated" 
d="M205 1434h182v-1434h-182v1434zM-18 1556q11 98 57 154.5t131 56.5q37 0 74 -14t71.5 -31t66 -31t57.5 -14q41 0 61.5 21.5t34.5 70.5h92q-11 -97 -57 -153.5t-131 -56.5q-37 0 -73 14t-70 31t-66 31t-60 14q-42 0 -62 -21.5t-34 -71.5h-92z" />
    <glyph glyph-name="uni0622.fina" unicode="&#x622;" horiz-adv-x="647" arabic-form="final" 
d="M205 1434h182v-1274h270q11 0 11 -8v-142q0 -10 -11 -10h-452v1434zM-18 1556q11 98 57 154.5t131 56.5q37 0 74 -14t71.5 -31t66 -31t57.5 -14q41 0 61.5 21.5t34.5 70.5h92q-11 -97 -57 -153.5t-131 -56.5q-37 0 -73 14t-70 31t-66 31t-60 14q-42 0 -62 -21.5
t-34 -71.5h-92z" />
    <glyph glyph-name="uni0671" unicode="&#x671;" horiz-adv-x="592" arabic-form="isolated" 
d="M205 1434h182v-1434h-182v1434zM27 1671h94q72 209 229 209q85 0 130.5 -55t45.5 -154v-94h-499v94zM422 1671q0 60 -17.5 86.5t-54.5 26.5q-36 0 -68.5 -32t-47.5 -81h188z" />
    <glyph glyph-name="uni0671.fina" unicode="&#x671;" horiz-adv-x="647" arabic-form="final" 
d="M205 1434h182v-1274h270q11 0 11 -8v-142q0 -10 -11 -10h-452v1434zM27 1671h94q72 209 229 209q85 0 130.5 -55t45.5 -154v-94h-499v94zM422 1671q0 60 -17.5 86.5t-54.5 26.5q-36 0 -68.5 -32t-47.5 -81h188z" />
    <glyph glyph-name="uni0628" unicode="&#x628;" horiz-adv-x="1593" arabic-form="isolated" 
d="M516 0q-177 0 -280 106.5t-103 290.5q0 68 14.5 157t36.5 151h164q-31 -148 -31 -293q0 -112 53 -182t140 -70h735v833h174v-993h-903zM854 -410q-53 0 -84 32t-31 91t30.5 91t84.5 32q55 0 85 -33.5t30 -89.5t-30 -89.5t-85 -33.5z" />
    <glyph glyph-name="uni0628.init" unicode="&#x628;" horiz-adv-x="616" arabic-form="initial" 
d="M-10 0q-10 0 -10 10v142q0 8 10 8h270v833h182v-993h-452zM342 -410q-53 0 -84 32t-31 91t30.5 91t84.5 32q55 0 85 -33.5t30 -89.5t-30 -89.5t-85 -33.5z" />
    <glyph glyph-name="uni0628.medi" unicode="&#x628;" horiz-adv-x="698" arabic-form="medial" 
d="M-10 0q-10 0 -10 10v142q0 8 10 8h270v833h182v-833h267q10 0 10 -8v-142q0 -10 -10 -10h-719zM340 -410q-53 0 -84 32t-31 91t30.5 91t84.5 32q55 0 85 -33.5t30 -89.5t-30 -89.5t-85 -33.5z" />
    <glyph glyph-name="uni0628.fina" unicode="&#x628;" horiz-adv-x="1681" arabic-form="final" 
d="M516 0q-177 0 -280 106.5t-103 290.5q0 68 14.5 157t36.5 151h164q-31 -148 -31 -293q0 -112 53 -182t140 -70h735v833h174v-833h273q10 0 10 -8v-142q0 -10 -10 -10h-1176zM854 -410q-53 0 -84 32t-31 91t30.5 91t84.5 32q55 0 85 -33.5t30 -89.5t-30 -89.5t-85 -33.5z
" />
    <glyph glyph-name="uni067E" unicode="&#x67e;" horiz-adv-x="1593" arabic-form="isolated" 
d="M516 0q-177 0 -280 106.5t-103 290.5q0 68 14.5 157t36.5 151h164q-31 -148 -31 -293q0 -112 53 -182t140 -70h735v833h174v-993h-903zM842 -688q-46 0 -76 26.5t-30 86.5q0 58 30 85t76 27q43 0 74.5 -27t31.5 -85q0 -60 -31.5 -86.5t-74.5 -26.5zM666 -438
q-48 0 -81.5 29t-33.5 94q0 64 33.5 93t81.5 29q54 0 84.5 -33t30.5 -89t-30 -89.5t-85 -33.5zM1020 -438q-53 0 -84 32t-31 91q0 58 31 90t84 32q54 0 84.5 -33t30.5 -89t-30 -89.5t-85 -33.5z" />
    <glyph glyph-name="uni067E.fina" unicode="&#x67e;" horiz-adv-x="1681" arabic-form="final" 
d="M516 0q-177 0 -280 106.5t-103 290.5q0 68 14.5 157t36.5 151h164q-31 -148 -31 -293q0 -112 53 -182t140 -70h735v833h174v-833h273q10 0 10 -8v-142q0 -10 -10 -10h-1176zM842 -688q-46 0 -76 26.5t-30 86.5q0 58 30 85t76 27q43 0 74.5 -27t31.5 -85
q0 -60 -31.5 -86.5t-74.5 -26.5zM666 -438q-48 0 -81.5 29t-33.5 94q0 64 33.5 93t81.5 29q54 0 84.5 -33t30.5 -89t-30 -89.5t-85 -33.5zM1020 -438q-53 0 -84 32t-31 91q0 58 31 90t84 32q54 0 84.5 -33t30.5 -89t-30 -89.5t-85 -33.5z" />
    <glyph glyph-name="uni067E.init" unicode="&#x67e;" horiz-adv-x="766" arabic-form="initial" 
d="M-10 0q-10 0 -10 10v142q0 8 10 8h393v833h182v-993h-575zM291 -688q-46 0 -76 26.5t-30 86.5q0 58 30 85t76 27q43 0 74.5 -27t31.5 -85q0 -60 -31.5 -86.5t-74.5 -26.5zM115 -438q-48 0 -81.5 29t-33.5 94q0 64 33.5 93t81.5 29q54 0 84.5 -33t30.5 -89t-30 -89.5
t-85 -33.5zM469 -438q-53 0 -84 32t-31 91q0 58 31 90t84 32q54 0 84.5 -33t30.5 -89t-30 -89.5t-85 -33.5z" />
    <glyph glyph-name="uni067E.medi" unicode="&#x67e;" horiz-adv-x="801" arabic-form="medial" 
d="M-10 0q-10 0 -10 10v142q0 8 10 8h332v833h182v-833h307q10 0 10 -8v-142q0 -10 -10 -10h-821zM430 -688q-46 0 -76 26.5t-30 86.5q0 58 30 85t76 27q43 0 74.5 -27t31.5 -85q0 -60 -31.5 -86.5t-74.5 -26.5zM254 -438q-48 0 -81.5 29t-33.5 94q0 64 33.5 93t81.5 29
q54 0 84.5 -33t30.5 -89t-30 -89.5t-85 -33.5zM608 -438q-53 0 -84 32t-31 91q0 58 31 90t84 32q54 0 84.5 -33t30.5 -89t-30 -89.5t-85 -33.5z" />
    <glyph glyph-name="uni062A" unicode="&#x62a;" horiz-adv-x="1593" arabic-form="isolated" 
d="M516 0q-177 0 -280 106.5t-103 290.5q0 68 14.5 157t36.5 151h164q-31 -148 -31 -293q0 -112 53 -182t140 -70h735v833h174v-993h-903zM598 994q-48 0 -81.5 29t-33.5 94t33.5 94t81.5 29q52 0 83 -31.5t31 -91.5q0 -59 -30.5 -91t-83.5 -32zM952 994q-53 0 -84 32
t-31 91t30.5 91t84.5 32q55 0 85 -33.5t30 -89.5t-30 -89.5t-85 -33.5z" />
    <glyph glyph-name="uni062A.init" unicode="&#x62a;" horiz-adv-x="766" arabic-form="initial" 
d="M-10 0q-10 0 -10 10v142q0 8 10 8h393v833h182v-993h-575zM285 1188q-48 0 -81.5 29t-33.5 94t33.5 94t81.5 29q52 0 83 -31.5t31 -91.5q0 -59 -30.5 -91t-83.5 -32zM639 1188q-53 0 -84 32t-31 91t30.5 91t84.5 32q55 0 85 -33.5t30 -89.5t-30 -89.5t-85 -33.5z" />
    <glyph glyph-name="uni062A.medi" unicode="&#x62a;" horiz-adv-x="801" arabic-form="medial" 
d="M-10 0q-10 0 -10 10v142q0 8 10 8h332v833h182v-833h307q10 0 10 -8v-142q0 -10 -10 -10h-821zM234 1188q-48 0 -81.5 29t-33.5 94t33.5 94t81.5 29q52 0 83 -31.5t31 -91.5q0 -59 -30.5 -91t-83.5 -32zM588 1188q-53 0 -84 32t-31 91t30.5 91t84.5 32q55 0 85 -33.5
t30 -89.5t-30 -89.5t-85 -33.5z" />
    <glyph glyph-name="uni062A.fina" unicode="&#x62a;" horiz-adv-x="1681" arabic-form="final" 
d="M516 0q-177 0 -280 106.5t-103 290.5q0 68 14.5 157t36.5 151h164q-31 -148 -31 -293q0 -112 53 -182t140 -70h735v833h174v-833h273q10 0 10 -8v-142q0 -10 -10 -10h-1176zM598 994q-48 0 -81.5 29t-33.5 94t33.5 94t81.5 29q52 0 83 -31.5t31 -91.5q0 -59 -30.5 -91
t-83.5 -32zM952 994q-53 0 -84 32t-31 91t30.5 91t84.5 32q55 0 85 -33.5t30 -89.5t-30 -89.5t-85 -33.5z" />
    <glyph glyph-name="uni062B" unicode="&#x62b;" horiz-adv-x="1593" arabic-form="isolated" 
d="M516 0q-177 0 -280 106.5t-103 290.5q0 68 14.5 157t36.5 151h164q-31 -148 -31 -293q0 -112 53 -182t140 -70h735v833h174v-993h-903zM791 1272q-46 0 -76 26.5t-30 86.5q0 59 30 86t76 27q43 0 74.5 -27.5t31.5 -85.5q0 -60 -31.5 -86.5t-74.5 -26.5zM615 996
q-48 0 -81.5 29t-33.5 94t33.5 94t81.5 29q55 0 85 -33.5t30 -89.5t-30 -89.5t-85 -33.5zM969 996q-53 0 -84 32t-31 91t30.5 91t84.5 32q55 0 85 -33.5t30 -89.5t-30 -89.5t-85 -33.5z" />
    <glyph glyph-name="uni062B.init" unicode="&#x62b;" horiz-adv-x="766" arabic-form="initial" 
d="M-10 0q-10 0 -10 10v142q0 8 10 8h393v833h182v-993h-575zM461 1464q-46 0 -76 26.5t-30 86.5q0 59 30 86t76 27q43 0 74.5 -27.5t31.5 -85.5q0 -60 -31.5 -86.5t-74.5 -26.5zM285 1188q-48 0 -81.5 29t-33.5 94t33.5 94t81.5 29q55 0 85 -33.5t30 -89.5t-30 -89.5
t-85 -33.5zM639 1188q-53 0 -84 32t-31 91t30.5 91t84.5 32q55 0 85 -33.5t30 -89.5t-30 -89.5t-85 -33.5z" />
    <glyph glyph-name="uni062B.medi" unicode="&#x62b;" horiz-adv-x="801" arabic-form="medial" 
d="M-10 0q-10 0 -10 10v142q0 8 10 8h332v833h182v-833h307q10 0 10 -8v-142q0 -10 -10 -10h-821zM410 1464q-46 0 -76 26.5t-30 86.5q0 59 30 86t76 27q43 0 74.5 -27.5t31.5 -85.5q0 -60 -31.5 -86.5t-74.5 -26.5zM234 1188q-48 0 -81.5 29t-33.5 94t33.5 94t81.5 29
q55 0 85 -33.5t30 -89.5t-30 -89.5t-85 -33.5zM588 1188q-53 0 -84 32t-31 91t30.5 91t84.5 32q55 0 85 -33.5t30 -89.5t-30 -89.5t-85 -33.5z" />
    <glyph glyph-name="uni062B.fina" unicode="&#x62b;" horiz-adv-x="1681" arabic-form="final" 
d="M516 0q-177 0 -280 106.5t-103 290.5q0 68 14.5 157t36.5 151h164q-31 -148 -31 -293q0 -112 53 -182t140 -70h735v833h174v-833h273q10 0 10 -8v-142q0 -10 -10 -10h-1176zM791 1270q-46 0 -76 26.5t-30 86.5q0 59 30 86t76 27q43 0 74.5 -27.5t31.5 -85.5
q0 -60 -31.5 -86.5t-74.5 -26.5zM615 994q-48 0 -81.5 29t-33.5 94t33.5 94t81.5 29q55 0 85 -33.5t30 -89.5t-30 -89.5t-85 -33.5zM969 994q-53 0 -84 32t-31 91t30.5 91t84.5 32q55 0 85 -33.5t30 -89.5t-30 -89.5t-85 -33.5z" />
    <glyph glyph-name="uni0679" unicode="&#x679;" horiz-adv-x="1593" arabic-form="isolated" 
d="M516 0q-177 0 -280 106.5t-103 290.5q0 68 14.5 157t36.5 151h164q-31 -148 -31 -293q0 -112 53 -182t140 -70h735v833h174v-993h-903zM581 1082h31v373h82v-260q25 60 62.5 96.5t97.5 36.5q151 0 151 -178v-156h-424v88zM923 1082v51q0 54 -18 80.5t-61 26.5
q-48 0 -84.5 -32.5t-65.5 -104.5v-21h229z" />
    <glyph glyph-name="uni0679.init" unicode="&#x679;" horiz-adv-x="766" arabic-form="initial" 
d="M-10 0q-10 0 -10 10v142q0 8 10 8h393v833h182v-993h-575zM251 1292h31v373h82v-260q25 60 62.5 96.5t97.5 36.5q151 0 151 -178v-156h-424v88zM593 1292v51q0 54 -18 80.5t-61 26.5q-48 0 -84.5 -32.5t-65.5 -104.5v-21h229z" />
    <glyph glyph-name="uni0679.medi" unicode="&#x679;" horiz-adv-x="801" arabic-form="medial" 
d="M-10 0q-10 0 -10 10v142q0 8 10 8h332v833h182v-833h307q10 0 10 -8v-142q0 -10 -10 -10h-821zM194 1292h31v373h82v-260q25 60 62.5 96.5t97.5 36.5q151 0 151 -178v-156h-424v88zM536 1292v51q0 54 -18 80.5t-61 26.5q-48 0 -84.5 -32.5t-65.5 -104.5v-21h229z" />
    <glyph glyph-name="uni0679.fina" unicode="&#x679;" horiz-adv-x="1681" arabic-form="final" 
d="M516 0q-177 0 -280 106.5t-103 290.5q0 68 14.5 157t36.5 151h164q-31 -148 -31 -293q0 -112 53 -182t140 -70h735v833h174v-833h273q10 0 10 -8v-142q0 -10 -10 -10h-1176zM581 1082h31v373h82v-260q25 60 62.5 96.5t97.5 36.5q151 0 151 -178v-156h-424v88zM923 1082
v51q0 54 -18 80.5t-61 26.5q-48 0 -84.5 -32.5t-65.5 -104.5v-21h229z" />
    <glyph glyph-name="uni0629" unicode="&#x629;" horiz-adv-x="1223" arabic-form="isolated" 
d="M608 -20q-226 0 -350.5 123.5t-124.5 351.5q0 150 62.5 280t173 204.5t245.5 74.5q127 0 237.5 -76.5t174.5 -208.5t64 -274q0 -232 -121.5 -353.5t-360.5 -121.5zM612 137q293 0 293 316q0 186 -78 294.5t-217 108.5q-125 0 -209 -112t-84 -291q0 -316 295 -316z
M408 1188q-48 0 -81.5 29t-33.5 94t33.5 94t81.5 29q52 0 83 -31.5t31 -91.5q0 -59 -30.5 -91t-83.5 -32zM762 1188q-53 0 -84 32t-31 91t30.5 91t84.5 32q55 0 85 -33.5t30 -89.5t-30 -89.5t-85 -33.5z" />
    <glyph glyph-name="uni0629.fina" unicode="&#x629;" horiz-adv-x="1227" arabic-form="final" 
d="M653 0q-246 0 -383 124.5t-137 348.5q0 242 152 381t409 139h135v129h175v-962h233q10 0 10 -8v-142q0 -10 -10 -10h-584zM829 160v674h-129q-184 0 -284.5 -94.5t-100.5 -264.5q0 -153 87 -234t247 -81h180zM547 1311q-48 0 -81.5 29t-33.5 94t33.5 94t81.5 29
q52 0 83 -31.5t31 -91.5q0 -59 -30.5 -91t-83.5 -32zM901 1311q-53 0 -84 32t-31 91t30.5 91t84.5 32q55 0 85 -33.5t30 -89.5t-30 -89.5t-85 -33.5z" />
    <glyph glyph-name="uni0686.init" unicode="&#x686;" horiz-adv-x="1188" arabic-form="initial" 
d="M-10 0q-10 0 -10 10v142q0 8 10 8h878q-75 75 -129 375q-30 177 -87 248t-171 71q-142 0 -297 -82l-71 141q88 57 177.5 79t192.5 22q125 0 209 -45t133.5 -133.5t75.5 -253.5q30 -183 67.5 -282.5t86.5 -143.5v-156h-1065zM489 -688q-46 0 -76 26.5t-30 86.5q0 58 30 85
t76 27q43 0 74.5 -27t31.5 -85q0 -60 -31.5 -86.5t-74.5 -26.5zM313 -438q-48 0 -81.5 29t-33.5 94q0 64 33.5 93t81.5 29q54 0 84.5 -33t30.5 -89t-30 -89.5t-85 -33.5zM667 -438q-53 0 -84 32t-31 91q0 58 31 90t84 32q54 0 84.5 -33t30.5 -89t-30 -89.5t-85 -33.5z" />
    <glyph glyph-name="uni0686.medi" unicode="&#x686;" horiz-adv-x="1176" arabic-form="medial" 
d="M-10 0q-10 0 -10 10v142q0 8 10 8h878q-79 79 -129 375q-29 174 -87 246.5t-171 72.5q-142 0 -297 -82l-71 141q88 57 177.5 79t192.5 22q125 0 209 -45t133.5 -133.5t75.5 -253.5q47 -321 148 -422h137q10 0 10 -8v-142q0 -10 -10 -10h-1196zM489 -688q-46 0 -76 26.5
t-30 86.5q0 58 30 85t76 27q43 0 74.5 -27t31.5 -85q0 -60 -31.5 -86.5t-74.5 -26.5zM313 -438q-48 0 -81.5 29t-33.5 94q0 64 33.5 93t81.5 29q54 0 84.5 -33t30.5 -89t-30 -89.5t-85 -33.5zM667 -438q-53 0 -84 32t-31 91q0 58 31 90t84 32q54 0 84.5 -33t30.5 -89
t-30 -89.5t-85 -33.5z" />
    <glyph glyph-name="uni062C" unicode="&#x62c;" horiz-adv-x="1319" arabic-form="isolated" 
d="M1077 25q-55 44 -94 85t-68 95q-343 -93 -489.5 -201t-146.5 -250q0 -131 76 -192.5t237 -61.5q103 0 301 33l22 -141q-145 -31 -230 -40t-167 -9q-198 0 -312 103.5t-114 291.5q0 129 75 237t236 197.5t457 177.5q-16 54 -39 185q-27 162 -100.5 240.5t-198.5 78.5
q-73 0 -176 -29.5t-182 -72.5l-72 141q79 51 198 86t234 35q392 0 459 -432q25 -160 73 -260.5t130 -155.5zM614 -349q-53 0 -84 32t-31 91t30.5 91t84.5 32q55 0 85 -33.5t30 -89.5t-30 -89.5t-85 -33.5z" />
    <glyph glyph-name="uni062C.init" unicode="&#x62c;" horiz-adv-x="1188" arabic-form="initial" 
d="M-10 0q-10 0 -10 10v142q0 8 10 8h878q-75 75 -129 375q-30 177 -87 248t-171 71q-142 0 -297 -82l-71 141q88 57 177.5 79t192.5 22q125 0 209 -45t133.5 -133.5t75.5 -253.5q30 -183 67.5 -282.5t86.5 -143.5v-156h-1065zM477 -410q-53 0 -84 32t-31 91t30.5 91
t84.5 32q55 0 85 -33.5t30 -89.5t-30 -89.5t-85 -33.5z" />
    <glyph glyph-name="uni062C.medi" unicode="&#x62c;" horiz-adv-x="1176" arabic-form="medial" 
d="M-10 0q-10 0 -10 10v142q0 8 10 8h878q-79 79 -129 375q-29 174 -87 246.5t-171 72.5q-142 0 -297 -82l-71 141q88 57 177.5 79t192.5 22q125 0 209 -45t133.5 -133.5t75.5 -253.5q47 -321 148 -422h137q10 0 10 -8v-142q0 -10 -10 -10h-1196zM477 -410q-53 0 -84 32
t-31 91t30.5 91t84.5 32q55 0 85 -33.5t30 -89.5t-30 -89.5t-85 -33.5z" />
    <glyph glyph-name="uni062C.fina" unicode="&#x62c;" horiz-adv-x="1257" arabic-form="final" 
d="M518 -657q-198 0 -312 103.5t-114 291.5q0 130 77 239t241 199t452 174q-22 70 -41 185q-27 162 -100.5 240.5t-198.5 78.5q-73 0 -176 -29.5t-182 -72.5l-72 141q79 51 198 86t234 35q392 0 459 -432q32 -196 63 -271t81 -113t130 -38h11q10 0 10 -8v-142q0 -10 -10 -10
h-11q-112 0 -195.5 48.5t-141.5 156.5q-245 -67 -380 -133.5t-198 -145.5t-63 -172q0 -131 76 -192.5t237 -61.5q103 0 301 33l22 -141q-145 -31 -230 -40t-167 -9zM614 -349q-53 0 -84 32t-31 91t30.5 91t84.5 32q55 0 85 -33.5t30 -89.5t-30 -89.5t-85 -33.5z" />
    <glyph glyph-name="uni062E" unicode="&#x62e;" horiz-adv-x="1319" arabic-form="isolated" 
d="M1077 25q-55 44 -94 85t-68 95q-343 -93 -489.5 -201t-146.5 -250q0 -131 76 -192.5t237 -61.5q103 0 301 33l22 -141q-145 -31 -230 -40t-167 -9q-198 0 -312 103.5t-114 291.5q0 129 75 237t236 197.5t457 177.5q-16 54 -39 185q-27 162 -100.5 240.5t-198.5 78.5
q-73 0 -176 -29.5t-182 -72.5l-72 141q79 51 198 86t234 35q392 0 459 -432q25 -160 73 -260.5t130 -155.5zM506 1188q-53 0 -84 32t-31 91t30.5 91t84.5 32q55 0 85 -33.5t30 -89.5t-30 -89.5t-85 -33.5z" />
    <glyph glyph-name="uni062E.init" unicode="&#x62e;" horiz-adv-x="1188" arabic-form="initial" 
d="M-10 0q-10 0 -10 10v142q0 8 10 8h878q-75 75 -129 375q-30 177 -87 248t-171 71q-142 0 -297 -82l-71 141q88 57 177.5 79t192.5 22q125 0 209 -45t133.5 -133.5t75.5 -253.5q30 -183 67.5 -282.5t86.5 -143.5v-156h-1065zM506 1188q-53 0 -84 32t-31 91t30.5 91
t84.5 32q55 0 85 -33.5t30 -89.5t-30 -89.5t-85 -33.5z" />
    <glyph glyph-name="uni062E.medi" unicode="&#x62e;" horiz-adv-x="1176" arabic-form="medial" 
d="M-10 0q-10 0 -10 10v142q0 8 10 8h878q-79 79 -129 375q-29 174 -87 246.5t-171 72.5q-142 0 -297 -82l-71 141q88 57 177.5 79t192.5 22q125 0 209 -45t133.5 -133.5t75.5 -253.5q47 -321 148 -422h137q10 0 10 -8v-142q0 -10 -10 -10h-1196zM506 1188q-53 0 -84 32
t-31 91t30.5 91t84.5 32q55 0 85 -33.5t30 -89.5t-30 -89.5t-85 -33.5z" />
    <glyph glyph-name="uni062E.fina" unicode="&#x62e;" horiz-adv-x="1257" arabic-form="final" 
d="M518 -657q-198 0 -312 103.5t-114 291.5q0 130 77 239t241 199t452 174q-22 70 -41 185q-27 162 -100.5 240.5t-198.5 78.5q-73 0 -176 -29.5t-182 -72.5l-72 141q79 51 198 86t234 35q392 0 459 -432q32 -196 63 -271t81 -113t130 -38h11q10 0 10 -8v-142q0 -10 -10 -10
h-11q-112 0 -195.5 48.5t-141.5 156.5q-245 -67 -380 -133.5t-198 -145.5t-63 -172q0 -131 76 -192.5t237 -61.5q103 0 301 33l22 -141q-145 -31 -230 -40t-167 -9zM506 1188q-53 0 -84 32t-31 91t30.5 91t84.5 32q55 0 85 -33.5t30 -89.5t-30 -89.5t-85 -33.5z" />
    <glyph glyph-name="uni0630" unicode="&#x630;" horiz-adv-x="1042" arabic-form="isolated" 
d="M92 160h682q-40 275 -153 468.5t-322 334.5l66 155q236 -123 384.5 -365t200.5 -597v-156h-858v160zM371 1307q-53 0 -84 32t-31 91t30.5 91t84.5 32q55 0 85 -33.5t30 -89.5t-30 -89.5t-85 -33.5z" />
    <glyph glyph-name="uni0630.fina" unicode="&#x630;" horiz-adv-x="1165" arabic-form="final" 
d="M92 160h682q-40 275 -153 468.5t-322 334.5l66 155q236 -125 384.5 -367t198.5 -591h228q10 0 10 -8v-142q0 -10 -10 -10h-1084v160zM371 1307q-53 0 -84 32t-31 91t30.5 91t84.5 32q55 0 85 -33.5t30 -89.5t-30 -89.5t-85 -33.5z" />
    <glyph glyph-name="uni0688" unicode="&#x688;" horiz-adv-x="1042" arabic-form="isolated" 
d="M92 160h682q-40 275 -153 468.5t-322 334.5l66 155q236 -123 384.5 -365t200.5 -597v-156h-858v160zM178 1386h31v373h82v-260q25 60 62.5 96.5t97.5 36.5q151 0 151 -178v-156h-424v88zM520 1386v51q0 54 -18 80.5t-61 26.5q-48 0 -84.5 -32.5t-65.5 -104.5v-21h229z
" />
    <glyph glyph-name="uni0688.fina" unicode="&#x688;" horiz-adv-x="1165" arabic-form="final" 
d="M92 160h682q-40 275 -153 468.5t-322 334.5l66 155q236 -125 384.5 -367t198.5 -591h228q10 0 10 -8v-142q0 -10 -10 -10h-1084v160zM178 1386h31v373h82v-260q25 60 62.5 96.5t97.5 36.5q151 0 151 -178v-156h-424v88zM520 1386v51q0 54 -18 80.5t-61 26.5
q-48 0 -84.5 -32.5t-65.5 -104.5v-21h229z" />
    <glyph glyph-name="uni0632" unicode="&#x632;" horiz-adv-x="666" arabic-form="isolated" 
d="M127 -492q-98 0 -209 58l53 137q50 -22 82 -28.5t70 -6.5q92 0 144 75t52 198v1052h173v-1042q0 -207 -94 -325t-271 -118zM395 1188q-53 0 -84 32t-31 91t30.5 91t84.5 32q55 0 85 -33.5t30 -89.5t-30 -89.5t-85 -33.5z" />
    <glyph glyph-name="uni0632.fina" unicode="&#x632;" horiz-adv-x="735" arabic-form="final" 
d="M492 0v-49q0 -207 -94 -325t-271 -118q-98 0 -209 58l53 137q50 -22 82 -28.5t70 -6.5q92 0 144 75t52 198v1052h173v-833h253q11 0 11 -8v-142q0 -10 -11 -10h-253zM436 1188q-53 0 -84 32t-31 91t30.5 91t84.5 32q55 0 85 -33.5t30 -89.5t-30 -89.5t-85 -33.5z" />
    <glyph glyph-name="uni0691" unicode="&#x691;" horiz-adv-x="666" arabic-form="isolated" 
d="M127 -492q-98 0 -209 58l53 137q50 -22 82 -28.5t70 -6.5q92 0 144 75t52 198v1052h173v-1042q0 -207 -94 -325t-271 -118zM186 1292h31v373h82v-260q25 60 62.5 96.5t97.5 36.5q151 0 151 -178v-156h-424v88zM528 1292v51q0 54 -18 80.5t-61 26.5q-48 0 -84.5 -32.5
t-65.5 -104.5v-21h229z" />
    <glyph glyph-name="uni0691.fina" unicode="&#x691;" horiz-adv-x="735" arabic-form="final" 
d="M492 0v-49q0 -207 -94 -325t-271 -118q-98 0 -209 58l53 137q50 -22 82 -28.5t70 -6.5q92 0 144 75t52 198v1052h173v-833h253q11 0 11 -8v-142q0 -10 -11 -10h-253zM227 1292h31v373h82v-260q25 60 62.5 96.5t97.5 36.5q151 0 151 -178v-156h-424v88zM569 1292v51
q0 54 -18 80.5t-61 26.5q-48 0 -84.5 -32.5t-65.5 -104.5v-21h229z" />
    <glyph glyph-name="uni0698" unicode="&#x698;" horiz-adv-x="666" arabic-form="isolated" 
d="M127 -492q-98 0 -209 58l53 137q50 -22 82 -28.5t70 -6.5q92 0 144 75t52 198v1052h173v-1042q0 -207 -94 -325t-271 -118zM403 1464q-46 0 -76 26.5t-30 86.5q0 59 30 86t76 27q43 0 74.5 -27.5t31.5 -85.5q0 -60 -31.5 -86.5t-74.5 -26.5zM227 1188q-48 0 -81.5 29
t-33.5 94t33.5 94t81.5 29q55 0 85 -33.5t30 -89.5t-30 -89.5t-85 -33.5zM581 1188q-53 0 -84 32t-31 91t30.5 91t84.5 32q55 0 85 -33.5t30 -89.5t-30 -89.5t-85 -33.5z" />
    <glyph glyph-name="uni0698.fina" unicode="&#x698;" horiz-adv-x="735" arabic-form="final" 
d="M492 0v-49q0 -207 -94 -325t-271 -118q-98 0 -209 58l53 137q50 -22 82 -28.5t70 -6.5q92 0 144 75t52 198v1052h173v-833h253q11 0 11 -8v-142q0 -10 -11 -10h-253zM444 1464q-46 0 -76 26.5t-30 86.5q0 59 30 86t76 27q43 0 74.5 -27.5t31.5 -85.5q0 -60 -31.5 -86.5
t-74.5 -26.5zM268 1188q-48 0 -81.5 29t-33.5 94t33.5 94t81.5 29q55 0 85 -33.5t30 -89.5t-30 -89.5t-85 -33.5zM622 1188q-53 0 -84 32t-31 91t30.5 91t84.5 32q55 0 85 -33.5t30 -89.5t-30 -89.5t-85 -33.5z" />
    <glyph glyph-name="uni0634" unicode="&#x634;" horiz-adv-x="2544" arabic-form="isolated" 
d="M2071 0q-92 0 -169.5 30.5t-160.5 110.5q-47 -63 -122 -102t-177 -39h-240q0 -242 -123 -367t-387 -125h-147q-190 0 -301 140t-111 385q0 126 22 255.5t62 227.5h170q-70 -177 -70 -483q0 -175 70 -270t197 -95h100q178 0 261 81t83 245v840h174v-674h221q99 0 154 65.5
t55 171.5v437h174v-492l-2 -23q51 -89 113 -124t154 -35h124v833h175v-993h-299zM1706 1464q-46 0 -76 26.5t-30 86.5q0 59 30 86t76 27q43 0 74.5 -27.5t31.5 -85.5q0 -60 -31.5 -86.5t-74.5 -26.5zM1530 1188q-48 0 -81.5 29t-33.5 94t33.5 94t81.5 29q55 0 85 -33.5
t30 -89.5t-30 -89.5t-85 -33.5zM1884 1188q-53 0 -84 32t-31 91t30.5 91t84.5 32q55 0 85 -33.5t30 -89.5t-30 -89.5t-85 -33.5z" />
    <glyph glyph-name="uni0634.init" unicode="&#x634;" horiz-adv-x="1798" arabic-form="initial" 
d="M1325 0q-92 0 -169.5 30.5t-160.5 112.5q-45 -63 -120 -103t-179 -40h-706q-10 0 -10 10v142q0 8 10 8h293v674h174v-674h221q99 0 154 65.5t55 171.5v437h174v-492l-2 -23q51 -88 111.5 -123.5t154.5 -35.5h125v833h174v-993h-299zM971 1464q-46 0 -76 26.5t-30 86.5
q0 59 30 86t76 27q43 0 74.5 -27.5t31.5 -85.5q0 -60 -31.5 -86.5t-74.5 -26.5zM795 1188q-48 0 -81.5 29t-33.5 94t33.5 94t81.5 29q55 0 85 -33.5t30 -89.5t-30 -89.5t-85 -33.5zM1149 1188q-53 0 -84 32t-31 91t30.5 91t84.5 32q55 0 85 -33.5t30 -89.5t-30 -89.5
t-85 -33.5z" />
    <glyph glyph-name="uni0634.medi" unicode="&#x634;" horiz-adv-x="1888" arabic-form="medial" 
d="M1325 0q-92 0 -169.5 30.5t-160.5 112.5q-45 -63 -120 -103t-179 -40h-706q-10 0 -10 10v142q0 8 10 8h293v674h174v-674h221q99 0 154 65.5t55 171.5v437h174v-492l-2 -23q51 -88 111.5 -123.5t154.5 -35.5h125v833h174v-833h274q11 0 11 -8v-142q0 -10 -11 -10h-573z
M973 1464q-46 0 -76 26.5t-30 86.5q0 59 30 86t76 27q43 0 74.5 -27.5t31.5 -85.5q0 -60 -31.5 -86.5t-74.5 -26.5zM797 1188q-48 0 -81.5 29t-33.5 94t33.5 94t81.5 29q55 0 85 -33.5t30 -89.5t-30 -89.5t-85 -33.5zM1151 1188q-53 0 -84 32t-31 91t30.5 91t84.5 32
q55 0 85 -33.5t30 -89.5t-30 -89.5t-85 -33.5z" />
    <glyph glyph-name="uni0634.fina" unicode="&#x634;" horiz-adv-x="2634" arabic-form="final" 
d="M2071 0q-92 0 -169.5 30.5t-160.5 110.5q-47 -63 -122 -102t-177 -39h-240q0 -242 -123 -367t-387 -125h-147q-190 0 -301 140t-111 385q0 126 22 255.5t62 227.5h170q-70 -177 -70 -483q0 -175 70 -270t197 -95h100q178 0 261 81t83 245v840h174v-674h221q99 0 154 65.5
t55 171.5v437h174v-492l-2 -23q51 -89 113 -124t154 -35h124v833h175v-833h274q10 0 10 -8v-142q0 -10 -10 -10h-573zM1716 1464q-46 0 -76 26.5t-30 86.5q0 59 30 86t76 27q43 0 74.5 -27.5t31.5 -85.5q0 -60 -31.5 -86.5t-74.5 -26.5zM1540 1188q-48 0 -81.5 29t-33.5 94
t33.5 94t81.5 29q55 0 85 -33.5t30 -89.5t-30 -89.5t-85 -33.5zM1894 1188q-53 0 -84 32t-31 91t30.5 91t84.5 32q55 0 85 -33.5t30 -89.5t-30 -89.5t-85 -33.5z" />
    <glyph glyph-name="uni0636" unicode="&#x636;" horiz-adv-x="2392" arabic-form="isolated" 
d="M545 -492q-190 0 -301 140t-111 385q0 126 22 255.5t62 227.5h170q-70 -177 -70 -483q0 -175 70 -270t197 -95h100q178 0 261 81t83 245v999h174v-440q96 229 241 345t326 116q232 0 350.5 -126t118.5 -394v-494h-1036q0 -248 -123 -370t-387 -122h-147zM2064 160v325
q0 189 -82 278t-249 89q-317 0 -531 -520v-172h862zM1726 1188q-53 0 -84 32t-31 91t30.5 91t84.5 32q55 0 85 -33.5t30 -89.5t-30 -89.5t-85 -33.5z" />
    <glyph glyph-name="uni0636.init" unicode="&#x636;" horiz-adv-x="1604" arabic-form="initial" 
d="M-10 0q-10 0 -10 10v142q0 8 10 8h250v772h174v-379q96 229 241 345t326 116q232 0 350.5 -126t118.5 -394v-494h-1460zM1276 160v325q0 189 -82.5 278t-249.5 89q-315 0 -530 -524v-168h862zM924 1188q-53 0 -84 32t-31 91t30.5 91t84.5 32q55 0 85 -33.5t30 -89.5
t-30 -89.5t-85 -33.5z" />
    <glyph glyph-name="uni0636.medi" unicode="&#x636;" horiz-adv-x="1710" arabic-form="medial" 
d="M-10 0q-10 0 -10 10v142q0 8 10 8h250v772h174v-379q96 229 241 345t326 116q232 0 350.5 -126t118.5 -394v-334h270q11 0 11 -8v-142q0 -10 -11 -10h-1730zM1276 160v325q0 189 -82.5 278t-249.5 89q-315 0 -530 -524v-168h862zM926 1188q-53 0 -84 32t-31 91t30.5 91
t84.5 32q55 0 85 -33.5t30 -89.5t-30 -89.5t-85 -33.5z" />
    <glyph glyph-name="uni0636.fina" unicode="&#x636;" horiz-adv-x="2503" arabic-form="final" 
d="M1202 0q0 -248 -123 -370t-387 -122h-147q-190 0 -301 140t-111 385q0 126 22 255.5t62 227.5h170q-70 -177 -70 -483q0 -175 70 -270t197 -95h100q178 0 261 81t83 245v999h174v-440q96 229 241 345t326 116q232 0 350.5 -126t118.5 -394v-334h275q10 0 10 -8v-142
q0 -10 -10 -10h-1311zM2064 160v325q0 189 -82 278t-249 89q-317 0 -531 -520v-172h862zM1726 1188q-53 0 -84 32t-31 91t30.5 91t84.5 32q55 0 85 -33.5t30 -89.5t-30 -89.5t-85 -33.5z" />
    <glyph glyph-name="uni0638" unicode="&#x638;" horiz-adv-x="1645" arabic-form="isolated" 
d="M51 0q-10 0 -10 10v142q0 8 10 8h250v1396h174v-1003q96 229 241 345t326 116q232 0 350.5 -126t118.5 -394v-494h-1460zM1337 160v325q0 189 -82 278t-249 89q-155 0 -289 -130.5t-242 -393.5v-168h862zM999 1188q-53 0 -84 32t-31 91t30.5 91t84.5 32q55 0 85 -33.5
t30 -89.5t-30 -89.5t-85 -33.5z" />
    <glyph glyph-name="uni0638.init" unicode="&#x638;" horiz-adv-x="1583" arabic-form="initial" 
d="M-10 0q-10 0 -10 10v142q0 8 10 8h250v1396h174v-1003q96 229 241 345t326 116q232 0 350.5 -126t118.5 -394v-494h-1460zM1276 160v325q0 189 -82.5 278t-249.5 89q-315 0 -530 -524v-168h862zM938 1188q-53 0 -84 32t-31 91t30.5 91t84.5 32q55 0 85 -33.5t30 -89.5
t-30 -89.5t-85 -33.5z" />
    <glyph glyph-name="uni0638.medi" unicode="&#x638;" horiz-adv-x="1710" arabic-form="medial" 
d="M-10 0q-10 0 -10 10v142q0 8 10 8h250v1396h174v-1003q96 229 241 345t326 116q232 0 350.5 -126t118.5 -394v-334h270q11 0 11 -8v-142q0 -10 -11 -10h-1730zM1276 160v325q0 189 -82.5 278t-249.5 89q-315 0 -530 -524v-168h862zM938 1188q-53 0 -84 32t-31 91t30.5 91
t84.5 32q55 0 85 -33.5t30 -89.5t-30 -89.5t-85 -33.5z" />
    <glyph glyph-name="uni0638.fina" unicode="&#x638;" horiz-adv-x="1731" arabic-form="final" 
d="M61 160h199v1396h174v-1003q96 229 241 345t326 116q232 0 350.5 -126t118.5 -394v-334h271q10 0 10 -8v-142q0 -10 -10 -10h-1680v160zM1296 160v325q0 189 -82 278t-249 89q-155 0 -289 -130.5t-242 -393.5v-168h862zM938 1188q-53 0 -84 32t-31 91t30.5 91t84.5 32
q55 0 85 -33.5t30 -89.5t-30 -89.5t-85 -33.5z" />
    <glyph glyph-name="uni063A" unicode="&#x63a;" horiz-adv-x="1096" arabic-form="isolated" 
d="M559 -657q-198 0 -312 103.5t-114 291.5q0 227 264 403q-182 159 -182 408q0 142 65 247t180.5 161.5t258.5 56.5q88 0 162.5 -17.5t122.5 -42.5l-56 -153q-127 53 -239 53q-147 0 -227.5 -78.5t-80.5 -224.5q0 -106 33.5 -194.5t91.5 -139.5q171 85 353 139l49 -151
q-181 -45 -325.5 -118.5t-214 -157.5t-69.5 -175q0 -132 77 -193t237 -61q103 0 301 33l22 -141q-145 -31 -230 -40t-167 -9zM625 1188q-53 0 -84 32t-31 91t30.5 91t84.5 32q55 0 85 -33.5t30 -89.5t-30 -89.5t-85 -33.5z" />
    <glyph glyph-name="uni063A.init" unicode="&#x63a;" horiz-adv-x="1055" arabic-form="initial" 
d="M-10 0q-10 0 -10 10v142q0 8 10 8h315q-65 55 -105 151t-40 213q0 231 132.5 360.5t354.5 129.5q88 0 162.5 -17.5t122.5 -42.5l-55 -153q-127 53 -240 53q-291 0 -291 -338q0 -159 69.5 -257.5t182.5 -98.5h365v-160h-973zM592 1188q-53 0 -84 32t-31 91t30.5 91
t84.5 32q55 0 85 -33.5t30 -89.5t-30 -89.5t-85 -33.5z" />
    <glyph glyph-name="uni063A.medi" unicode="&#x63a;" horiz-adv-x="1217" arabic-form="medial" 
d="M987 0q-86 0 -185 25.5t-194 76.5q-180 -102 -381 -102h-237q-10 0 -10 10v142q0 8 10 8h235q147 0 244 41q-79 57 -161.5 164.5t-140 232t-75.5 236.5q112 105 252.5 165t286.5 60q129 0 260 -41t229 -109q0 -212 -98 -400t-270 -306q114 -43 227 -43h248q10 0 10 -8
v-142q0 -10 -10 -10h-240zM610 293q158 107 235 235t87 295q-143 76 -295 76q-174 0 -348 -119q31 -140 116 -268t205 -219zM584 1270q-53 0 -84 32t-31 91t30.5 91t84.5 32q55 0 85 -33.5t30 -89.5t-30 -89.5t-85 -33.5z" />
    <glyph glyph-name="uni063A.fina" unicode="&#x63a;" horiz-adv-x="1257" arabic-form="final" 
d="M193 -262q0 128 74 241.5t237 225.5q-145 139 -247 310.5t-124 318.5q112 105 252.5 165t286.5 60q129 0 260 -41t229 -109q-4 -197 -99 -379.5t-274 -322.5q111 -47 232 -47h248q10 0 10 -8v-142q0 -10 -10 -10h-240q-78 0 -188 31t-197 78q-146 -93 -205 -177.5
t-59 -177.5q0 -131 76 -192.5t237 -61.5q81 0 155 10.5t146 22.5l23 -141q-148 -31 -228 -40t-170 -9q-198 0 -311.5 104t-113.5 291zM330 780q25 -118 110 -250t205 -231q157 108 236.5 235t91.5 289q-143 76 -295 76q-174 0 -348 -119zM625 1270q-53 0 -84 32t-31 91
t30.5 91t84.5 32q55 0 85 -33.5t30 -89.5t-30 -89.5t-85 -33.5z" />
    <glyph glyph-name="uni06A9.init" unicode="&#x6a9;" horiz-adv-x="1180" arabic-form="initial" 
d="M-10 0q-10 0 -10 10v142q0 8 10 8h862v377q0 153 -92 225t-285 72h-348v167q66 138 182 271.5t259.5 238t279.5 156.5l65 -156q-188 -74 -368 -224.5t-248 -293.5h178q268 0 409.5 -110t141.5 -316v-567h-1036z" />
    <glyph glyph-name="uni06A9.medi" unicode="&#x6a9;" horiz-adv-x="1282" arabic-form="medial" 
d="M-10 0q-10 0 -10 10v142q0 8 10 8h862v377q0 153 -92 225t-285 72h-348v167q66 138 182 271.5t259.5 238t279.5 156.5l65 -156q-188 -74 -368 -224.5t-248 -293.5h178q268 0 409.5 -110t141.5 -316v-407h266q11 0 11 -8v-142q0 -10 -11 -10h-1302z" />
    <glyph glyph-name="uni0641" unicode="&#x641;" horiz-adv-x="2073" arabic-form="isolated" 
d="M516 0q-177 0 -280 106.5t-103 290.5q0 68 14.5 157t36.5 151h164q-31 -148 -31 -293q0 -112 53 -182t140 -70h666q-48 52 -77.5 137t-29.5 172q0 240 150.5 382t410.5 142h268v-993h-1382zM1724 160v674h-88q-182 0 -283.5 -95t-101.5 -268q0 -311 281 -311h192z
M1511 1188q-53 0 -84 32t-31 91t30.5 91t84.5 32q55 0 85 -33.5t30 -89.5t-30 -89.5t-85 -33.5z" />
    <glyph glyph-name="uni0641.init" unicode="&#x641;" horiz-adv-x="1198" arabic-form="initial" 
d="M850 160v674h-88q-182 0 -283.5 -95t-101.5 -268q0 -311 280 -311h193zM-10 0q-10 0 -10 10v142q0 8 10 8h311q-52 59 -79 143t-27 166q0 240 150.5 382t410.5 142h268v-993h-1034zM635 1188q-53 0 -84 32t-31 91t30.5 91t84.5 32q55 0 85 -33.5t30 -89.5t-30 -89.5
t-85 -33.5z" />
    <glyph glyph-name="uni0641.medi" unicode="&#x641;" horiz-adv-x="1231" arabic-form="medial" 
d="M850 160v674h-88q-183 0 -284 -96.5t-101 -268.5q0 -309 280 -309h193zM-10 0q-10 0 -10 10v142q0 8 10 8h311q-52 59 -79 143t-27 166q0 244 151.5 384t409.5 140h268v-833h217q6 0 9 -5l1 -5v-142q0 -8 -10 -8h-1251zM653 1188q-53 0 -84 32t-31 91t30.5 91t84.5 32
q55 0 85 -33.5t30 -89.5t-30 -89.5t-85 -33.5z" />
    <glyph glyph-name="uni0641.fina" unicode="&#x641;" horiz-adv-x="2114" arabic-form="final" 
d="M1724 160v674h-88q-182 0 -283.5 -95t-101.5 -268q0 -311 281 -311h192zM516 0q-177 0 -280 106.5t-103 290.5q0 68 14.5 157t36.5 151h164q-31 -148 -31 -293q0 -112 53 -182t140 -70h666q-48 52 -77.5 137t-29.5 172q0 240 150.5 382t410.5 142h268v-833h226
q10 0 10 -8v-142q0 -10 -10 -10h-1608zM1511 1188q-53 0 -84 32t-31 91t30.5 91t84.5 32q55 0 85 -33.5t30 -89.5t-30 -89.5t-85 -33.5z" />
    <glyph glyph-name="veh.isol" unicode="&#x6a4;" horiz-adv-x="2073" arabic-form="isolated" 
d="M516 0q-177 0 -280 106.5t-103 290.5q0 68 14.5 157t36.5 151h164q-31 -148 -31 -293q0 -112 53 -182t140 -70h666q-48 52 -77.5 137t-29.5 172q0 240 150.5 382t410.5 142h268v-993h-1382zM1724 160v674h-88q-182 0 -283.5 -95t-101.5 -268q0 -311 281 -311h192z
M1505 1464q-46 0 -76 26.5t-30 86.5q0 59 30 86t76 27q43 0 74.5 -27.5t31.5 -85.5q0 -60 -31.5 -86.5t-74.5 -26.5zM1329 1188q-48 0 -81.5 29t-33.5 94t33.5 94t81.5 29q55 0 85 -33.5t30 -89.5t-30 -89.5t-85 -33.5zM1683 1188q-53 0 -84 32t-31 91t30.5 91t84.5 32
q55 0 85 -33.5t30 -89.5t-30 -89.5t-85 -33.5z" />
    <glyph glyph-name="veh.init" unicode="&#x6a4;" horiz-adv-x="1198" arabic-form="initial" 
d="M850 160v674h-88q-182 0 -283.5 -95t-101.5 -268q0 -311 280 -311h193zM-10 0q-10 0 -10 10v142q0 8 10 8h311q-52 59 -79 143t-27 166q0 240 150.5 382t410.5 142h268v-993h-1034zM678 1464q-46 0 -76 26.5t-30 86.5q0 59 30 86t76 27q43 0 74.5 -27.5t31.5 -85.5
q0 -60 -31.5 -86.5t-74.5 -26.5zM502 1188q-48 0 -81.5 29t-33.5 94t33.5 94t81.5 29q55 0 85 -33.5t30 -89.5t-30 -89.5t-85 -33.5zM856 1188q-53 0 -84 32t-31 91t30.5 91t84.5 32q55 0 85 -33.5t30 -89.5t-30 -89.5t-85 -33.5z" />
    <glyph glyph-name="veh.medi" unicode="&#x6a4;" horiz-adv-x="1231" arabic-form="medial" 
d="M850 160v674h-88q-183 0 -284 -96.5t-101 -268.5q0 -309 280 -309h193zM-10 0q-10 0 -10 10v142q0 8 10 8h311q-52 59 -79 143t-27 166q0 244 151.5 384t409.5 140h268v-833h217q6 0 9 -5l1 -5v-142q0 -8 -10 -8h-1251zM678 1464q-46 0 -76 26.5t-30 86.5q0 59 30 86
t76 27q43 0 74.5 -27.5t31.5 -85.5q0 -60 -31.5 -86.5t-74.5 -26.5zM502 1188q-48 0 -81.5 29t-33.5 94t33.5 94t81.5 29q55 0 85 -33.5t30 -89.5t-30 -89.5t-85 -33.5zM856 1188q-53 0 -84 32t-31 91t30.5 91t84.5 32q55 0 85 -33.5t30 -89.5t-30 -89.5t-85 -33.5z" />
    <glyph glyph-name="veh.fina" unicode="&#x6a4;" horiz-adv-x="2114" arabic-form="final" 
d="M1724 160v674h-88q-182 0 -283.5 -95t-101.5 -268q0 -311 281 -311h192zM516 0q-177 0 -280 106.5t-103 290.5q0 68 14.5 157t36.5 151h164q-31 -148 -31 -293q0 -112 53 -182t140 -70h666q-48 52 -77.5 137t-29.5 172q0 240 150.5 382t410.5 142h268v-833h226
q10 0 10 -8v-142q0 -10 -10 -10h-1608zM1505 1464q-46 0 -76 26.5t-30 86.5q0 59 30 86t76 27q43 0 74.5 -27.5t31.5 -85.5q0 -60 -31.5 -86.5t-74.5 -26.5zM1329 1188q-48 0 -81.5 29t-33.5 94t33.5 94t81.5 29q55 0 85 -33.5t30 -89.5t-30 -89.5t-85 -33.5zM1683 1188
q-53 0 -84 32t-31 91t30.5 91t84.5 32q55 0 85 -33.5t30 -89.5t-30 -89.5t-85 -33.5z" />
    <glyph glyph-name="uni0642.init" unicode="&#x642;" horiz-adv-x="1198" arabic-form="initial" 
d="M850 160v674h-88q-182 0 -283.5 -95t-101.5 -268q0 -311 280 -311h193zM-10 0q-10 0 -10 10v142q0 8 10 8h311q-52 59 -79 143t-27 166q0 240 150.5 382t410.5 142h268v-993h-1034zM510 1188q-48 0 -81.5 29t-33.5 94t33.5 94t81.5 29q52 0 83 -31.5t31 -91.5
q0 -59 -30.5 -91t-83.5 -32zM864 1188q-53 0 -84 32t-31 91t30.5 91t84.5 32q55 0 85 -33.5t30 -89.5t-30 -89.5t-85 -33.5z" />
    <glyph glyph-name="uni0642.medi" unicode="&#x642;" horiz-adv-x="1231" arabic-form="medial" 
d="M850 160v674h-88q-183 0 -284 -96.5t-101 -268.5q0 -309 280 -309h193zM-10 0q-10 0 -10 10v142q0 8 10 8h311q-52 59 -79 143t-27 166q0 244 151.5 384t409.5 140h268v-833h217q6 0 9 -5l1 -5v-142q0 -8 -10 -8h-1251zM510 1188q-48 0 -81.5 29t-33.5 94t33.5 94
t81.5 29q52 0 83 -31.5t31 -91.5q0 -59 -30.5 -91t-83.5 -32zM864 1188q-53 0 -84 32t-31 91t30.5 91t84.5 32q55 0 85 -33.5t30 -89.5t-30 -89.5t-85 -33.5z" />
    <glyph glyph-name="uni0642" unicode="&#x642;" horiz-adv-x="1794" arabic-form="isolated" 
d="M618 -492q-225 0 -355 133t-130 361q0 261 84 483h170q-70 -196 -70 -471q0 -166 88.5 -256t249.5 -90h414q200 0 288.5 77.5t88.5 240.5v14h-189q-227 0 -346.5 120t-119.5 347q0 243 153 384.5t408 141.5h268v-1005q0 -480 -518 -480h-484zM1446 160v674h-88
q-182 0 -283.5 -96t-101.5 -269q0 -160 69.5 -234.5t210.5 -74.5h193zM1100 1188q-48 0 -81.5 29t-33.5 94t33.5 94t81.5 29q52 0 83 -31.5t31 -91.5q0 -59 -30.5 -91t-83.5 -32zM1454 1188q-53 0 -84 32t-31 91t30.5 91t84.5 32q55 0 85 -33.5t30 -89.5t-30 -89.5
t-85 -33.5z" />
    <glyph glyph-name="uni0642.fina" unicode="&#x642;" horiz-adv-x="1835" arabic-form="final" 
d="M1446 160v674h-88q-182 0 -283.5 -96t-101.5 -269q0 -160 69.5 -234.5t210.5 -74.5h193zM1845 160q10 0 10 -8v-142q0 -10 -10 -10h-225v-12q0 -480 -518 -480h-484q-225 0 -355 133t-130 361q0 261 84 483h170q-70 -196 -70 -471q0 -166 88.5 -256t249.5 -90h414
q200 0 288.5 77.5t88.5 240.5v14h-189q-227 0 -346.5 120t-119.5 347q0 243 153 384.5t408 141.5h268v-833h225zM1137 1188q-48 0 -81.5 29t-33.5 94t33.5 94t81.5 29q52 0 83 -31.5t31 -91.5q0 -59 -30.5 -91t-83.5 -32zM1491 1188q-53 0 -84 32t-31 91t30.5 91t84.5 32
q55 0 85 -33.5t30 -89.5t-30 -89.5t-85 -33.5z" />
    <glyph glyph-name="uni0646.init" unicode="&#x646;" horiz-adv-x="616" arabic-form="initial" 
d="M-10 0q-10 0 -10 10v142q0 8 10 8h270v833h182v-993h-452zM350 1188q-53 0 -84 32t-31 91t30.5 91t84.5 32q55 0 85 -33.5t30 -89.5t-30 -89.5t-85 -33.5z" />
    <glyph glyph-name="uni0646.medi" unicode="&#x646;" horiz-adv-x="698" arabic-form="medial" 
d="M-10 0q-10 0 -10 10v142q0 8 10 8h270v833h182v-833h267q10 0 10 -8v-142q0 -10 -10 -10h-719zM344 1188q-53 0 -84 32t-31 91t30.5 91t84.5 32q55 0 85 -33.5t30 -89.5t-30 -89.5t-85 -33.5z" />
    <glyph glyph-name="uni0646" unicode="&#x646;" horiz-adv-x="1376" arabic-form="isolated" 
d="M545 -492q-192 0 -302 133t-110 361q0 245 84 453h170q-70 -177 -70 -441q0 -166 69 -256t198 -90h100q178 0 261 81t83 245v999h174v-985q0 -248 -123 -374t-387 -126h-147zM672 994q-53 0 -84 32t-31 91t30.5 91t84.5 32q55 0 85 -33.5t30 -89.5t-30 -89.5t-85 -33.5z
" />
    <glyph glyph-name="uni0646.fina" unicode="&#x646;" horiz-adv-x="1417" arabic-form="final" 
d="M1202 0q-3 -243 -126 -367.5t-384 -124.5h-147q-192 0 -302 133t-110 361q0 245 84 453h170q-70 -177 -70 -441q0 -166 69 -256t198 -90h100q178 0 261 81t83 247v997h174v-833h225q11 0 11 -8v-142q0 -10 -11 -10h-225zM672 994q-53 0 -84 32t-31 91t30.5 91t84.5 32
q55 0 85 -33.5t30 -89.5t-30 -89.5t-85 -33.5z" />
    <glyph glyph-name="uni06C0" unicode="&#x6c0;" horiz-adv-x="1223" arabic-form="isolated" 
d="M608 -20q-226 0 -350.5 123.5t-124.5 351.5q0 150 62.5 280t173 204.5t245.5 74.5q127 0 237.5 -76.5t174.5 -208.5t64 -274q0 -232 -121.5 -353.5t-360.5 -121.5zM612 137q293 0 293 316q0 186 -78 294.5t-217 108.5q-125 0 -209 -112t-84 -291q0 -316 295 -316z
M352 1267l97 14q-72 47 -72 130q0 88 57.5 136t151.5 48q80 0 135 -31l-31 -92q-41 25 -102 25q-45 0 -76 -25.5t-31 -79.5q0 -35 18 -59.5t44 -36.5q20 5 98 15.5t107 10.5v-100q-16 0 -72.5 -5.5t-208.5 -25.5l-115 -18v94z" />
    <glyph glyph-name="uni06C0.fina" unicode="&#x6c0;" horiz-adv-x="1227" arabic-form="final" 
d="M653 0q-246 0 -383 124.5t-137 348.5q0 242 152 381t409 139h135v129h175v-962h233q10 0 10 -8v-142q0 -10 -10 -10h-584zM829 160v674h-129q-184 0 -284.5 -94.5t-100.5 -264.5q0 -153 87 -234t247 -81h180zM352 1267l97 14q-72 47 -72 130q0 88 57.5 136t151.5 48
q80 0 135 -31l-31 -92q-41 25 -102 25q-45 0 -76 -25.5t-31 -79.5q0 -35 18 -59.5t44 -36.5q20 5 98 15.5t107 10.5v-100q-16 0 -72.5 -5.5t-208.5 -25.5l-115 -18v94z" />
    <glyph glyph-name="uni0624" unicode="&#x624;" horiz-adv-x="1149" arabic-form="isolated" 
d="M502 -492q-209 0 -369 105l82 137q66 -35 136 -58.5t155 -23.5q139 0 218 74.5t79 198.5v59h-201q-218 0 -337.5 120t-119.5 347q0 241 153 383.5t409 142.5h268v-1042q0 -209 -123.5 -326t-349.5 -117zM801 160v674h-88q-182 0 -283.5 -96t-101.5 -269
q0 -160 69.5 -234.5t210.5 -74.5h193zM352 1267l97 14q-72 47 -72 130q0 88 57.5 136t151.5 48q80 0 135 -31l-31 -92q-41 25 -102 25q-45 0 -76 -25.5t-31 -79.5q0 -35 18 -59.5t44 -36.5q20 5 98 15.5t107 10.5v-100q-16 0 -72.5 -5.5t-208.5 -25.5l-115 -18v94z" />
    <glyph glyph-name="uni0624.fina" unicode="&#x624;" horiz-adv-x="1133" arabic-form="final" 
d="M801 160v674h-88q-182 0 -283.5 -96t-101.5 -269q0 -160 69.5 -234.5t210.5 -74.5h193zM975 -49q0 -209 -123.5 -326t-349.5 -117q-209 0 -369 105l82 137q66 -35 136 -58.5t155 -23.5q139 0 218 74.5t79 198.5v59h-201q-218 0 -337.5 120t-119.5 347q0 241 153 383.5
t409 142.5h268v-833h168q10 0 10 -8v-142q0 -10 -10 -10h-168v-49zM352 1267l97 14q-72 47 -72 130q0 88 57.5 136t151.5 48q80 0 135 -31l-31 -92q-41 25 -102 25q-45 0 -76 -25.5t-31 -79.5q0 -35 18 -59.5t44 -36.5q20 5 98 15.5t107 10.5v-100q-16 0 -72.5 -5.5
t-208.5 -25.5l-115 -18v94z" />
    <glyph glyph-name="uni0649.init" unicode="&#x649;" horiz-adv-x="616" arabic-form="initial" 
d="M-10 0q-10 0 -10 10v142q0 8 10 8h270v833h182v-993h-452z" />
    <glyph glyph-name="uni0649.medi" unicode="&#x649;" horiz-adv-x="698" arabic-form="medial" 
d="M-10 0q-10 0 -10 10v142q0 8 10 8h270v833h182v-833h267q10 0 10 -8v-142q0 -10 -10 -10h-719z" />
    <glyph glyph-name="uni064A.init" unicode="&#x64a;" horiz-adv-x="766" arabic-form="initial" 
d="M-10 0q-10 0 -10 10v142q0 8 10 8h393v833h182v-993h-575zM123 -410q-48 0 -81.5 29t-33.5 94t33.5 94t81.5 29q52 0 83 -31.5t31 -91.5q0 -59 -30.5 -91t-83.5 -32zM477 -410q-53 0 -84 32t-31 91t30.5 91t84.5 32q55 0 85 -33.5t30 -89.5t-30 -89.5t-85 -33.5z" />
    <glyph glyph-name="uni064A.medi" unicode="&#x64a;" horiz-adv-x="801" arabic-form="medial" 
d="M-10 0q-10 0 -10 10v142q0 8 10 8h332v833h182v-833h307q10 0 10 -8v-142q0 -10 -10 -10h-821zM242 -410q-48 0 -81.5 29t-33.5 94t33.5 94t81.5 29q52 0 83 -31.5t31 -91.5q0 -59 -30.5 -91t-83.5 -32zM596 -410q-53 0 -84 32t-31 91t30.5 91t84.5 32q55 0 85 -33.5
t30 -89.5t-30 -89.5t-85 -33.5z" />
    <glyph glyph-name="uni064A" unicode="&#x64a;" horiz-adv-x="1718" arabic-form="isolated" 
d="M545 -492q-192 0 -302 133t-110 361q0 107 17.5 193t54.5 176h170q-23 -57 -35.5 -109.5t-17.5 -101.5t-5 -146q0 -166 69 -256t198 -90h401q157 0 248.5 57t91.5 152q0 38 -26 74t-70 71t-150 99q-123 73 -172 115.5t-74.5 88t-25.5 99.5q0 122 90.5 257.5t224.5 223.5
t260 88q49 0 137.5 -28t127.5 -54l-74 -137q-30 15 -85.5 25t-98.5 10q-69 0 -160.5 -56t-155 -138t-63.5 -156q0 -69 153 -162q151 -92 214.5 -152t98.5 -129.5t35 -142.5q0 -171 -137 -268t-389 -97h-440zM608 -901q-48 0 -81.5 29t-33.5 94t33.5 94t81.5 29
q52 0 83 -31.5t31 -91.5q0 -59 -30.5 -91t-83.5 -32zM962 -901q-53 0 -84 32t-31 91t30.5 91t84.5 32q55 0 85 -33.5t30 -89.5t-30 -89.5t-85 -33.5z" />
    <glyph glyph-name="uni064A.fina" unicode="&#x64a;" horiz-adv-x="1974" arabic-form="final" 
d="M545 -492q-192 0 -302 133t-110 361q0 107 17.5 193t54.5 176h170q-23 -57 -35.5 -109.5t-17.5 -101.5t-5 -146q0 -166 69 -256t198 -90h381q146 0 242 54.5t96 130.5q0 42 -38 72t-115 52q-155 44 -212.5 77t-88 82t-30.5 116q0 118 70.5 228t182.5 178.5t224 68.5
q69 0 122.5 -25t100.5 -72.5t117 -157.5q88 -142 130.5 -191t72.5 -72.5t63 -36t72 -12.5h11q10 0 10 -8v-142q0 -10 -10 -10h-11q-86 0 -165.5 38.5t-163.5 127.5q-24 25 -105 141q-99 140 -157 188t-109 48q-56 0 -120 -43t-107 -107.5t-43 -116.5q0 -34 36.5 -61
t117.5 -51q147 -43 208.5 -75t93 -75.5t31.5 -99.5q0 -406 -526 -406h-420zM608 -901q-48 0 -81.5 29t-33.5 94t33.5 94t81.5 29q52 0 83 -31.5t31 -91.5q0 -59 -30.5 -91t-83.5 -32zM962 -901q-53 0 -84 32t-31 91t30.5 91t84.5 32q55 0 85 -33.5t30 -89.5t-30 -89.5
t-85 -33.5z" />
    <glyph glyph-name="uni06CC" unicode="&#x6cc;" horiz-adv-x="1718" arabic-form="isolated" 
d="M545 -492q-192 0 -302 133t-110 361q0 107 17.5 193t54.5 176h170q-23 -57 -35.5 -109.5t-17.5 -101.5t-5 -146q0 -166 69 -256t198 -90h401q157 0 248.5 57t91.5 152q0 38 -26 74t-70 71t-150 99q-123 73 -172 115.5t-74.5 88t-25.5 99.5q0 122 90.5 257.5t224.5 223.5
t260 88q49 0 137.5 -28t127.5 -54l-74 -137q-30 15 -85.5 25t-98.5 10q-69 0 -160.5 -56t-155 -138t-63.5 -156q0 -69 153 -162q151 -92 214.5 -152t98.5 -129.5t35 -142.5q0 -171 -137 -268t-389 -97h-440z" />
    <glyph glyph-name="uni06CC.init" unicode="&#x6cc;" horiz-adv-x="766" arabic-form="initial" 
d="M-10 0q-10 0 -10 10v142q0 8 10 8h393v833h182v-993h-575zM123 -410q-48 0 -81.5 29t-33.5 94t33.5 94t81.5 29q52 0 83 -31.5t31 -91.5q0 -59 -30.5 -91t-83.5 -32zM477 -410q-53 0 -84 32t-31 91t30.5 91t84.5 32q55 0 85 -33.5t30 -89.5t-30 -89.5t-85 -33.5z" />
    <glyph glyph-name="uni06CC.medi" unicode="&#x6cc;" horiz-adv-x="801" arabic-form="medial" 
d="M-10 0q-10 0 -10 10v142q0 8 10 8h332v833h182v-833h307q10 0 10 -8v-142q0 -10 -10 -10h-821zM242 -410q-48 0 -81.5 29t-33.5 94t33.5 94t81.5 29q52 0 83 -31.5t31 -91.5q0 -59 -30.5 -91t-83.5 -32zM596 -410q-53 0 -84 32t-31 91t30.5 91t84.5 32q55 0 85 -33.5
t30 -89.5t-30 -89.5t-85 -33.5z" />
    <glyph glyph-name="uni06CC.fina" unicode="&#x6cc;" horiz-adv-x="1974" arabic-form="final" 
d="M545 -492q-192 0 -302 133t-110 361q0 107 17.5 193t54.5 176h170q-23 -57 -35.5 -109.5t-17.5 -101.5t-5 -146q0 -166 69 -256t198 -90h381q146 0 242 54.5t96 130.5q0 42 -38 72t-115 52q-155 44 -212.5 77t-88 82t-30.5 116q0 118 70.5 228t182.5 178.5t224 68.5
q69 0 122.5 -25t100.5 -72.5t117 -157.5q88 -142 130.5 -191t72.5 -72.5t63 -36t72 -12.5h11q10 0 10 -8v-142q0 -10 -10 -10h-11q-86 0 -165.5 38.5t-163.5 127.5q-24 25 -105 141q-99 140 -157 188t-109 48q-56 0 -120 -43t-107 -107.5t-43 -116.5q0 -34 36.5 -61
t117.5 -51q147 -43 208.5 -75t93 -75.5t31.5 -99.5q0 -406 -526 -406h-420z" />
    <glyph glyph-name="uni06D3" unicode="&#x6d3;" horiz-adv-x="1182" arabic-form="isolated" 
d="M401 -416q-148 0 -228.5 68.5t-80.5 195.5q0 83 37.5 144.5t115 112.5t259.5 124q156 65 212 104.5t77.5 88.5t21.5 143v80h182v-80q0 -118 -31.5 -192.5t-104.5 -131t-251 -130.5q-173 -72 -230.5 -105.5t-81.5 -68t-24 -89.5q0 -44 34.5 -74t88.5 -30h959v-160h-955z
M184 503l97 14q-72 47 -72 130q0 88 57.5 136t151.5 48q80 0 135 -31l-31 -92q-41 25 -102 25q-45 0 -76 -25.5t-31 -79.5q0 -35 18 -59.5t44 -36.5q20 5 98 15.5t107 10.5v-100q-16 0 -72.5 -5.5t-208.5 -25.5l-115 -18v94z" />
    <glyph glyph-name="uni06D3.fina" unicode="&#x6d3;" horiz-adv-x="795" arabic-form="final" 
d="M813 160q10 0 10 -8v-142q0 -10 -10 -10h-295q-109 0 -176.5 -42.5t-67.5 -109.5q0 -48 33 -76t90 -28h959v-160h-955q-148 0 -228.5 68.5t-80.5 195.5q0 87 61 158t167.5 112.5t224.5 41.5h268zM246 378l97 14q-72 47 -72 130q0 88 57.5 136t151.5 48q80 0 135 -31
l-31 -92q-41 25 -102 25q-45 0 -76 -25.5t-31 -79.5q0 -35 18 -59.5t44 -36.5q20 5 98 15.5t107 10.5v-100q-16 0 -72.5 -5.5t-208.5 -25.5l-115 -18v94z" />
    <glyph glyph-name="uni0626" unicode="&#x626;" horiz-adv-x="1718" arabic-form="isolated" 
d="M545 -492q-192 0 -302 133t-110 361q0 107 17.5 193t54.5 176h170q-23 -57 -35.5 -109.5t-17.5 -101.5t-5 -146q0 -166 69 -256t198 -90h401q157 0 248.5 57t91.5 152q0 38 -26 74t-70 71t-150 99q-123 73 -172 115.5t-74.5 88t-25.5 99.5q0 122 90.5 257.5t224.5 223.5
t260 88q49 0 137.5 -28t127.5 -54l-74 -137q-30 15 -85.5 25t-98.5 10q-69 0 -160.5 -56t-155 -138t-63.5 -156q0 -69 153 -162q151 -92 214.5 -152t98.5 -129.5t35 -142.5q0 -171 -137 -268t-389 -97h-440zM307 709l97 14q-72 47 -72 130q0 88 57.5 136t151.5 48
q80 0 135 -31l-31 -92q-41 25 -102 25q-45 0 -76 -25.5t-31 -79.5q0 -35 18 -59.5t44 -36.5q20 5 98 15.5t107 10.5v-100q-16 0 -72.5 -5.5t-208.5 -25.5l-115 -18v94z" />
    <glyph glyph-name="uni0626.init" unicode="&#x626;" horiz-adv-x="766" arabic-form="initial" 
d="M-10 0q-10 0 -10 10v142q0 8 10 8h393v833h182v-993h-575zM241 1275l97 14q-72 47 -72 130q0 88 57.5 136t151.5 48q80 0 135 -31l-31 -92q-41 25 -102 25q-45 0 -76 -25.5t-31 -79.5q0 -35 18 -59.5t44 -36.5q20 5 98 15.5t107 10.5v-100q-16 0 -72.5 -5.5t-208.5 -25.5
l-115 -18v94z" />
    <glyph glyph-name="uni0626.medi" unicode="&#x626;" horiz-adv-x="801" arabic-form="medial" 
d="M-10 0q-10 0 -10 10v142q0 8 10 8h332v833h182v-833h307q10 0 10 -8v-142q0 -10 -10 -10h-821zM200 1275l97 14q-72 47 -72 130q0 88 57.5 136t151.5 48q80 0 135 -31l-31 -92q-41 25 -102 25q-45 0 -76 -25.5t-31 -79.5q0 -35 18 -59.5t44 -36.5q20 5 98 15.5t107 10.5
v-100q-16 0 -72.5 -5.5t-208.5 -25.5l-115 -18v94z" />
    <glyph glyph-name="uni0626.fina" unicode="&#x626;" horiz-adv-x="1974" arabic-form="final" 
d="M545 -492q-192 0 -302 133t-110 361q0 107 17.5 193t54.5 176h170q-23 -57 -35.5 -109.5t-17.5 -101.5t-5 -146q0 -166 69 -256t198 -90h381q146 0 242 54.5t96 130.5q0 42 -38 72t-115 52q-155 44 -212.5 77t-88 82t-30.5 116q0 118 70.5 228t182.5 178.5t224 68.5
q69 0 122.5 -25t100.5 -72.5t117 -157.5q88 -142 130.5 -191t72.5 -72.5t63 -36t72 -12.5h11q10 0 10 -8v-142q0 -10 -10 -10h-11q-86 0 -165.5 38.5t-163.5 127.5q-24 25 -105 141q-99 140 -157 188t-109 48q-56 0 -120 -43t-107 -107.5t-43 -116.5q0 -34 36.5 -61
t117.5 -51q147 -43 208.5 -75t93 -75.5t31.5 -99.5q0 -406 -526 -406h-420zM411 709l97 14q-72 47 -72 130q0 88 57.5 136t151.5 48q80 0 135 -31l-31 -92q-41 25 -102 25q-45 0 -76 -25.5t-31 -79.5q0 -35 18 -59.5t44 -36.5q20 5 98 15.5t107 10.5v-100q-16 0 -72.5 -5.5
t-208.5 -25.5l-115 -18v94z" />
    <glyph glyph-name="uni06C2.fina" unicode="&#x6c2;" horiz-adv-x="1335" 
d="M102 0q153 291 260 429t231.5 225.5t289.5 133.5h192v-628h271q10 0 10 -8v-142q0 -10 -10 -10h-453v621q-133 -52 -221.5 -118.5t-163.5 -171t-186 -331.5h-220zM698 1076l97 14q-72 47 -72 130q0 88 57.5 136t151.5 48q80 0 135 -31l-31 -92q-41 25 -102 25
q-45 0 -76 -25.5t-31 -79.5q0 -35 18 -59.5t44 -36.5q20 5 98 15.5t107 10.5v-100q-16 0 -72.5 -5.5t-208.5 -25.5l-115 -18v94z" />
    <glyph glyph-name="uni06C1" unicode="&#x6c1;" horiz-adv-x="1223" arabic-form="isolated" 
d="M608 -20q-226 0 -350.5 123.5t-124.5 351.5q0 150 62.5 280t173 204.5t245.5 74.5q127 0 237.5 -76.5t174.5 -208.5t64 -274q0 -232 -121.5 -353.5t-360.5 -121.5zM612 137q293 0 293 316q0 186 -78 294.5t-217 108.5q-125 0 -209 -112t-84 -291q0 -316 295 -316z" />
    <glyph glyph-name="uni06C3.fina" unicode="&#x6c3;" horiz-adv-x="1335" 
d="M102 0q153 291 260 429t231.5 225.5t289.5 133.5h192v-628h271q10 0 10 -8v-142q0 -10 -10 -10h-453v621q-133 -52 -221.5 -118.5t-163.5 -171t-186 -331.5h-220zM635 992q-48 0 -81.5 29t-33.5 94t33.5 94t81.5 29q52 0 83 -31.5t31 -91.5q0 -59 -30.5 -91t-83.5 -32z
M989 992q-53 0 -84 32t-31 91t30.5 91t84.5 32q55 0 85 -33.5t30 -89.5t-30 -89.5t-85 -33.5z" />
    <glyph glyph-name="uni06BE.fina" unicode="&#x6be;" horiz-adv-x="1733" arabic-form="final" 
d="M133 160h236q-66 42 -105 119.5t-39 173.5q0 125 54.5 219t150 146t207.5 52q397 0 397 -440v-270h269v401q0 280 -127 411.5t-396 131.5q-197 0 -379 -60l-47 158q192 64 426 64q332 0 514.5 -179.5t182.5 -508.5v-418h266q10 0 10 -8v-142q0 -10 -10 -10h-1610v160z
M860 160v239q0 150 -57 220.5t-174 70.5q-104 0 -162.5 -63.5t-58.5 -180.5q0 -130 77.5 -208t206.5 -78h168z" />
    <glyph glyph-name="uni06BE.init" unicode="&#x6be;" horiz-adv-x="1589" arabic-form="initial" 
d="M799 160v239q0 151 -58.5 221t-173.5 70q-104 0 -162.5 -63.5t-58.5 -180.5q0 -131 79 -208.5t206 -77.5h168zM-10 0q-10 0 -10 10v142q0 8 10 8h317q-65 41 -104 119t-39 174q0 125 55 219.5t149.5 146t206.5 51.5q398 0 398 -440v-270h268v401q0 279 -126 411t-396 132
q-199 0 -379 -60l-47 158q192 64 426 64q334 0 515 -180.5t181 -507.5v-578h-1425z" />
    <glyph glyph-name="uni06BE.medi" unicode="&#x6be;" horiz-adv-x="1671" arabic-form="medial" 
d="M-10 0q-10 0 -10 10v142q0 8 10 8h317q-65 41 -104 119t-39 174q0 125 55 219.5t149.5 146t206.5 51.5q398 0 398 -440v-270h268v401q0 279 -126 411t-396 132q-199 0 -379 -60l-47 158q192 64 426 64q334 0 515 -180.5t181 -507.5v-418h266q11 0 11 -8v-142
q0 -10 -11 -10h-1691zM799 160v239q0 151 -58.5 221t-173.5 70q-104 0 -162.5 -63.5t-58.5 -180.5q0 -131 79 -208.5t206 -77.5h168z" />
    <glyph glyph-name="fathatan_01" unicode="&#xfe70;" arabic-form="isolated" 
d="M-240 1702l480 178v-111l-480 -180v113zM-240 1933l480 178v-110l-480 -180v112z" />
    <glyph glyph-name="dammatan_01" unicode="&#xfe72;" arabic-form="isolated" 
d="M10 1597q-115 0 -196 71l-31 26l-84 -68l-66 78l160 145q53 -71 108 -110t101 -39q41 0 57 10q-29 37 -48 85t-19 93q0 78 51 124t133 46q80 0 128 -45t48 -117q0 -82 -47 -151t-126 -108.5t-169 -39.5zM154 1743q92 51 92 145q0 32 -21 52t-53 20q-31 0 -53.5 -20
t-22.5 -62q0 -60 58 -135z" />
    <glyph glyph-name="kasratan_01" unicode="&#xfe74;" arabic-form="isolated" 
d="M-240 -680l480 178v-110l-480 -181v113zM-240 -449l480 179v-111l-480 -180v112z" />
    <glyph glyph-name="fatha_01" unicode="&#xfe76;" arabic-form="isolated" 
d="M-240 1702l480 178v-111l-480 -180v113z" />
    <glyph glyph-name="damma_01" unicode="&#xfe78;" arabic-form="isolated" 
d="M-92 1597q-114 0 -209 68l59 86q76 -51 146 -51q60 0 102 14q-65 83 -65 174q0 78 51 124t133 46t129 -46.5t47 -115.5q0 -73 -54.5 -143.5t-146.5 -113t-192 -42.5zM96 1749q54 29 76.5 66.5t22.5 72.5q0 32 -21 52t-53 20q-31 0 -53.5 -20t-22.5 -62q0 -63 51 -129z
" />
    <glyph glyph-name="kasra_01" unicode="&#xfe7a;" arabic-form="isolated" 
d="M-240 -449l480 179v-111l-480 -180v112z" />
    <glyph glyph-name="shadda_01" unicode="&#xfe7c;" arabic-form="isolated" 
d="M-158 1651q-81 0 -124.5 50.5t-43.5 147.5v129h107v-110q0 -62 18 -87.5t64 -25.5q90 0 90 94v181h96v-140q0 -54 19 -74t59 -20q55 0 74.5 26.5t19.5 86.5v151h107v-170q0 -96 -44.5 -147t-131.5 -51q-96 0 -144 61q-49 -102 -166 -102z" />
    <glyph glyph-name="sukun_01" unicode="&#xfe7e;" arabic-form="isolated" 
d="M-2 1671q-102 0 -162.5 57.5t-60.5 157.5q0 101 61 158t162 57q103 0 166 -58.5t63 -154.5q0 -99 -63 -158t-166 -59zM-2 1774q49 0 81 29t32 83t-32 83.5t-81 29.5q-50 0 -81.5 -29.5t-31.5 -83.5q0 -112 113 -112z" />
    <glyph glyph-name="uni0651064C" unicode="&#xfc5e;" arabic-form="isolated" 
d="M-158 1651q-81 0 -124.5 50.5t-43.5 147.5v129h107v-110q0 -62 18 -87.5t64 -25.5q90 0 90 94v181h96v-140q0 -54 19 -74t59 -20q55 0 74.5 26.5t19.5 86.5v151h107v-170q0 -96 -44.5 -147t-131.5 -51q-96 0 -144 61q-49 -102 -166 -102zM10 2136q-115 0 -196 71l-31 26
l-84 -68l-66 78l160 145q53 -71 108 -110t101 -39q41 0 57 10q-29 37 -48 85t-19 93q0 78 51 124t133 46q80 0 128 -45t48 -117q0 -82 -47 -151t-126 -108.5t-169 -39.5zM154 2282q92 51 92 145q0 32 -21 52t-53 20q-31 0 -53.5 -20t-22.5 -62q0 -60 58 -135z" />
    <glyph glyph-name="uni0651064D" unicode="&#xfc5f;" arabic-form="isolated" 
d="M-158 1651q-81 0 -124.5 50.5t-43.5 147.5v129h107v-110q0 -62 18 -87.5t64 -25.5q90 0 90 94v181h96v-140q0 -54 19 -74t59 -20q55 0 74.5 26.5t19.5 86.5v151h107v-170q0 -96 -44.5 -147t-131.5 -51q-96 0 -144 61q-49 -102 -166 -102zM-117 1266l480 178v-110
l-480 -181v113zM-117 1497l480 179v-111l-480 -180v112z" />
    <glyph glyph-name="uni0651064E" unicode="&#xfc60;" arabic-form="isolated" 
d="M-158 1651q-81 0 -124.5 50.5t-43.5 147.5v129h107v-110q0 -62 18 -87.5t64 -25.5q90 0 90 94v181h96v-140q0 -54 19 -74t59 -20q55 0 74.5 26.5t19.5 86.5v151h107v-170q0 -96 -44.5 -147t-131.5 -51q-96 0 -144 61q-49 -102 -166 -102zM-333 2214l480 178v-111
l-480 -180v113z" />
    <glyph glyph-name="uni0651064F" unicode="&#xfc61;" arabic-form="isolated" 
d="M-158 1651q-81 0 -124.5 50.5t-43.5 147.5v129h107v-110q0 -62 18 -87.5t64 -25.5q90 0 90 94v181h96v-140q0 -54 19 -74t59 -20q55 0 74.5 26.5t19.5 86.5v151h107v-170q0 -96 -44.5 -147t-131.5 -51q-96 0 -144 61q-49 -102 -166 -102zM-92 2144q-114 0 -209 68l59 86
q76 -51 146 -51q60 0 102 14q-65 83 -65 174q0 78 51 124t133 46t129 -46.5t47 -115.5q0 -73 -54.5 -143.5t-146.5 -113t-192 -42.5zM96 2296q54 29 76.5 66.5t22.5 72.5q0 32 -21 52t-53 20q-31 0 -53.5 -20t-22.5 -62q0 -63 51 -129z" />
    <glyph glyph-name="uni06510650" unicode="&#xfc62;" arabic-form="isolated" 
d="M-158 1651q-81 0 -124.5 50.5t-43.5 147.5v129h107v-110q0 -62 18 -87.5t64 -25.5q90 0 90 94v181h96v-140q0 -54 19 -74t59 -20q55 0 74.5 26.5t19.5 86.5v151h107v-170q0 -96 -44.5 -147t-131.5 -51q-96 0 -144 61q-49 -102 -166 -102zM-127 1454l480 179v-111
l-480 -180v112z" />
    <glyph glyph-name="uniFC63" unicode="&#xfc63;" arabic-form="isolated" 
d="M-158 1651q-81 0 -124.5 50.5t-43.5 147.5v129h107v-110q0 -62 18 -87.5t64 -25.5q90 0 90 94v181h96v-140q0 -54 19 -74t59 -20q55 0 74.5 26.5t19.5 86.5v151h107v-170q0 -96 -44.5 -147t-131.5 -51q-96 0 -144 61q-49 -102 -166 -102zM-59 2580h116v-397h-116v397z
" />
    <glyph glyph-name="uni0672.fina" unicode="&#x672;" horiz-adv-x="647" 
d="M205 1434h182v-1274h270q11 0 11 -8v-142q0 -10 -11 -10h-452v1434zM217 1552q-27 0 -47.5 5t-38 10.5l-32.5 10.5t-31 5q-45 0 -97 -45l-47 43q44 55 74 73.5t57 18.5q20 0 59 -15q39 -16 79 -16q-72 47 -72 130q0 88 57.5 136t151.5 48q80 0 135 -31l-31 -92
q-41 25 -102 25q-45 0 -76 -25.5t-31 -79.5q0 -35 18 -59.5t44 -36.5q22 2 96.5 13.5t108.5 19.5v-101q-31 -7 -137 -22t-138 -15z" />
    <glyph glyph-name="uni0673.fina" unicode="&#x673;" horiz-adv-x="647" 
d="M205 1556h182v-1396h270q11 0 11 -8v-142q0 -10 -11 -10h-452v1556zM225 -522q-42 0 -85 15q-44 15 -64 15q-45 0 -97 -45l-47 43q45 57 74.5 75t56.5 18q20 0 59 -15q39 -16 79 -16q-29 18 -50.5 51t-21.5 78q0 86 55.5 135t153.5 49q80 0 135 -31l-31 -92
q-41 25 -102 25q-45 0 -76 -25.5t-31 -79.5q0 -65 62 -96q22 2 96.5 13.5t108.5 19.5v-100q-54 -12 -154.5 -24.5t-120.5 -12.5z" />
    <glyph glyph-name="uni0675.fina" unicode="&#x675;" horiz-adv-x="647" 
d="M205 1434h182v-1274h270q11 0 11 -8v-142q0 -10 -11 -10h-452v1434zM489 1107l97 14q-72 47 -72 130q0 88 57.5 136t151.5 48q80 0 135 -31l-31 -92q-41 25 -102 25q-45 0 -76 -25.5t-31 -79.5q0 -35 18 -59.5t44 -36.5q20 5 98 15.5t107 10.5v-100q-16 0 -72.5 -5.5
t-208.5 -25.5l-115 -18v94z" />
    <glyph glyph-name="uni0676.fina" unicode="&#x676;" horiz-adv-x="1133" 
d="M801 160v674h-88q-182 0 -283.5 -96t-101.5 -269q0 -160 69.5 -234.5t210.5 -74.5h193zM975 -49q0 -209 -123.5 -326t-349.5 -117q-209 0 -369 105l82 137q66 -35 136 -58.5t155 -23.5q139 0 218 74.5t79 198.5v59h-201q-218 0 -337.5 120t-119.5 347q0 241 153 383.5
t409 142.5h268v-833h168q10 0 10 -8v-142q0 -10 -10 -10h-168v-49zM782 1267l97 14q-72 47 -72 130q0 88 57.5 136t151.5 48q80 0 135 -31l-31 -92q-41 25 -102 25q-45 0 -76 -25.5t-31 -79.5q0 -35 18 -59.5t44 -36.5q20 5 98 15.5t107 10.5v-100q-16 0 -72.5 -5.5
t-208.5 -25.5l-115 -18v94z" />
    <glyph glyph-name="uni0677.fina" unicode="&#x677;" horiz-adv-x="1133" 
d="M801 160v674h-88q-182 0 -283.5 -96t-101.5 -269q0 -160 69.5 -234.5t210.5 -74.5h193zM975 -49q0 -209 -123.5 -326t-349.5 -117q-209 0 -369 105l82 137q66 -35 136 -58.5t155 -23.5q139 0 218 74.5t79 198.5v59h-201q-218 0 -337.5 120t-119.5 347q0 241 153 383.5
t409 142.5h268v-833h168q10 0 10 -8v-142q0 -10 -10 -10h-168v-49zM782 1267l97 14q-72 47 -72 130q0 88 57.5 136t151.5 48q80 0 135 -31l-31 -92q-41 25 -102 25q-45 0 -76 -25.5t-31 -79.5q0 -35 18 -59.5t44 -36.5q20 5 98 15.5t107 10.5v-100q-16 0 -72.5 -5.5
t-208.5 -25.5l-115 -18v94zM197 1119q-114 0 -209 68l59 86q76 -51 146 -51q60 0 102 14q-65 83 -65 174q0 78 51 124t133 46t129 -46.5t47 -115.5q0 -73 -54.5 -143.5t-146.5 -113t-192 -42.5zM385 1271q54 29 76.5 66.5t22.5 72.5q0 32 -21 52t-53 20q-31 0 -53.5 -20
t-22.5 -62q0 -63 51 -129z" />
    <glyph glyph-name="uni0678.fina" unicode="&#x678;" horiz-adv-x="1974" 
d="M545 -492q-192 0 -302 133t-110 361q0 107 17.5 193t54.5 176h170q-23 -57 -35.5 -109.5t-17.5 -101.5t-5 -146q0 -166 69 -256t198 -90h381q146 0 242 54.5t96 130.5q0 42 -38 72t-115 52q-155 44 -212.5 77t-88 82t-30.5 116q0 118 70.5 228t182.5 178.5t224 68.5
q69 0 122.5 -25t100.5 -72.5t117 -157.5q88 -142 130.5 -191t72.5 -72.5t63 -36t72 -12.5h11q10 0 10 -8v-142q0 -10 -10 -10h-11q-86 0 -165.5 38.5t-163.5 127.5q-24 25 -105 141q-99 140 -157 188t-109 48q-56 0 -120 -43t-107 -107.5t-43 -116.5q0 -34 36.5 -61
t117.5 -51q147 -43 208.5 -75t93 -75.5t31.5 -99.5q0 -406 -526 -406h-420zM1044 980l97 14q-72 47 -72 130q0 88 57.5 136t151.5 48q80 0 135 -31l-31 -92q-41 25 -102 25q-45 0 -76 -25.5t-31 -79.5q0 -35 18 -59.5t44 -36.5q20 5 98 15.5t107 10.5v-100q-16 0 -72.5 -5.5
t-208.5 -25.5l-115 -18v94z" />
    <glyph glyph-name="uni067A.init" unicode="&#x67a;" horiz-adv-x="616" arabic-form="initial" 
d="M-10 0q-10 0 -10 10v142q0 8 10 8h270v833h182v-993h-452zM340 1188q-53 0 -84 32t-31 91t30.5 91t84.5 32q55 0 85 -33.5t30 -89.5t-30 -89.5t-85 -33.5zM340 1559q-53 0 -84 32t-31 90q0 59 30.5 91t84.5 32q55 0 85 -33.5t30 -89.5q0 -55 -30 -88.5t-85 -33.5z" />
    <glyph glyph-name="uni067A.medi" unicode="&#x67a;" horiz-adv-x="801" arabic-form="medial" 
d="M-10 0q-10 0 -10 10v142q0 8 10 8h332v833h182v-833h307q10 0 10 -8v-142q0 -10 -10 -10h-821zM412 1188q-53 0 -84 32t-31 91t30.5 91t84.5 32q55 0 85 -33.5t30 -89.5t-30 -89.5t-85 -33.5zM412 1559q-53 0 -84 32t-31 90q0 59 30.5 91t84.5 32q55 0 85 -33.5t30 -89.5
q0 -55 -30 -88.5t-85 -33.5z" />
    <glyph glyph-name="uni067A.fina" unicode="&#x67a;" horiz-adv-x="1681" arabic-form="final" 
d="M516 0q-177 0 -280 106.5t-103 290.5q0 68 14.5 157t36.5 151h164q-31 -148 -31 -293q0 -112 53 -182t140 -70h735v833h174v-833h273q10 0 10 -8v-142q0 -10 -10 -10h-1176zM772 749q-53 0 -84 32t-31 91t30.5 91t84.5 32q55 0 85 -33.5t30 -89.5t-30 -89.5t-85 -33.5z
M772 1120q-53 0 -84 32t-31 90q0 59 30.5 91t84.5 32q55 0 85 -33.5t30 -89.5q0 -55 -30 -88.5t-85 -33.5z" />
    <glyph glyph-name="uni067B.init" unicode="&#x67b;" horiz-adv-x="616" arabic-form="initial" 
d="M-10 0q-10 0 -10 10v142q0 8 10 8h270v833h182v-993h-452zM340 -780q-53 0 -84 32t-31 91q0 58 31 90t84 32q54 0 84.5 -33t30.5 -89t-30 -89.5t-85 -33.5zM340 -410q-53 0 -84 32t-31 91t30.5 91t84.5 32q55 0 85 -33.5t30 -89.5t-30 -89.5t-85 -33.5z" />
    <glyph glyph-name="uni067B.medi" unicode="&#x67b;" horiz-adv-x="698" arabic-form="medial" 
d="M-10 0q-10 0 -10 10v142q0 8 10 8h270v833h182v-833h267q10 0 10 -8v-142q0 -10 -10 -10h-719zM340 -780q-53 0 -84 32t-31 91q0 58 31 90t84 32q54 0 84.5 -33t30.5 -89t-30 -89.5t-85 -33.5zM340 -410q-53 0 -84 32t-31 91t30.5 91t84.5 32q55 0 85 -33.5t30 -89.5
t-30 -89.5t-85 -33.5z" />
    <glyph glyph-name="uni067B.fina" unicode="&#x67b;" horiz-adv-x="1681" arabic-form="final" 
d="M516 0q-177 0 -280 106.5t-103 290.5q0 68 14.5 157t36.5 151h164q-31 -148 -31 -293q0 -112 53 -182t140 -70h735v833h174v-833h273q10 0 10 -8v-142q0 -10 -10 -10h-1176zM854 -780q-53 0 -84 32t-31 91q0 58 31 90t84 32q54 0 84.5 -33t30.5 -89t-30 -89.5t-85 -33.5z
M854 -410q-53 0 -84 32t-31 91t30.5 91t84.5 32q55 0 85 -33.5t30 -89.5t-30 -89.5t-85 -33.5z" />
    <glyph glyph-name="uni067C.init" unicode="&#x67c;" horiz-adv-x="766" 
d="M-10 0q-10 0 -10 10v142q0 8 10 8h393v833h182v-993h-575zM285 1188q-48 0 -81.5 29t-33.5 94t33.5 94t81.5 29q52 0 83 -31.5t31 -91.5q0 -59 -30.5 -91t-83.5 -32zM639 1188q-53 0 -84 32t-31 91t30.5 91t84.5 32q55 0 85 -33.5t30 -89.5t-30 -89.5t-85 -33.5z
M299 -327q-102 0 -162.5 57.5t-60.5 157.5q0 101 61 158t162 57q103 0 166 -58.5t63 -154.5q0 -99 -63 -158t-166 -59zM299 -224q49 0 81 29t32 83t-32 83.5t-81 29.5q-50 0 -81.5 -29.5t-31.5 -83.5q0 -112 113 -112z" />
    <glyph glyph-name="uni067C.medi" unicode="&#x67c;" horiz-adv-x="801" 
d="M-10 0q-10 0 -10 10v142q0 8 10 8h332v833h182v-833h307q10 0 10 -8v-142q0 -10 -10 -10h-821zM234 1188q-48 0 -81.5 29t-33.5 94t33.5 94t81.5 29q52 0 83 -31.5t31 -91.5q0 -59 -30.5 -91t-83.5 -32zM588 1188q-53 0 -84 32t-31 91t30.5 91t84.5 32q55 0 85 -33.5
t30 -89.5t-30 -89.5t-85 -33.5zM424 -327q-102 0 -162.5 57.5t-60.5 157.5q0 101 61 158t162 57q103 0 166 -58.5t63 -154.5q0 -99 -63 -158t-166 -59zM424 -224q49 0 81 29t32 83t-32 83.5t-81 29.5q-50 0 -81.5 -29.5t-31.5 -83.5q0 -112 113 -112z" />
    <glyph glyph-name="uni067C.fina" unicode="&#x67c;" horiz-adv-x="1681" 
d="M516 0q-177 0 -280 106.5t-103 290.5q0 68 14.5 157t36.5 151h164q-31 -148 -31 -293q0 -112 53 -182t140 -70h735v833h174v-833h273q10 0 10 -8v-142q0 -10 -10 -10h-1176zM827 -327q-102 0 -162.5 57.5t-60.5 157.5q0 101 61 158t162 57q103 0 166 -58.5t63 -154.5
q0 -99 -63 -158t-166 -59zM827 -224q49 0 81 29t32 83t-32 83.5t-81 29.5q-50 0 -81.5 -29.5t-31.5 -83.5q0 -112 113 -112zM598 994q-48 0 -81.5 29t-33.5 94t33.5 94t81.5 29q52 0 83 -31.5t31 -91.5q0 -59 -30.5 -91t-83.5 -32zM952 994q-53 0 -84 32t-31 91t30.5 91
t84.5 32q55 0 85 -33.5t30 -89.5t-30 -89.5t-85 -33.5z" />
    <glyph glyph-name="uni067D.init" unicode="&#x67d;" horiz-adv-x="766" 
d="M-10 0q-10 0 -10 10v142q0 8 10 8h393v833h182v-993h-575zM463 1411q46 0 76 -26.5t30 -86.5q0 -58 -30 -85t-76 -27q-43 0 -74.5 27t-31.5 85q0 60 31.5 86.5t74.5 26.5zM639 1688q48 0 81.5 -29t33.5 -94t-33.5 -94t-81.5 -29q-55 0 -85 33.5t-30 89.5t30 89.5t85 33.5
zM285 1688q53 0 84 -32t31 -91t-30.5 -91t-84.5 -32q-53 0 -84 32t-31 91t30.5 91t84.5 32z" />
    <glyph glyph-name="uni067D.medi" unicode="&#x67d;" horiz-adv-x="801" 
d="M-10 0q-10 0 -10 10v142q0 8 10 8h332v833h182v-833h307q10 0 10 -8v-142q0 -10 -10 -10h-821zM414 1411q46 0 76 -26.5t30 -86.5q0 -58 -30 -85t-76 -27q-43 0 -74.5 27t-31.5 85q0 60 31.5 86.5t74.5 26.5zM590 1688q48 0 81.5 -29t33.5 -94t-33.5 -94t-81.5 -29
q-55 0 -85 33.5t-30 89.5t30 89.5t85 33.5zM236 1688q53 0 84 -32t31 -91t-30.5 -91t-84.5 -32q-53 0 -84 32t-31 91t30.5 91t84.5 32z" />
    <glyph glyph-name="uni067D.fina" unicode="&#x67d;" horiz-adv-x="1681" 
d="M516 0q-177 0 -280 106.5t-103 290.5q0 68 14.5 157t36.5 151h164q-31 -148 -31 -293q0 -112 53 -182t140 -70h735v833h174v-833h273q10 0 10 -8v-142q0 -10 -10 -10h-1176zM786 963q46 0 76 -26.5t30 -86.5q0 -58 -30 -85t-76 -27q-43 0 -74.5 27t-31.5 85
q0 60 31.5 86.5t74.5 26.5zM962 1240q48 0 81.5 -29t33.5 -94t-33.5 -94t-81.5 -29q-55 0 -85 33.5t-30 89.5t30 89.5t85 33.5zM608 1240q53 0 84 -32t31 -91t-30.5 -91t-84.5 -32q-53 0 -84 32t-31 91t30.5 91t84.5 32z" />
    <glyph glyph-name="uni067F.init" unicode="&#x67f;" horiz-adv-x="766" arabic-form="initial" 
d="M-10 0q-10 0 -10 10v142q0 8 10 8h393v833h182v-993h-575zM297 1219q-49 0 -76.5 28t-27.5 82q0 58 30.5 84.5t73.5 26.5q42 0 72.5 -26t30.5 -85q0 -53 -27.5 -81.5t-75.5 -28.5zM615 1219q-44 0 -73.5 25.5t-29.5 84.5t29.5 85t73.5 26q47 0 75.5 -29.5t28.5 -81.5
t-28 -81t-76 -29zM297 1561q-49 0 -76.5 28t-27.5 82q0 58 30.5 84.5t73.5 26.5q42 0 72.5 -26t30.5 -85q0 -53 -27.5 -81.5t-75.5 -28.5zM615 1561q-44 0 -73.5 25.5t-29.5 84.5t29.5 85t73.5 26q47 0 75.5 -29.5t28.5 -81.5t-28 -81t-76 -29z" />
    <glyph glyph-name="uni067F.medi" unicode="&#x67f;" horiz-adv-x="801" arabic-form="medial" 
d="M-10 0q-10 0 -10 10v142q0 8 10 8h332v833h182v-833h307q10 0 10 -8v-142q0 -10 -10 -10h-821zM246 1219q-49 0 -76.5 28t-27.5 82q0 58 30.5 84.5t73.5 26.5q42 0 72.5 -26t30.5 -85q0 -53 -27.5 -81.5t-75.5 -28.5zM564 1219q-44 0 -73.5 25.5t-29.5 84.5t29.5 85
t73.5 26q47 0 75.5 -29.5t28.5 -81.5t-28 -81t-76 -29zM246 1561q-49 0 -76.5 28t-27.5 82q0 58 30.5 84.5t73.5 26.5q42 0 72.5 -26t30.5 -85q0 -53 -27.5 -81.5t-75.5 -28.5zM564 1561q-44 0 -73.5 25.5t-29.5 84.5t29.5 85t73.5 26q47 0 75.5 -29.5t28.5 -81.5t-28 -81
t-76 -29z" />
    <glyph glyph-name="uni067F.fina" unicode="&#x67f;" horiz-adv-x="1681" arabic-form="final" 
d="M516 0q-177 0 -280 106.5t-103 290.5q0 68 14.5 157t36.5 151h164q-31 -148 -31 -293q0 -112 53 -182t140 -70h735v833h174v-833h273q10 0 10 -8v-142q0 -10 -10 -10h-1176zM626 792q-49 0 -76.5 28t-27.5 82q0 58 30.5 84.5t73.5 26.5q42 0 72.5 -26t30.5 -85
q0 -53 -27.5 -81.5t-75.5 -28.5zM944 792q-44 0 -73.5 25.5t-29.5 84.5t29.5 85t73.5 26q47 0 75.5 -29.5t28.5 -81.5t-28 -81t-76 -29zM626 1134q-49 0 -76.5 28t-27.5 82q0 58 30.5 84.5t73.5 26.5q42 0 72.5 -26t30.5 -85q0 -53 -27.5 -81.5t-75.5 -28.5zM944 1134
q-44 0 -73.5 25.5t-29.5 84.5t29.5 85t73.5 26q47 0 75.5 -29.5t28.5 -81.5t-28 -81t-76 -29z" />
    <glyph glyph-name="uni0680.init" unicode="&#x680;" horiz-adv-x="766" arabic-form="initial" 
d="M-10 0q-10 0 -10 10v142q0 8 10 8h393v833h182v-993h-575zM125 -762q-47 0 -75.5 28.5t-28.5 82.5q0 58 30.5 84t73.5 26q42 0 72.5 -26t30.5 -84q0 -59 -30.5 -85t-72.5 -26zM443 -762q-44 0 -73.5 26t-29.5 85t29.5 84.5t73.5 25.5q49 0 76.5 -29.5t27.5 -80.5
q0 -52 -28.5 -81.5t-75.5 -29.5zM125 -420q-47 0 -75.5 28.5t-28.5 82.5q0 58 30.5 84t73.5 26q42 0 72.5 -26t30.5 -84q0 -59 -30.5 -85t-72.5 -26zM443 -420q-44 0 -73.5 26t-29.5 85t29.5 84.5t73.5 25.5q49 0 76.5 -29.5t27.5 -80.5q0 -52 -28.5 -81.5t-75.5 -29.5z" />
    <glyph glyph-name="uni0680.medi" unicode="&#x680;" horiz-adv-x="801" arabic-form="medial" 
d="M-10 0q-10 0 -10 10v142q0 8 10 8h332v833h182v-833h307q10 0 10 -8v-142q0 -10 -10 -10h-821zM258 -762q-47 0 -75.5 28.5t-28.5 82.5q0 58 30.5 84t73.5 26q42 0 72.5 -26t30.5 -84q0 -59 -30.5 -85t-72.5 -26zM576 -762q-44 0 -73.5 26t-29.5 85t29.5 84.5t73.5 25.5
q49 0 76.5 -29.5t27.5 -80.5q0 -52 -28.5 -81.5t-75.5 -29.5zM258 -420q-47 0 -75.5 28.5t-28.5 82.5q0 58 30.5 84t73.5 26q42 0 72.5 -26t30.5 -84q0 -59 -30.5 -85t-72.5 -26zM576 -420q-44 0 -73.5 26t-29.5 85t29.5 84.5t73.5 25.5q49 0 76.5 -29.5t27.5 -80.5
q0 -52 -28.5 -81.5t-75.5 -29.5z" />
    <glyph glyph-name="uni0680.fina" unicode="&#x680;" horiz-adv-x="1681" arabic-form="final" 
d="M516 0q-177 0 -280 106.5t-103 290.5q0 68 14.5 157t36.5 151h164q-31 -148 -31 -293q0 -112 53 -182t140 -70h735v833h174v-833h273q10 0 10 -8v-142q0 -10 -10 -10h-1176zM629 -762q-47 0 -75.5 28.5t-28.5 82.5q0 58 30.5 84t73.5 26q42 0 72.5 -26t30.5 -84
q0 -59 -30.5 -85t-72.5 -26zM947 -762q-44 0 -73.5 26t-29.5 85t29.5 84.5t73.5 25.5q49 0 76.5 -29.5t27.5 -80.5q0 -52 -28.5 -81.5t-75.5 -29.5zM629 -420q-47 0 -75.5 28.5t-28.5 82.5q0 58 30.5 84t73.5 26q42 0 72.5 -26t30.5 -84q0 -59 -30.5 -85t-72.5 -26z
M947 -420q-44 0 -73.5 26t-29.5 85t29.5 84.5t73.5 25.5q49 0 76.5 -29.5t27.5 -80.5q0 -52 -28.5 -81.5t-75.5 -29.5z" />
    <glyph glyph-name="uni0681.init" unicode="&#x681;" horiz-adv-x="1188" 
d="M-10 0q-10 0 -10 10v142q0 8 10 8h878q-75 75 -129 375q-30 177 -87 248t-171 71q-142 0 -297 -82l-71 141q88 57 177.5 79t192.5 22q125 0 209 -45t133.5 -133.5t75.5 -253.5q30 -183 67.5 -282.5t86.5 -143.5v-156h-1065zM248 1275l97 14q-72 47 -72 130q0 88 57.5 136
t151.5 48q80 0 135 -31l-31 -92q-41 25 -102 25q-45 0 -76 -25.5t-31 -79.5q0 -35 18 -59.5t44 -36.5q20 5 98 15.5t107 10.5v-100q-16 0 -72.5 -5.5t-208.5 -25.5l-115 -18v94z" />
    <glyph glyph-name="uni0681.medi" unicode="&#x681;" horiz-adv-x="1176" 
d="M-10 0q-10 0 -10 10v142q0 8 10 8h878q-79 79 -129 375q-29 174 -87 246.5t-171 72.5q-142 0 -297 -82l-71 141q88 57 177.5 79t192.5 22q125 0 209 -45t133.5 -133.5t75.5 -253.5q47 -321 148 -422h137q10 0 10 -8v-142q0 -10 -10 -10h-1196zM248 1275l97 14
q-72 47 -72 130q0 88 57.5 136t151.5 48q80 0 135 -31l-31 -92q-41 25 -102 25q-45 0 -76 -25.5t-31 -79.5q0 -35 18 -59.5t44 -36.5q20 5 98 15.5t107 10.5v-100q-16 0 -72.5 -5.5t-208.5 -25.5l-115 -18v94z" />
    <glyph glyph-name="uni0681.fina" unicode="&#x681;" horiz-adv-x="1257" 
d="M518 -657q-198 0 -312 103.5t-114 291.5q0 130 77 239t241 199t452 174q-22 70 -41 185q-27 162 -100.5 240.5t-198.5 78.5q-73 0 -176 -29.5t-182 -72.5l-72 141q79 51 198 86t234 35q392 0 459 -432q32 -196 63 -271t81 -113t130 -38h11q10 0 10 -8v-142q0 -10 -10 -10
h-11q-112 0 -195.5 48.5t-141.5 156.5q-245 -67 -380 -133.5t-198 -145.5t-63 -172q0 -131 76 -192.5t237 -61.5q103 0 301 33l22 -141q-145 -31 -230 -40t-167 -9zM248 1275l97 14q-72 47 -72 130q0 88 57.5 136t151.5 48q80 0 135 -31l-31 -92q-41 25 -102 25
q-45 0 -76 -25.5t-31 -79.5q0 -35 18 -59.5t44 -36.5q20 5 98 15.5t107 10.5v-100q-16 0 -72.5 -5.5t-208.5 -25.5l-115 -18v94z" />
    </font>
</defs>
</svg>
