<?xml version="1.0" standalone="no"?>
<!DOCTYPE svg PUBLIC "-//W3C//DTD SVG 1.1//EN" "http://www.w3.org/Graphics/SVG/1.1/DTD/svg11.dtd" >
<svg>
<metadata>
Created by FontForge 20090622 at Tue Feb  6 16:01:17 2018
 By deploy user
Copyright 2006 Volkswagen AG.
</metadata>
<defs>
<font id="VWHeadlineOT-Black" horiz-adv-x="500" >
  <font-face 
    font-family="VW Headline OT-Black"
    font-weight="900"
    font-stretch="normal"
    units-per-em="1000"
    panose-1="2 11 10 3 0 0 0 2 0 3"
    ascent="800"
    descent="-200"
    x-height="438"
    cap-height="709"
    bbox="-158 -303 1128 1019"
    underline-thickness="20"
    underline-position="-110"
    unicode-range="U+0020-U+FB04"
  />
<missing-glyph horiz-adv-x="289" 
 />
    <glyph glyph-name="ff" unicode="ff" horiz-adv-x="625" 
d="M71 332h-59v106h59v104q0 48 6 86.5t24 66.5t51 43t86 15q22 0 45 -2.5t45 -7.5l-17 -117q-8 2 -19 3.5t-20 1.5q-24 0 -37 -10q-6 -5 -10.5 -11.5t-7 -17.5t-3.5 -28t-1 -43v-83h158v110q0 48 6 86.5t24 66.5t51 43t86 15q22 0 42.5 -2t37.5 -5v-118q-21 3 -41 3
q-17 0 -26.5 -2.5t-15.5 -7.5t-10.5 -11.5t-7 -17.5t-3.5 -28t-1 -43v-89h99v-106h-99v-332h-142v332h-158v-332h-142v332z" />
    <glyph glyph-name="fi" unicode="fi" horiz-adv-x="574" 
d="M443 517q-18 0 -33.5 7t-27 18.5t-18.5 27t-7 33.5t7 33.5t18.5 27t27 18.5t33.5 7t33.5 -7t27 -18.5t18.5 -27t7 -33.5t-7 -33.5t-18.5 -27t-27 -18.5t-33.5 -7zM71 332h-59v106h59v110q0 48 6 86.5t24 66.5t51 43t86 15q20 0 43.5 -2.5t46.5 -7.5l-18 -117q-20 5 -40 5
q-22 0 -35 -10q-6 -5 -10.5 -11.5t-7 -17.5t-3.5 -28t-1 -43v-89h301v-438h-142v332h-159v-332h-142v332z" />
    <glyph glyph-name="fl" unicode="fl" horiz-adv-x="571" 
d="M71 332h-59v106h59v110q0 96 57 151.5t172 55.5q15 0 34.5 -1.5t37.5 -4.5h142v-749h-142v629q-16 4 -30.5 6t-30.5 2q-48 0 -73 -22.5t-25 -87.5v-89h99v-106h-99v-332h-142v332z" />
    <glyph glyph-name="ffi" unicode="ffi" horiz-adv-x="875" 
d="M658 603q0 18 7 33.5t18.5 27t27 18.5t33.5 7t33.5 -7t27 -18.5t18.5 -27t7 -33.5t-7 -33.5t-18.5 -27t-27 -18.5t-33.5 -7t-33.5 7t-27 18.5t-18.5 27t-7 33.5zM71 332h-59v106h59v104q0 48 6 86.5t24 66.5t51 43t86 15q20 0 43.5 -2.5t46.5 -7.5l-18 -117q-20 5 -40 5
q-22 0 -35 -10q-6 -5 -10.5 -11.5t-7 -17.5t-3.5 -28t-1 -43v-83h159v110q0 48 6 86.5t24 66.5t51 43t86 15q20 0 43.5 -2.5t46.5 -7.5l-18 -117q-20 5 -40 5q-22 0 -35 -10q-6 -5 -10.5 -11.5t-7 -17.5t-3.5 -28t-1 -43v-89h301v-438h-142v332h-159v-332h-142v332h-159
v-332h-142v332z" />
    <glyph glyph-name="ffl" unicode="ffl" horiz-adv-x="872" 
d="M71 332h-59v106h59v104q0 48 6 86.5t24 66.5t51 43t86 15q20 0 43.5 -2.5t46.5 -7.5l-18 -117q-20 5 -40 5q-22 0 -35 -10q-6 -5 -10.5 -11.5t-7 -17.5t-3.5 -28t-1 -43v-83h159v110q0 96 57 151.5t172 55.5q15 0 34.5 -1.5t37.5 -4.5h142v-749h-142v629q-16 4 -30.5 6
t-30.5 2q-48 0 -73 -22.5t-25 -87.5v-89h99v-106h-99v-332h-142v332h-159v-332h-142v332z" />
    <glyph glyph-name=".notdef" horiz-adv-x="289" 
 />
    <glyph glyph-name=".null" horiz-adv-x="271" 
 />
    <glyph glyph-name="nonmarkingreturn" horiz-adv-x="271" 
 />
    <glyph glyph-name="space" unicode=" " horiz-adv-x="271" 
 />
    <glyph glyph-name="exclam" unicode="!" horiz-adv-x="338" 
d="M93 709h152v-481h-152v481zM169 -11q-37 0 -63 26t-26 63t26 63t63 26t63 -26t26 -63t-26 -63t-63 -26z" />
    <glyph glyph-name="quotedbl" unicode="&#x22;" horiz-adv-x="455" 
d="M263 727h140l-24 -299h-91zM54 727h140l-24 -299h-92z" />
    <glyph glyph-name="numbersign" unicode="#" horiz-adv-x="680" 
d="M137 187h-97v116h113l16 112h-97v116h113l25 178h130l-25 -178h111l25 178h130l-25 -178h89v-116h-105l-16 -112h89v-116h-105l-26 -187h-130l26 187h-111l-26 -187h-130zM394 303l16 112h-111l-16 -112h111z" />
    <glyph glyph-name="dollar" unicode="$" horiz-adv-x="580" 
d="M265 -12q-66 5 -117.5 33.5t-89.5 66.5l79 100q25 -25 59 -46.5t69 -30.5v175q-40 16 -74 35.5t-59 46t-39 61.5t-14 83q0 34 13 67.5t37.5 61t59 47.5t77.5 26v91h66v-89q60 -5 102 -25t77 -53l-77 -97q-26 26 -50.5 38.5t-51.5 16.5v-183q40 -17 75 -34.5t60.5 -42
t40 -57.5t14.5 -80q0 -40 -14 -75t-39 -63t-60 -46.5t-77 -24.5v-110h-67v108zM270 593q-28 -8 -41.5 -28t-13.5 -46q0 -28 14 -46t41 -32v152zM328 111q27 7 41.5 26t14.5 45q0 27 -14 44.5t-42 32.5v-148z" />
    <glyph glyph-name="percent" unicode="%" horiz-adv-x="889" 
d="M682 -17q-77 0 -119 59.5t-42 173.5q0 51 12.5 93.5t35 73t54.5 47t71 16.5q34 0 63 -13t50.5 -41t34 -71.5t12.5 -104.5q0 -57 -13.5 -101t-37 -73t-55 -44t-66.5 -15zM588 738l79 -34l-365 -737l-78 35zM192 256q-77 0 -119 59.5t-42 173.5q0 51 12.5 93.5t35 73
t54.5 47t71 16.5q34 0 63 -13t50.5 -41t34 -71.5t12.5 -104.5q0 -57 -13.5 -101t-37 -73t-55 -44t-66.5 -15zM687 79q30 0 47.5 34.5t17.5 102.5q0 62 -15 98.5t-48 36.5q-31 0 -48.5 -38t-17.5 -97q0 -65 14.5 -101t49.5 -36zM197 352q30 0 47.5 34.5t17.5 102.5
q0 62 -15 98.5t-48 36.5q-31 0 -48.5 -38t-17.5 -97q0 -65 14.5 -101t49.5 -36z" />
    <glyph glyph-name="ampersand" unicode="&#x26;" horiz-adv-x="662" 
d="M430 80q-53 -45 -99 -68t-97 -23q-41 0 -76.5 13.5t-61 39t-40 62t-14.5 81.5q0 51 33 98t103 102q-38 43 -56 84t-18 76q0 33 12 64.5t35 55.5t58 38.5t80 14.5q86 0 137 -45.5t51 -127.5q0 -41 -26.5 -83t-80.5 -84l-13 -10l90 -108l89 78l85 -98l-92 -78l98 -117v-45
h-131zM279 461q27 21 44.5 42.5t17.5 41.5q0 28 -16 41t-37 13q-23 0 -38.5 -16.5t-15.5 -37.5q0 -19 14 -41t31 -43zM255 291q-40 -30 -55 -51.5t-15 -48.5q0 -32 19 -51.5t48 -19.5q28 0 48 15t50 41z" />
    <glyph glyph-name="quotesingle" unicode="'" horiz-adv-x="244" 
d="M54 727h140l-24 -299h-92z" />
    <glyph glyph-name="parenleft" unicode="(" horiz-adv-x="300" 
d="M171 -234q-33 59 -56 116t-37.5 114t-20.5 114.5t-6 118.5q0 65 7 126.5t22 121.5t38 120.5t56 123.5l107 -38q-28 -56 -48.5 -109.5t-34.5 -108.5t-21 -112t-7 -119q0 -129 29 -233.5t80 -193.5l-108 -41v0z" />
    <glyph glyph-name="parenright" unicode=")" horiz-adv-x="300" 
d="M21 -196q27 54 47.5 106t35 106.5t22 113t7.5 124.5q0 126 -30 235.5t-80 190.5l108 41q26 -47 48 -96.5t38 -105t25 -120t9 -140.5q0 -74 -7.5 -137t-22.5 -122t-38.5 -116t-54.5 -118z" />
    <glyph glyph-name="asterisk" unicode="*" horiz-adv-x="356" 
d="M17 501l94 48l-95 47l43 74l85 -64l-11 103h81l-8 -102l84 63l44 -71l-93 -49l94 -47l-44 -72l-83 61l8 -103h-84l11 104l-81 -63z" />
    <glyph glyph-name="plus" unicode="+" horiz-adv-x="670" 
d="M42 357h229v227h129v-227h228v-128h-228v-229h-129v229h-229v128z" />
    <glyph glyph-name="comma" unicode="," horiz-adv-x="251" 
d="M13 -124q26 23 41.5 45t15.5 48q0 18 -4 31t-9 23.5t-9 21.5t-4 25q0 36 24 60.5t59 24.5q36 0 61 -24.5t25 -68.5q0 -67 -42.5 -127t-112.5 -111z" />
    <glyph glyph-name="hyphen" unicode="-" horiz-adv-x="377" 
d="M40 312h296v-118h-296v118z" />
    <glyph glyph-name="period" unicode="." horiz-adv-x="251" 
d="M126 -19q-36 0 -61.5 25.5t-25.5 61.5t25.5 61.5t61.5 25.5t61.5 -25.5t25.5 -61.5t-25.5 -61.5t-61.5 -25.5z" />
    <glyph glyph-name="slash" unicode="/" 
d="M403 709h98l-405 -709h-96z" />
    <glyph glyph-name="zero" unicode="0" horiz-adv-x="580" 
d="M278 -15q-118 0 -182 94.5t-64 272.5q0 89 18.5 158.5t52.5 117t83 72.5t111 25t109 -27t78.5 -76.5t47.5 -118.5t16 -152q0 -65 -14 -130t-45.5 -117.5t-83.5 -85.5t-127 -33zM290 118q21 0 40 10t33.5 36t22.5 71t8 116q0 52 -5 96.5t-17.5 77t-32.5 51t-50 18.5
q-56 0 -79.5 -64t-23.5 -178q0 -54 6 -97t19 -73.5t32.5 -47t46.5 -16.5z" />
    <glyph glyph-name="one" unicode="1" horiz-adv-x="580" 
d="M81 138h132v433h-132v138h286v-571h132v-138h-418v138z" />
    <glyph glyph-name="two" unicode="2" horiz-adv-x="580" 
d="M57 44l200 240q34 41 57 72t36 55.5t18.5 46t5.5 44.5q0 36 -25 61t-66 25q-27 0 -46 -10.5t-30 -29t-15.5 -43t-2.5 -52.5h-147q-2 66 15 117t50 85t79.5 51.5t103.5 17.5q60 0 105 -18t75 -48.5t45 -69.5t15 -81q0 -30 -6.5 -59t-21.5 -61t-40 -68t-62 -79l-51 -57.5
l-47 -51.5q48 3 98 3h139v-134h-482v44z" />
    <glyph glyph-name="three" unicode="3" horiz-adv-x="580" 
d="M184 227q-6 -116 101 -116q26 0 44 8t29.5 21.5t17 30t5.5 34.5q0 46 -29.5 69.5t-94.5 23.5h-38v125h31q54 0 85.5 21t31.5 68q0 38 -23 62t-61 24q-45 0 -65 -28t-19 -73h-146q-1 48 14.5 89.5t46 73t75 49.5t101.5 18q51 0 93 -15.5t72.5 -43.5t47.5 -66t17 -84
q0 -49 -23.5 -88t-67.5 -62q24 -8 44.5 -24t35.5 -37.5t23 -46.5t8 -52q0 -41 -16.5 -80.5t-48.5 -71t-79 -51t-107 -19.5q-50 0 -95 14t-79.5 43t-54.5 75t-20 109h144z" />
    <glyph glyph-name="four" unicode="4" horiz-adv-x="580" 
d="M20 275l291 434h161v-435h88v-128h-88v-146h-153v146h-299v129zM321 272v122q0 42 1 77t5 69l-27.5 -51.5t-27.5 -47.5l-111 -169h160z" />
    <glyph glyph-name="five" unicode="5" horiz-adv-x="580" 
d="M81 177q37 -30 82.5 -44.5t92.5 -14.5q23 0 44.5 7.5t38.5 22t27.5 36t10.5 50.5q0 23 -10.5 45t-31 39t-51 27.5t-70.5 10.5q-30 0 -63.5 -5.5t-61.5 -14.5l38 373h365v-136h-248l-9 -101q7 0 14 1q6 0 12 0.5t11 0.5q54 0 101.5 -15.5t83 -45t56 -72.5t20.5 -97
q0 -52 -19 -98.5t-55.5 -82t-89.5 -56.5t-122 -21q-26 0 -53.5 3.5t-53.5 11t-50 17.5t-43 24z" />
    <glyph glyph-name="six" unicode="6" horiz-adv-x="580" 
d="M472 709l-34.5 -40.5l-39.5 -48.5l-38.5 -48.5t-31.5 -41.5q-22 -29 -40.5 -56t-40.5 -56q26 15 45.5 19.5t47.5 4.5q43 0 80.5 -15t66 -42.5t45 -66t16.5 -85.5q0 -51 -20 -96t-55.5 -78.5t-83.5 -53t-105 -19.5q-54 0 -100 16.5t-80 48t-53 76.5t-19 102q0 60 22 120
t72 135q38 58 81.5 116l83.5 109h181zM291 116q22 0 42 8.5t34 23.5t22.5 35t8.5 42t-8.5 41t-22.5 33.5t-34 23t-42 8.5t-41.5 -8.5t-34 -23t-23 -34t-8.5 -41.5q0 -46 30.5 -77t76.5 -31z" />
    <glyph glyph-name="seven" unicode="7" horiz-adv-x="580" 
d="M351 575h-317v134h512v-61l-304 -648h-172z" />
    <glyph glyph-name="eight" unicode="8" horiz-adv-x="580" 
d="M287 -12q-49 0 -94 15t-79 43.5t-54.5 68.5t-20.5 91q0 28 8.5 55t24.5 50t39 40.5t52 26.5q-46 20 -71.5 61t-25.5 88q0 41 15 77.5t43.5 64t71 43.5t98.5 16q46 0 87 -13.5t71.5 -38t48 -60t17.5 -79.5q0 -49 -26.5 -88.5t-74.5 -62.5q28 -9 51 -27t39 -40.5
t24.5 -48.5t8.5 -52q0 -45 -17.5 -87t-50.5 -73.5t-80 -50.5t-105 -19zM291 438q36 0 61.5 23.5t25.5 60.5q0 35 -25 59.5t-63 24.5t-61.5 -25t-23.5 -60q0 -34 24 -58.5t62 -24.5zM290 117q41 0 68.5 27.5t27.5 69.5q0 20 -7.5 37.5t-21 30.5t-31 20.5t-37.5 7.5
q-40 0 -68 -28t-28 -68q0 -39 26 -68t71 -29z" />
    <glyph glyph-name="nine" unicode="9" horiz-adv-x="580" 
d="M107 0l67.5 83.5l61.5 79.5l97 130q-16 -11 -37.5 -18t-48.5 -7q-45 0 -84 15t-68 43t-45.5 66.5t-16.5 86.5q0 54 21 99t57 77.5t83 50.5t98 18q58 0 105.5 -17.5t80.5 -49.5t51 -77t18 -100q0 -39 -8.5 -75.5t-25 -74t-41.5 -76.5t-57 -83l-126 -171h-182zM289 379
q22 0 41.5 8.5t34 23.5t22.5 35t8 43q0 22 -8.5 41t-23 33.5t-34 22.5t-41.5 8t-41.5 -8.5t-34 -23t-23 -34t-8.5 -41.5q0 -45 30 -76.5t78 -31.5z" />
    <glyph glyph-name="colon" unicode=":" horiz-adv-x="342" 
d="M171 267q-36 0 -61.5 25t-25.5 61t25.5 61t61.5 25t61.5 -25t25.5 -61t-25.5 -61t-61.5 -25zM171 -17q-36 0 -61.5 25t-25.5 61t25.5 61t61.5 25t61.5 -25t25.5 -61t-25.5 -61t-61.5 -25z" />
    <glyph glyph-name="semicolon" unicode=";" horiz-adv-x="342" 
d="M171 267q-36 0 -61.5 25t-25.5 61t25.5 61t61.5 25t61.5 -25t25.5 -61t-25.5 -61t-61.5 -25zM58 -124q26 23 41.5 45t15.5 48q0 18 -4 31t-9 23.5t-9 21.5t-4 25q0 36 24 60.5t59 24.5q36 0 61 -24.5t25 -68.5q0 -67 -42.5 -127t-112.5 -111z" />
    <glyph glyph-name="less" unicode="&#x3c;" horiz-adv-x="670" 
d="M40 404l570 243v-140l-392 -166l392 -161v-153l-570 243v134z" />
    <glyph glyph-name="equal" unicode="=" horiz-adv-x="670" 
d="M0 461h670v-127h-670v127zM0 252h670v-128h-670v128z" />
    <glyph glyph-name="greater" unicode="&#x3e;" horiz-adv-x="670" 
d="M40 173l392 166l-392 161v147l570 -243v-134l-570 -243v146z" />
    <glyph glyph-name="question" unicode="?" horiz-adv-x="564" 
d="M220 400h54q26 0 45.5 8t32.5 21.5t19.5 30.5t6.5 35q0 19 -7.5 36.5t-20 30t-30 20t-36.5 7.5q-20 0 -37 -7.5t-29.5 -20t-20 -30t-7.5 -37.5h-125q0 49 15.5 91t44.5 73t71 48.5t95 17.5q57 0 101 -17.5t74 -48t46 -71t16 -85.5q0 -77 -42 -131.5t-121 -71.5v-75h-145
v176zM295 -11q-36 0 -61.5 25.5t-25.5 61.5t25.5 61.5t61.5 25.5t61.5 -25.5t25.5 -61.5t-25.5 -61.5t-61.5 -25.5z" />
    <glyph glyph-name="at" unicode="@" horiz-adv-x="1047" 
d="M596 105q-26 -27 -58 -42t-77 -15q-42 0 -78 15.5t-63 44.5t-42.5 70.5t-15.5 94.5q0 51 16.5 94.5t45 75t66.5 49.5t81 18t75.5 -17.5t49.5 -45.5v51h132v-327q42 0 70.5 13t46 38t25.5 59.5t8 78.5q0 50 -21 102t-64 94t-108.5 69t-153.5 27q-78 0 -145.5 -30
t-117.5 -81.5t-79 -120t-29 -146.5q0 -80 28.5 -149.5t79 -121t118.5 -81t147 -29.5q34 0 69.5 5.5t69.5 16t65.5 24t57.5 30.5l47 -91q-65 -45 -144 -67.5t-167 -22.5q-102 0 -191 37.5t-155 102.5t-104 154t-38 192q0 100 38.5 188.5t105 154.5t155 104.5t189.5 38.5
q108 0 194.5 -32.5t147 -87.5t92.5 -127.5t32 -152.5q0 -65 -17.5 -120t-55 -95t-96.5 -62.5t-141 -22.5h-91v45zM502 157q23 0 41.5 9.5t31 25.5t19 36.5t6.5 43.5q0 24 -7 45t-20.5 37t-32.5 25.5t-43 9.5q-42 0 -70 -30.5t-28 -81.5q0 -24 7 -46t20.5 -38.5t32.5 -26
t43 -9.5z" />
    <glyph glyph-name="A" unicode="A" horiz-adv-x="741" 
d="M282 709h164l292 -709h-171l-53 143h-294l-52 -143h-165zM465 277l-60 161q-10 27 -20.5 59t-19.5 64q-9 -33 -19 -64.5t-20 -59.5l-58 -160h197z" />
    <glyph glyph-name="B" unicode="B" horiz-adv-x="648" 
d="M80 709h225q36 0 63.5 -2.5t50.5 -9.5t42.5 -19.5t39.5 -31.5q44 -44 44 -118q0 -49 -20.5 -82.5t-57.5 -54.5q59 -11 97.5 -57t38.5 -114q0 -95 -61 -155q-31 -31 -83 -48t-146 -17h-233v709zM298 433q50 0 71 21q11 11 18 26t7 35q0 12 -4 25t-14 23q-12 12 -28 17
t-47 5h-71v-152h68zM324 125q66 0 95.5 23.5t29.5 68.5q0 17 -5 35.5t-17 30.5q-18 18 -41.5 22.5t-55.5 4.5h-100v-185h94z" />
    <glyph glyph-name="C" unicode="C" horiz-adv-x="640" 
d="M593 27q-37 -19 -89 -30.5t-108 -11.5q-82 0 -148.5 29t-113 78.5t-71.5 115.5t-25 140q0 79 26.5 147t74.5 118t115.5 79t148.5 29q110 0 190 -37v-167q-34 28 -84 46t-101 18q-45 0 -83.5 -15.5t-67 -44.5t-44.5 -72t-16 -97q0 -45 13.5 -85.5t40.5 -71.5t67.5 -49.5
t94.5 -18.5q60 0 104 16.5t76 41.5v-158v0z" />
    <glyph glyph-name="D" unicode="D" horiz-adv-x="696" 
d="M80 709h201q90 0 159 -23t115 -69q51 -51 77 -111t26 -141q0 -91 -29.5 -155t-76.5 -111q-54 -54 -124.5 -76.5t-155.5 -22.5h-192v709zM275 125q51 0 89 12.5t67 40.5q25 25 45 68.5t20 112.5q0 55 -16.5 98.5t-43.5 70.5q-35 35 -78 46t-91 11h-35v-460h43z" />
    <glyph glyph-name="E" unicode="E" horiz-adv-x="556" 
d="M80 709h401v-139h-247v-140h242v-138h-242v-151h247v-141h-401v709z" />
    <glyph glyph-name="F" unicode="F" horiz-adv-x="537" 
d="M80 709h401v-139h-247v-140h246v-138h-246v-292h-154v709z" />
    <glyph glyph-name="G" unicode="G" horiz-adv-x="792" 
d="M402 377h356v-28q0 -77 -24 -143.5t-70.5 -116t-113.5 -78t-154 -28.5q-82 0 -148.5 28.5t-113.5 79t-72.5 118.5t-25.5 147t26 147.5t74 118t115.5 78t150.5 28.5q96 0 178 -40.5t133 -121.5l-125 -74q-34 47 -81 71.5t-107 24.5q-51 0 -90 -18t-65 -49.5t-39.5 -73
t-13.5 -87.5q0 -48 13.5 -91.5t40.5 -77t66.5 -53t92.5 -19.5q70 0 119.5 34t67.5 92h-190v132z" />
    <glyph glyph-name="H" unicode="H" horiz-adv-x="731" 
d="M80 709h154v-279h263v279h154v-709h-154v292h-263v-292h-154v709z" />
    <glyph glyph-name="I" unicode="I" horiz-adv-x="314" 
d="M80 709h154v-709h-154v709z" />
    <glyph glyph-name="J" unicode="J" horiz-adv-x="478" 
d="M116 206q12 -35 32.5 -56t48.5 -21q11 0 19 3.5t13 8.5q13 13 17 34t4 66v468h152v-464q0 -41 -3.5 -72t-11 -55.5t-19.5 -43.5t-29 -36q-26 -26 -63.5 -38.5t-85.5 -12.5q-33 0 -63 10t-55 28.5t-44.5 44t-31.5 57.5z" />
    <glyph glyph-name="K" unicode="K" horiz-adv-x="699" 
d="M80 709h154v-319l237 319h186l-269 -338l278 -371h-193l-239 330v-330h-154v709z" />
    <glyph glyph-name="L" unicode="L" horiz-adv-x="492" 
d="M80 709h155v-568h246v-141h-401v709z" />
    <glyph glyph-name="M" unicode="M" horiz-adv-x="921" 
d="M134 709h160l123 -342q12 -34 23.5 -71.5t20.5 -75.5l21 77t21 67l124 345h157l99 -709h-150l-43 385q-3 26 -4.5 57.5t-2.5 70.5l-18.5 -67t-16.5 -55l-140 -391h-102l-138 382q-9 25 -18.5 58.5t-17.5 67.5q0 -40 -2 -72t-5 -61l-40 -375h-148z" />
    <glyph glyph-name="N" unicode="N" horiz-adv-x="773" 
d="M80 709h140l239 -341l54.5 -81.5t44.5 -74.5q-5 56 -6 103.5t-2 103.5l-2 290h145v-709h-138l-247 351l-49 70.5t-46 71.5l4 -80.5t3 -80.5l7 -332h-147v709z" />
    <glyph glyph-name="O" unicode="O" horiz-adv-x="813" 
d="M406 -19q-79 0 -147.5 29t-119.5 79t-80 118t-29 146q0 77 30 145t81 118.5t119.5 80t145.5 29.5q78 0 147 -29t120 -79t80.5 -118.5t29.5 -146.5q0 -77 -30 -144.5t-81.5 -118t-120 -80t-145.5 -29.5zM406 128q47 0 87 17.5t69.5 48.5t46 72.5t16.5 88.5t-16.5 88
t-46 72t-69.5 48.5t-87 17.5t-87 -17.5t-69 -48.5t-45.5 -72t-16.5 -88t16.5 -88.5t45.5 -72.5t69 -48.5t87 -17.5z" />
    <glyph glyph-name="P" unicode="P" horiz-adv-x="590" 
d="M80 709h203q75 0 130.5 -13t93.5 -51q28 -28 43 -67.5t15 -87.5t-15 -88t-44 -69q-36 -36 -90 -52.5t-120 -16.5h-63v-264h-153v709zM294 394q61 0 88 27q12 12 18.5 29.5t6.5 35.5q0 20 -6 37t-17 28q-13 13 -32.5 19.5t-52.5 6.5h-66v-183h61z" />
    <glyph glyph-name="Q" unicode="Q" horiz-adv-x="813" 
d="M564 16q-36 -17 -75.5 -26t-82.5 -9q-79 0 -147.5 29t-119.5 79t-80 118t-29 146q0 77 30 145t81 118.5t119.5 80t145.5 29.5q78 0 147 -29t120 -79t80.5 -118.5t29.5 -146.5t-30.5 -146.5t-84.5 -119.5l102 -127l-139 -27zM383 241l139 28l51 -63q25 29 38.5 67t13.5 82
q0 47 -16.5 88t-46 72t-69.5 48.5t-87 17.5t-87 -17.5t-69 -48.5t-45.5 -72t-16.5 -88t16.5 -88.5t45.5 -72.5t69 -48.5t87 -17.5q29 0 61 8z" />
    <glyph glyph-name="R" unicode="R" horiz-adv-x="622" 
d="M80 709h219q64 0 117.5 -14t89.5 -50q31 -31 44 -66t13 -80q0 -39 -12.5 -73t-34.5 -60t-52.5 -43t-65.5 -22l204 -301h-182l-187 299v-299h-153v709zM288 399q36 0 57.5 6.5t35.5 20.5q26 26 26 67q0 8 -3 24.5t-17 33.5q-20 23 -47 28.5t-55 5.5h-52v-186h55z" />
    <glyph glyph-name="S" unicode="S" horiz-adv-x="558" 
d="M126 192l27.5 -28.5t31.5 -26t36.5 -19t41.5 -7.5q38 0 63.5 23.5t25.5 61.5q0 30 -21.5 50t-53.5 37.5t-69.5 35t-69.5 43t-53.5 62.5t-21.5 93q0 48 18.5 86.5t50 66.5t73.5 43t88 15q63 0 117 -26t89 -68l-94 -102q-20 32 -48.5 50t-59.5 18q-37 0 -58 -22t-21 -54
q0 -29 21.5 -48t54 -35.5t70.5 -33t70.5 -41.5t54 -61.5t21.5 -91.5q0 -54 -20 -97t-54.5 -73t-80.5 -46t-97 -16q-75 0 -130.5 26.5t-98.5 73.5z" />
    <glyph glyph-name="T" unicode="T" horiz-adv-x="482" 
d="M164 570h-152v139h458v-137h-152v-572h-154v570z" />
    <glyph glyph-name="U" unicode="U" horiz-adv-x="727" 
d="M76 709h154v-438q0 -45 6.5 -69t26.5 -44q15 -15 40.5 -28t64.5 -13q34 0 57 11t37 25q20 20 29 46t9 67v443h151v-430q0 -71 -19 -126t-61 -97q-38 -38 -92.5 -55.5t-116.5 -17.5q-66 0 -123.5 20.5t-95.5 58.5q-30 30 -48.5 76.5t-18.5 123.5v447z" />
    <glyph glyph-name="V" unicode="V" horiz-adv-x="705" 
d="M4 709h170l135 -400q13 -38 23 -73t19 -70q9 37 19 70t22 68l140 405h168l-266 -709h-168z" />
    <glyph glyph-name="W" unicode="W" horiz-adv-x="1010" 
d="M19 709h160l99 -387q9 -36 16.5 -76.5t12.5 -81.5q6 42 13.5 83.5t15.5 78.5l84 383h171l87 -389q8 -32 16 -72.5t14 -85.5q7 43 14.5 84.5t15.5 71.5l98 391h155l-207 -709h-166l-88 391q-6 28 -13.5 67t-15.5 87q-7 -48 -13 -85t-13 -69l-85 -391h-164z" />
    <glyph glyph-name="X" unicode="X" horiz-adv-x="682" 
d="M265 372l-238 337h189l133 -213l139 213h183l-242 -334l252 -375h-181l-159 250l-159 -250h-181z" />
    <glyph glyph-name="Y" unicode="Y" horiz-adv-x="631" 
d="M238 317l-235 392h179l136 -270l138 270h173l-237 -386v-323h-154v317z" />
    <glyph glyph-name="Z" unicode="Z" horiz-adv-x="607" 
d="M332 572h-296v137h548l-331 -571h327v-138h-579z" />
    <glyph glyph-name="bracketleft" unicode="[" horiz-adv-x="377" 
d="M85 709h258v-107h-127v-711h128v-111h-259v929z" />
    <glyph glyph-name="backslash" unicode="\" horiz-adv-x="356" 
d="M2 709h129l229 -727h-129z" />
    <glyph glyph-name="bracketright" unicode="]" horiz-adv-x="377" 
d="M31 -109h130v712h-129v106h258v-928h-259v110z" />
    <glyph glyph-name="asciicircum" unicode="^" horiz-adv-x="732" 
d="M318 709h105l195 -397h-139l-110 232l-117 -232h-138z" />
    <glyph glyph-name="underscore" unicode="_" horiz-adv-x="502" 
d="M-10 -113h522v-128h-522v128z" />
    <glyph glyph-name="grave" unicode="`" 
d="M234 709l142 -164l-82 -55l-171 136z" />
    <glyph glyph-name="a" unicode="a" horiz-adv-x="590" 
d="M392 45q-27 -27 -63 -43.5t-87 -16.5q-48 0 -86 17t-64.5 47t-40.5 72t-14 92q0 52 15 95.5t43 75.5t68.5 50t91.5 18q46 0 82.5 -18.5t54.5 -46.5v51h141v-438h-141v45zM292 97q25 0 44.5 9.5t33 25.5t20.5 36.5t7 43.5q0 24 -8 45t-22 37t-34.5 25.5t-45.5 9.5
q-45 0 -74.5 -30.5t-29.5 -81.5q0 -24 7.5 -46t21.5 -38.5t34 -26t46 -9.5z" />
    <glyph glyph-name="b" unicode="b" horiz-adv-x="589" 
d="M57 749h142v-368q27 33 62 51t85 18q43 0 81 -16t65.5 -45.5t43.5 -71.5t16 -93q0 -56 -17 -100t-46.5 -74t-69.5 -46t-85 -16q-47 0 -78.5 15t-56.5 44v-47h-142v749zM300 102q24 0 43.5 9.5t32.5 25t20 36.5t7 44q0 21 -6.5 41t-19 36t-32 25.5t-46.5 9.5
q-48 0 -77 -31t-29 -82q0 -19 6 -39t19 -36.5t33.5 -27.5t48.5 -11z" />
    <glyph glyph-name="c" unicode="c" horiz-adv-x="439" 
d="M398 10q-20 -8 -55 -16t-74 -8q-56 0 -99 18.5t-72.5 50t-45 73t-15.5 88.5q0 44 15.5 86.5t45.5 75.5t75.5 53.5t105.5 20.5q30 0 63 -6t56 -17v-128q-15 11 -43.5 19.5t-54.5 8.5q-48 0 -82 -29t-34 -80q0 -23 8 -44t23 -36.5t36.5 -24.5t48.5 -9q29 0 55 9t43 24v-129
v0z" />
    <glyph glyph-name="d" unicode="d" horiz-adv-x="591" 
d="M392 56q-27 -28 -62 -47t-90 -19q-48 0 -86 18t-64 48.5t-39.5 72t-13.5 89.5q0 47 15 88.5t43.5 73t69.5 49.5t92 18q42 0 76.5 -13t58.5 -37v351h142v-748h-142v56zM288 106q24 0 44 9.5t34 25.5t22 37.5t8 44.5q0 25 -9 45.5t-23.5 34t-33 21t-38.5 7.5
q-24 0 -43.5 -9t-33 -25t-21 -36.5t-7.5 -43.5q0 -27 8.5 -47.5t23 -35t32.5 -21.5t37 -7z" />
    <glyph glyph-name="e" unicode="e" horiz-adv-x="528" 
d="M481 85q-38 -50 -89 -75.5t-127 -25.5q-44 0 -85.5 14.5t-73 43t-50.5 72t-19 102.5q0 51 16.5 94.5t47 75.5t72.5 50t93 18q50 0 91.5 -15.5t71 -44.5t46 -71.5t16.5 -97.5v-16.5t-1 -23.5h-316q2 -42 31 -69.5t75 -27.5q66 0 109 58zM350 269q0 16 -6 31t-17 27
t-26.5 19.5t-35.5 7.5q-38 0 -62 -24t-28 -61h175z" />
    <glyph glyph-name="f" unicode="f" horiz-adv-x="325" 
d="M71 332h-59v106h59v110q0 48 6 86.5t24 66.5t51 43t86 15q22 0 42.5 -2t37.5 -5v-118q-21 3 -41 3q-17 0 -26.5 -2.5t-15.5 -7.5t-10.5 -11.5t-7 -17.5t-3.5 -28t-1 -43v-89h99v-106h-99v-332h-142v332z" />
    <glyph glyph-name="g" unicode="g" horiz-adv-x="583" 
d="M203 -44q0 -14 7 -26t19 -20.5t27 -13.5t31 -5q98 0 98 109v62q-29 -32 -64.5 -45.5t-77.5 -13.5q-53 0 -91.5 17.5t-64 47.5t-38 69t-12.5 83q0 49 16 91.5t44.5 73t66.5 48t83 17.5q46 0 82 -15t56 -47v50h141v-397q0 -36 -3 -64t-9.5 -50.5t-18 -41t-27.5 -34.5
q-37 -35 -83.5 -50.5t-106.5 -15.5q-51 0 -91.5 13t-68 36.5t-42 54.5t-14.5 67h141zM289 113q24 0 42.5 9t31 24.5t19.5 35.5t7 42q0 18 -6.5 36.5t-19 34t-32.5 25.5t-47 10q-23 0 -41.5 -8.5t-31.5 -23t-20.5 -34t-7.5 -41.5q0 -49 28 -79.5t78 -30.5z" />
    <glyph glyph-name="h" unicode="h" horiz-adv-x="546" 
d="M57 749h142v-365q10 12 23 24.5t30.5 22t39 15.5t49.5 6q32 0 61.5 -11t48.5 -30q23 -23 32.5 -54t9.5 -70v-287h-142v251q0 33 -16 55.5t-53 22.5q-19 0 -32.5 -6t-26.5 -19q-14 -14 -19 -35t-5 -50v-219h-142v749z" />
    <glyph glyph-name="i" unicode="i" horiz-adv-x="262" 
d="M131 517q-18 0 -33.5 7t-27 18.5t-18.5 27t-7 33.5t7 33.5t18.5 27t27 18.5t33.5 7t33.5 -7t27 -18.5t18.5 -27t7 -33.5t-7 -33.5t-18.5 -27t-27 -18.5t-33.5 -7zM60 438h142v-438h-142v438z" />
    <glyph glyph-name="j" unicode="j" horiz-adv-x="262" 
d="M131 517q-18 0 -33.5 7t-27 18.5t-18.5 27t-7 33.5t7 33.5t18.5 27t27 18.5t33.5 7t33.5 -7t27 -18.5t18.5 -27t7 -33.5t-7 -33.5t-18.5 -27t-27 -18.5t-33.5 -7zM60 438h142v-639h-142v639z" />
    <glyph glyph-name="k" unicode="k" horiz-adv-x="522" 
d="M57 749h142v-491l138 180h174l-169 -202l181 -236h-186l-138 205v-205h-142v749z" />
    <glyph glyph-name="l" unicode="l" horiz-adv-x="256" 
d="M57 749h142v-749h-142v749z" />
    <glyph glyph-name="m" unicode="m" horiz-adv-x="836" 
d="M57 438h142v-65q22 33 53 54.5t85 21.5q44 0 78 -18t60 -64q23 31 59 56t93 25q32 0 60.5 -8.5t49.5 -29t33.5 -53.5t12.5 -81v-276h-142v242q0 15 -2.5 30.5t-10 27.5t-20.5 20t-34 8q-11 0 -25.5 -4t-27.5 -14.5t-21.5 -29.5t-8.5 -50v-230h-142v242q0 15 -2.5 30.5
t-10 27.5t-20.5 20t-34 8q-11 0 -25.5 -4t-27.5 -14.5t-21.5 -29.5t-8.5 -50v-230h-142v438z" />
    <glyph glyph-name="n" unicode="n" horiz-adv-x="548" 
d="M57 438h142v-58q8 11 20 23t29 22t40 16.5t53 6.5q42 0 70 -13t45 -30q21 -21 30 -50.5t9 -77.5v-277h-142v242q0 15 -3 30.5t-10.5 27.5t-20.5 20t-33 8q-11 0 -25.5 -4t-28.5 -14.5t-23.5 -29.5t-9.5 -50v-230h-142v438z" />
    <glyph glyph-name="o" unicode="o" horiz-adv-x="572" 
d="M279 -16q-51 0 -95 17.5t-77 49t-51.5 74.5t-18.5 95q0 49 18 91.5t50.5 74t78.5 50t102 18.5q54 0 99.5 -17.5t79 -49t52 -74.5t18.5 -94q0 -45 -17 -87t-49.5 -75t-80.5 -53t-109 -20zM286 107q24 0 43 9t33 24.5t21.5 36t7.5 42.5q0 48 -30.5 79.5t-75.5 31.5
q-24 0 -43.5 -9t-33 -25t-21 -36.5t-7.5 -42.5q0 -24 9 -44t23.5 -35t33.5 -23t40 -8z" />
    <glyph glyph-name="p" unicode="p" horiz-adv-x="592" 
d="M57 438h142v-56q25 33 60.5 50.5t89.5 17.5q45 0 83 -18t65.5 -49t42.5 -73t15 -91q0 -42 -14.5 -83.5t-42 -74.5t-68.5 -53t-94 -20q-48 0 -81.5 15.5t-55.5 40.5v-245h-142v639zM300 98q26 0 45.5 10t32.5 26.5t19.5 37.5t6.5 42t-6 41.5t-19 36.5t-33 26t-48 10
q-24 0 -43.5 -9.5t-33 -26t-20.5 -37.5t-7 -43q0 -49 28.5 -81.5t77.5 -32.5z" />
    <glyph glyph-name="q" unicode="q" horiz-adv-x="592" 
d="M393 45q-23 -26 -56 -41.5t-81 -15.5q-54 0 -95 19t-68.5 51t-41.5 73t-14 86q0 48 16 90t45 73t69.5 49t88.5 18t83 -18t54 -46v55h142v-639h-142v246zM291 101q21 0 40 7t34 21t24 35t9 49q0 22 -7 43t-20.5 37.5t-33 26t-44.5 9.5q-49 0 -77 -32t-28 -82
q0 -22 7 -42.5t20 -36.5t32.5 -25.5t43.5 -9.5z" />
    <glyph glyph-name="r" unicode="r" horiz-adv-x="341" 
d="M57 438h141v-69q19 36 50 59t86 21v-143q-23 15 -58 15q-36 0 -56 -30.5t-20 -99.5v-191h-143v438z" />
    <glyph glyph-name="s" unicode="s" horiz-adv-x="430" 
d="M151 138q8 -22 24.5 -36t38.5 -14q21 0 33 8t12 22q0 16 -16 25.5t-39.5 18l-51 18t-51 25t-39.5 40t-16 62.5q0 30 12 56.5t34.5 46.5t55 31.5t74.5 11.5q62 0 104.5 -24t64.5 -79l-114 -44q-11 26 -27.5 36t-33.5 10q-14 0 -26 -8t-12 -23q0 -17 16 -27.5t39.5 -19
l51.5 -18t51.5 -25t39.5 -40t16 -62.5q0 -33 -14 -59.5t-38.5 -45t-57.5 -28t-72 -9.5q-75 0 -117 25t-62 79z" />
    <glyph glyph-name="t" unicode="t" horiz-adv-x="302" 
d="M79 332h-60v106h60v156h142v-156h81v-106h-81v-332h-142v332z" />
    <glyph glyph-name="u" unicode="u" horiz-adv-x="550" 
d="M53 438h142v-225q0 -23 3.5 -43t12.5 -34.5t25 -23t41 -8.5t40.5 9t23.5 24t11 33.5t3 38.5v229h142v-229q0 -56 -9 -96t-40 -70q-32 -32 -78 -45.5t-95 -13.5q-52 0 -97 15.5t-80 50.5q-24 24 -34.5 61.5t-10.5 97.5v229z" />
    <glyph glyph-name="v" unicode="v" horiz-adv-x="540" 
d="M-1 438h160l84 -214q8 -19 16.5 -46t15.5 -53q6 26 14 52t18 52l78 209h156l-194 -438h-155z" />
    <glyph glyph-name="w" unicode="w" horiz-adv-x="854" 
d="M5 438h148l83 -211q8 -18 13.5 -37.5l11.5 -39.5q5 20 10.5 39.5t10.5 35.5l74 213h146l69 -199q8 -23 14 -44t11 -43q15 49 30 87l78 199h145l-195 -438h-134l-75 215q-5 15 -9.5 30t-8.5 36q-4 -19 -8.5 -36t-9.5 -31l-75 -214h-140z" />
    <glyph glyph-name="x" unicode="x" horiz-adv-x="540" 
d="M182 224l-168 214h170l46.5 -68t41.5 -67l41 68.5t45 66.5h171l-167 -210l179 -228h-169l-51 76l-48 76q-26 -43 -52 -80.5l-52 -71.5h-170z" />
    <glyph glyph-name="y" unicode="y" horiz-adv-x="545" 
d="M202 -9l-203 447h162l81 -196l18.5 -46t18.5 -53l18.5 48l18.5 48l81 199h149l-278 -639h-152z" />
    <glyph glyph-name="z" unicode="z" horiz-adv-x="475" 
d="M228 330h-190v108h420l-218 -331h205v-107h-432z" />
    <glyph glyph-name="braceleft" unicode="{" horiz-adv-x="390" 
d="M112 74q0 70 -16 102.5t-66 32.5v103q24 0 39.5 6t25 21t13.5 39.5t4 60.5v63q0 52 10.5 91t34 64.5t61 38.5t90.5 13h48v-91q-60 0 -85 -28t-25 -76v-65q0 -47 -4 -78.5t-15.5 -53.5t-32 -35t-53.5 -22q32 -9 52.5 -23t32.5 -34t16.5 -46t4.5 -59v-101q0 -30 4 -51
t15.5 -34t33 -19t56.5 -6v-107h-56q-55 0 -91.5 12t-58 37t-30 62.5t-8.5 87.5v95z" />
    <glyph glyph-name="bar" unicode="|" horiz-adv-x="230" 
d="M51 751h128v-1002h-128v1002z" />
    <glyph glyph-name="braceright" unicode="}" horiz-adv-x="390" 
d="M30 -130q60 0 85 28t25 76v65q0 46 4 78t15.5 54t32 35t53.5 22q-32 9 -52.5 23t-32.5 34t-16.5 46t-4.5 59v101q0 30 -4 51t-15.5 34t-33 19t-56.5 6v107h56q55 0 91.5 -12.5t58 -37t30 -62t8.5 -87.5v-95q0 -70 16 -102.5t66 -32.5v-103q-24 0 -39.5 -6t-25 -21
t-13.5 -39.5t-4 -60.5v-63q0 -104 -45 -155.5t-151 -51.5h-48v91z" />
    <glyph glyph-name="asciitilde" unicode="~" horiz-adv-x="732" 
d="M98 312q10 13 25.5 28t36 27.5t46 21t54.5 8.5q31 0 59 -11t54 -24t51.5 -24t51.5 -11q29 0 56 16.5t47 42.5l53 -106q-32 -35 -73.5 -57.5t-86.5 -22.5q-29 0 -56 11t-53.5 23.5l-51 23.5t-48.5 11q-27 0 -53.5 -14.5t-55.5 -46.5z" />
    <glyph glyph-name="nonbreakingspace" unicode="&#xa0;" horiz-adv-x="271" 
 />
    <glyph glyph-name="exclamdown" unicode="&#xa1;" horiz-adv-x="318" 
d="M169 542q-37 0 -63 26t-26 63t26 63t63 26t63 -26t26 -63t-26 -63t-63 -26zM93 481h152v-481h-152v481z" />
    <glyph glyph-name="cent" unicode="&#xa2;" horiz-adv-x="580" 
d="M331 94q-53 2 -97.5 20.5t-77 51.5t-51 79t-18.5 102q0 46 15 90.5t45 80.5t76 60t108 28v103h71v-106q26 -3 47 -9.5t41 -13.5v-127q-15 7 -37.5 15t-50.5 11v-265q30 5 52 16.5l38 20.5v-126q-20 -10 -41 -17t-49 -11v-97h-71v94zM331 474q-41 -12 -66.5 -43.5
t-25.5 -80.5q0 -48 25.5 -82.5t66.5 -48.5v255z" />
    <glyph glyph-name="sterling" unicode="&#xa3;" horiz-adv-x="580" 
d="M20 111q65 32 89.5 70t24.5 76q0 16 -3.5 31.5t-8.5 29.5h-84v85h49q-14 35 -20 66.5t-6 61.5q0 36 15 71t45.5 62.5t77 45t109.5 17.5q90 0 148.5 -36.5t92.5 -109.5l-139 -62q-16 45 -40 67t-69 22q-35 0 -57.5 -20t-22.5 -55q0 -16 2.5 -30t7.5 -29t12.5 -32.5
l16.5 -39.5h132v-84h-106q3 -20 3 -38q0 -35 -12 -65.5t-38 -56.5q24 -1 42 -7.5t34.5 -14t34.5 -13.5t42 -6q32 0 54.5 12.5t44.5 27.5l69 -117q-29 -18 -71.5 -37t-101.5 -19q-39 0 -66.5 7.5t-51 16t-46.5 16t-51 7.5t-53.5 -8t-49.5 -28z" />
    <glyph glyph-name="currency" unicode="&#xa4;" horiz-adv-x="680" 
d="M88 190q-22 31 -32.5 71t-10.5 78q0 39 9.5 77t32.5 76l-80 80l95 96l81 -81q26 19 63.5 31.5t88.5 12.5q46 0 83 -12t68 -32l81 82l97 -97l-82 -80q20 -30 31.5 -69t11.5 -84q0 -43 -12 -83t-32 -68l82 -83l-97 -95l-81 82q-31 -19 -68 -30.5t-83 -11.5q-47 0 -84.5 12
t-66.5 32l-82 -82l-95 95zM335 175q34 0 64 13t52 35.5t35 53t13 64.5t-13 64.5t-35 53t-52 35.5t-64 13t-64 -13t-52 -35.5t-35 -53t-13 -64.5t13 -64.5t35 -53t52 -35.5t64 -13z" />
    <glyph glyph-name="yen" unicode="&#xa5;" horiz-adv-x="580" 
d="M49 167h166v69h-166v95h164l-231 378h179l131 -261l133 261h173l-237 -378h155v-95h-153v-69h153v-96h-153v-71h-148v71h-166v96z" />
    <glyph glyph-name="brokenbar" unicode="&#xa6;" horiz-adv-x="230" 
d="M51 692h128v-383h-128v383zM51 191h128v-383h-128v383z" />
    <glyph glyph-name="section" unicode="&#xa7;" horiz-adv-x="544" 
d="M185 22q0 -35 21.5 -56.5t64.5 -21.5q37 0 57 21t20 47q0 25 -22 39.5t-55 27l-72 27t-72 38.5t-55 61.5t-22 96.5q0 27 7 52t19 46.5t27.5 38.5t32.5 28q-25 15 -46.5 45.5t-21.5 73.5q0 35 12.5 68t38 58.5t65 41t93.5 15.5q106 0 164 -47t58 -157h-138q0 48 -22 70.5
t-61 22.5q-28 0 -51 -18.5t-23 -53.5q0 -28 21.5 -44t53.5 -28.5l69 -26t69 -36t53.5 -58t21.5 -92.5q0 -51 -21.5 -91.5t-66.5 -69.5q19 -7 35.5 -20.5t28.5 -30.5t18.5 -37t6.5 -41q0 -36 -14.5 -69t-43.5 -58.5t-72 -41t-100 -15.5q-59 0 -101.5 16t-70.5 42.5t-41.5 62
t-13.5 74.5h149zM271 215q18 0 33.5 7t27 18.5t18.5 27t7 33.5t-7 33.5t-18.5 27t-27 18.5t-33.5 7t-33.5 -7t-27 -18.5t-18.5 -27t-7 -33.5t7 -33.5t18.5 -27t27 -18.5t33.5 -7z" />
    <glyph glyph-name="dieresis" unicode="&#xa8;" 
d="M361 523q-33 0 -56.5 23.5t-23.5 56.5t23.5 56.5t56.5 23.5t56.5 -23.5t23.5 -56.5t-23.5 -56.5t-56.5 -23.5zM139 523q-33 0 -56.5 23.5t-23.5 56.5t23.5 56.5t56.5 23.5t56.5 -23.5t23.5 -56.5t-23.5 -56.5t-56.5 -23.5z" />
    <glyph glyph-name="copyright" unicode="&#xa9;" horiz-adv-x="837" 
d="M418 -20q-78 0 -146 29.5t-118.5 80t-80 118.5t-29.5 146t29.5 146t80 118.5t118.5 80t146 29.5t146 -29.5t118.5 -80t80 -118.5t29.5 -146t-29.5 -146t-80 -118.5t-118.5 -80t-146 -29.5zM418 39q65 0 122.5 24.5t100 67.5t67.5 100.5t25 122.5t-25 122.5t-67.5 100
t-100 67.5t-122.5 25t-122.5 -25t-100.5 -67.5t-67.5 -100t-24.5 -122.5t24.5 -122.5t67.5 -100.5t100.5 -67.5t122.5 -24.5zM621 189q-35 -38 -83.5 -60.5t-110.5 -22.5q-52 0 -98 16.5t-80 48t-53.5 78.5t-19.5 107q0 49 16.5 94t48.5 80t79 56t107 21q56 0 104 -18.5
t90 -63.5l-86 -88q-19 19 -44.5 34t-65.5 15q-57 0 -91.5 -35t-34.5 -95q0 -57 35 -93.5t94 -36.5q36 0 63 13t44 33z" />
    <glyph glyph-name="ordfeminine" unicode="&#xaa;" horiz-adv-x="564" 
d="M337 389q-19 -22 -47 -33t-69 -11q-39 0 -69.5 15t-51.5 40.5t-32 59.5t-11 72q0 40 11.5 74t33.5 59t52 38.5t68 13.5q37 0 66.5 -12t48.5 -39v43h126v-351h-126v31zM88 312h381v-118h-381v118zM264 444q36 0 55.5 25.5t19.5 57.5q0 34 -21.5 59t-57.5 25
q-32 0 -53 -22.5t-21 -57.5t20 -61t58 -26z" />
    <glyph glyph-name="guillemotleft" unicode="&#xab;" horiz-adv-x="480" 
d="M220 228l154 225l84 -54l-116 -168l117 -157l-86 -53zM26 223l159 231l79 -56l-116 -170l118 -156l-88 -55z" />
    <glyph glyph-name="logicalnot" unicode="&#xac;" horiz-adv-x="670" 
d="M0 356h670v-356h-129v228h-541v128z" />
    <glyph glyph-name="uni00AD" unicode="&#xad;" horiz-adv-x="377" 
d="M40 312h296v-118h-296v118z" />
    <glyph glyph-name="registered" unicode="&#xae;" horiz-adv-x="837" 
d="M410 131q-67 0 -126 25.5t-103 69.5t-69.5 103t-25.5 126t25.5 126t69.5 103t103 69.5t126 25.5t126 -25.5t103 -69.5t69.5 -103t25.5 -126t-25.5 -126t-69.5 -103t-103 -69.5t-126 -25.5zM410 198q53 0 100 20t82 55t55 82t20 100t-20 100t-55 82t-82 55t-100 20
t-100 -20t-82 -55t-55 -82t-20 -100t20 -100t55 -82t82 -55t100 -20zM280 651h130q70 0 110 -31t40 -83q0 -41 -18.5 -64.5t-58.5 -39.5l91 -165h-118l-73 153h-6v-153h-97v383zM396 485q26 0 41 11.5t15 37.5q0 18 -11.5 32.5t-43.5 14.5h-20v-96h19z" />
    <glyph glyph-name="macron" unicode="&#xaf;" 
d="M103 648h294v-116h-294v116z" />
    <glyph glyph-name="degree" unicode="&#xb0;" horiz-adv-x="371" 
d="M185 400q-36 0 -68.5 13.5t-57 37t-38.5 55.5t-14 68t14 68t38.5 55.5t57 37t68.5 13.5t68.5 -13.5t57 -37t38.5 -55.5t14 -68t-14 -68t-38.5 -55.5t-57 -37t-68.5 -13.5zM185 512q26 0 44 18t18 44t-18 44t-44 18t-44 -18t-18 -44t18 -44t44 -18z" />
    <glyph glyph-name="plusminus" unicode="&#xb1;" horiz-adv-x="670" 
d="M42 500h229v209h129v-209h228v-127h-228v-210h-129v210h-229v127zM42 128h586v-128h-586v128z" />
    <glyph glyph-name="twosuperior" unicode="&#xb2;" horiz-adv-x="377" 
d="M40 358l69 69t59 62t41.5 53t15.5 41q0 20 -11.5 31t-32.5 11q-45 0 -45 -59v-9h-104q0 75 40 117t112 42q37 0 65 -11t46.5 -29t27.5 -41t9 -48q0 -27 -10 -51t-26.5 -46.5t-38.5 -43.5t-47 -42q5 1 14 1.5t19 0.5h95v-92h-298v44z" />
    <glyph glyph-name="threesuperior" unicode="&#xb3;" horiz-adv-x="371" 
d="M135 443q0 -29 11.5 -41.5t35.5 -12.5q23 0 34 12.5t11 29.5q0 22 -15.5 34.5t-61.5 12.5v73q40 0 54 11.5t14 30.5q0 17 -10 27t-27 10q-38 0 -38 -48h-101q2 60 38.5 97t103.5 37q62 0 100.5 -33t38.5 -87q0 -49 -46 -77q26 -9 42 -34.5t16 -51.5t-10.5 -49t-30 -40.5
t-48 -28t-64.5 -10.5q-61 0 -103.5 34.5t-44.5 103.5h101z" />
    <glyph glyph-name="acute" unicode="&#xb4;" 
d="M264 709l112 -83l-172 -136l-81 55z" />
    <glyph glyph-name="mu" unicode="&#xb5;" horiz-adv-x="559" 
d="M57 438h142v-207q0 -24 4 -46t13 -39.5t25 -27.5t40 -10t39.5 12t24 30.5t12 41t3.5 44.5v202h142v-438h-138v45q-5 -9 -12 -19.5t-17 -19.5t-24 -15t-32 -6t-31 5t-22.5 12.5t-16 16.5t-10.5 16v-236h-142v639z" />
    <glyph glyph-name="paragraph" unicode="&#xb6;" horiz-adv-x="670" 
d="M254 288q-41 8 -73 27.5t-55 47.5t-35 62.5t-12 71.5q0 44 16.5 82.5t45.5 67.5t67.5 45.5t82.5 16.5h309v-96h-59v-781h-105v781h-77v-781h-105v456z" />
    <glyph glyph-name="periodcentered" unicode="&#xb7;" horiz-adv-x="251" 
d="M123 199q-38 0 -64.5 26.5t-26.5 64.5t26.5 64.5t64.5 26.5t64.5 -26.5t26.5 -64.5t-26.5 -64.5t-64.5 -26.5z" />
    <glyph glyph-name="cedilla" unicode="&#xb8;" 
d="M247 -37l111 -51l-137 -149l-80 62z" />
    <glyph glyph-name="onesuperior" unicode="&#xb9;" horiz-adv-x="264" 
d="M98 616h-72v93h179v-395h-107v302z" />
    <glyph glyph-name="ordmasculine" unicode="&#xba;" horiz-adv-x="574" 
d="M273 343q-41 0 -77 14t-63 39t-42.5 60t-15.5 76q0 39 15 73t41.5 59.5t63 40t80.5 14.5q43 0 80.5 -14t65 -39.5t43 -60t15.5 -74.5q0 -36 -14 -69.5t-40.5 -60t-64.5 -42.5t-87 -16zM88 312h381v-118h-381v118zM277 451q33 0 53.5 24.5t20.5 55.5q0 34 -21.5 56.5
t-53.5 22.5q-35 0 -54.5 -24.5t-19.5 -56.5q0 -35 22.5 -56.5t52.5 -21.5z" />
    <glyph glyph-name="guillemotright" unicode="&#xbb;" horiz-adv-x="480" 
d="M329 248l-118 157l86 53l155 -210l-157 -228l-82 57zM137 248l-117 155l84 52l153 -207l-152 -227l-87 56z" />
    <glyph glyph-name="onequarter" unicode="&#xbc;" horiz-adv-x="812" 
d="M514 738l68 -35l-367 -735l-68 36zM432 159l143 236h123v-235h49v-88h-49v-72h-99v72h-167v87zM599 159v84v19t1 19l-73 -122h72zM126 616h-72v93h179v-395h-107v302z" />
    <glyph glyph-name="onehalf" unicode="&#xbd;" horiz-adv-x="822" 
d="M514 738l68 -35l-367 -735l-68 36zM126 616h-72v93h179v-395h-107v302zM459 44l69 69t59 62t41.5 53t15.5 41q0 20 -11.5 31t-32.5 11q-45 0 -45 -59v-9h-104q0 75 40 117t112 42q37 0 65 -11t46.5 -29t27.5 -41t9 -48q0 -27 -10 -51t-26.5 -46.5t-38.5 -43.5t-47 -42
q5 1 14 1.5t19 0.5h95v-92h-298v44z" />
    <glyph glyph-name="threequarters" unicode="&#xbe;" horiz-adv-x="918" 
d="M620 738l68 -35l-367 -735l-68 36zM538 159l143 236h123v-235h49v-88h-49v-72h-99v72h-167v87zM705 159v84v19t1 19l-73 -122h72zM159 443q0 -29 11.5 -41.5t35.5 -12.5q23 0 34 12.5t11 29.5q0 22 -15.5 34.5t-61.5 12.5v73q40 0 54 11.5t14 30.5q0 17 -10 27t-27 10
q-38 0 -38 -48h-101q2 60 38.5 97t103.5 37q62 0 100.5 -33t38.5 -87q0 -49 -46 -77q26 -9 42 -34.5t16 -51.5t-10.5 -49t-30 -40.5t-48 -28t-64.5 -10.5q-61 0 -103.5 34.5t-44.5 103.5h101z" />
    <glyph glyph-name="questiondown" unicode="&#xbf;" horiz-adv-x="564" 
d="M289 547q-36 0 -61.5 25.5t-25.5 61.5t25.5 61.5t61.5 25.5t61.5 -25.5t25.5 -61.5t-25.5 -61.5t-61.5 -25.5zM519 216q0 -49 -15.5 -91t-44.5 -73t-71 -48.5t-95 -17.5q-57 0 -101 17.5t-74 48t-46 71t-16 85.5q0 77 42 131.5t121 71.5v75h145v-176h-54q-26 0 -45.5 -8
t-32.5 -21.5t-19.5 -30.5t-6.5 -35q0 -39 27.5 -66.5t66.5 -27.5q19 0 36.5 7.5t30 20t20 30t7.5 37.5h125z" />
    <glyph glyph-name="Agrave" unicode="&#xc0;" horiz-adv-x="741" 
d="M282 709h164l292 -709h-171l-53 143h-294l-52 -143h-165zM465 277l-60 161q-10 27 -20.5 59t-19.5 64q-9 -33 -19 -64.5t-20 -59.5l-58 -160h197zM355 931l131 -132l-72 -54l-184 111z" />
    <glyph glyph-name="Aacute" unicode="&#xc1;" horiz-adv-x="741" 
d="M282 709h164l292 -709h-171l-53 143h-294l-52 -143h-165zM465 277l-60 161q-10 27 -20.5 59t-19.5 64q-9 -33 -19 -64.5t-20 -59.5l-58 -160h197zM386 928l126 -75l-184 -111l-72 55z" />
    <glyph glyph-name="Acircumflex" unicode="&#xc2;" horiz-adv-x="741" 
d="M282 709h164l292 -709h-171l-53 143h-294l-52 -143h-165zM465 277l-60 161q-10 27 -20.5 59t-19.5 64q-9 -33 -19 -64.5t-20 -59.5l-58 -160h197zM184 828l189 75l188 -71l-42 -90l-145 55l-149 -55z" />
    <glyph glyph-name="Atilde" unicode="&#xc3;" horiz-adv-x="741" 
d="M282 709h164l292 -709h-171l-53 143h-294l-52 -143h-165zM465 277l-60 161q-10 27 -20.5 59t-19.5 64q-9 -33 -19 -64.5t-20 -59.5l-58 -160h197zM163 756q0 30 9 56.5t25.5 46t39 30.5t49.5 11t47 -7t37 -16t33.5 -16t36.5 -7q17 0 27.5 11.5t10.5 29.5h102
q0 -33 -10 -60t-27.5 -45.5t-41.5 -29t-51 -10.5q-24 0 -44 7.5t-38.5 16.5t-36 16.5t-35.5 7.5q-14 0 -24 -13.5t-10 -28.5h-99z" />
    <glyph glyph-name="Adieresis" unicode="&#xc4;" horiz-adv-x="741" 
d="M282 709h164l292 -709h-171l-53 143h-294l-52 -143h-165zM465 277l-60 161q-10 27 -20.5 59t-19.5 64q-9 -33 -19 -64.5t-20 -59.5l-58 -160h197zM476 743q-33 0 -56.5 23.5t-23.5 56.5t23.5 56.5t56.5 23.5t56.5 -23.5t23.5 -56.5t-23.5 -56.5t-56.5 -23.5zM254 743
q-33 0 -56.5 23.5t-23.5 56.5t23.5 56.5t56.5 23.5t56.5 -23.5t23.5 -56.5t-23.5 -56.5t-56.5 -23.5z" />
    <glyph glyph-name="Aring" unicode="&#xc5;" horiz-adv-x="741" 
d="M277 697q-17 16 -26.5 37.5t-9.5 47.5q0 25 9.5 47t26.5 38.5t39 25.5t48 9q25 0 47.5 -9t39.5 -25.5t26.5 -38.5t9.5 -47q0 -26 -9.5 -47.5t-26.5 -38.5l287 -696h-171l-53 143h-294l-52 -143h-165zM364 734q20 0 34 14t14 34t-14 34t-34 14t-34 -14t-14 -34t14 -34
t34 -14zM465 277l-60 161q-10 27 -20.5 59t-19.5 64q-9 -33 -19 -64.5t-20 -59.5l-58 -160h197z" />
    <glyph glyph-name="AE" unicode="&#xc6;" horiz-adv-x="921" 
d="M306 709h414l43 -139h-229l39 -140h220l41 -138h-220l44 -151h230l43 -141h-394l-38 137h-278l-54 -137h-165zM462 271l-48 167l-17.5 58.5t-14.5 58.5l-20.5 -58.5l-21.5 -58.5l-65 -167h187z" />
    <glyph glyph-name="Ccedilla" unicode="&#xc7;" horiz-adv-x="640" 
d="M593 27q-37 -19 -89 -30.5t-108 -11.5q-82 0 -148.5 29t-113 78.5t-71.5 115.5t-25 140q0 79 26.5 147t74.5 118t115.5 79t148.5 29q110 0 190 -37v-167q-34 28 -84 46t-101 18q-45 0 -83.5 -15.5t-67 -44.5t-44.5 -72t-16 -97q0 -45 13.5 -85.5t40.5 -71.5t67.5 -49.5
t94.5 -18.5q60 0 104 16.5t76 41.5v-158v0zM333 -37l111 -51l-137 -149l-80 62z" />
    <glyph glyph-name="Egrave" unicode="&#xc8;" horiz-adv-x="556" 
d="M80 709h401v-139h-247v-140h242v-138h-242v-151h247v-141h-401v709zM274 931l131 -132l-72 -54l-184 111z" />
    <glyph glyph-name="Eacute" unicode="&#xc9;" horiz-adv-x="556" 
d="M80 709h401v-139h-247v-140h242v-138h-242v-151h247v-141h-401v709zM358 928l126 -75l-184 -111l-72 55z" />
    <glyph glyph-name="Ecircumflex" unicode="&#xca;" horiz-adv-x="556" 
d="M80 709h401v-139h-247v-140h242v-138h-242v-151h247v-141h-401v709zM106 828l189 75l188 -71l-42 -90l-145 55l-149 -55z" />
    <glyph glyph-name="Edieresis" unicode="&#xcb;" horiz-adv-x="556" 
d="M80 709h401v-139h-247v-140h242v-138h-242v-151h247v-141h-401v709zM398 743q-33 0 -56.5 23.5t-23.5 56.5t23.5 56.5t56.5 23.5t56.5 -23.5t23.5 -56.5t-23.5 -56.5t-56.5 -23.5zM176 743q-33 0 -56.5 23.5t-23.5 56.5t23.5 56.5t56.5 23.5t56.5 -23.5t23.5 -56.5
t-23.5 -56.5t-56.5 -23.5z" />
    <glyph glyph-name="Igrave" unicode="&#xcc;" horiz-adv-x="314" 
d="M80 709h154v-709h-154v709zM129 931l131 -132l-72 -54l-184 111z" />
    <glyph glyph-name="Iacute" unicode="&#xcd;" horiz-adv-x="314" 
d="M80 709h154v-709h-154v709zM193 928l126 -75l-184 -111l-72 55z" />
    <glyph glyph-name="Icircumflex" unicode="&#xce;" horiz-adv-x="314" 
d="M80 709h154v-709h-154v709zM-29 828l189 75l188 -71l-42 -90l-145 55l-149 -55z" />
    <glyph glyph-name="Idieresis" unicode="&#xcf;" horiz-adv-x="314" 
d="M80 709h154v-709h-154v709zM269 743q-33 0 -56.5 23.5t-23.5 56.5t23.5 56.5t56.5 23.5t56.5 -23.5t23.5 -56.5t-23.5 -56.5t-56.5 -23.5zM47 743q-33 0 -56.5 23.5t-23.5 56.5t23.5 56.5t56.5 23.5t56.5 -23.5t23.5 -56.5t-23.5 -56.5t-56.5 -23.5z" />
    <glyph glyph-name="Eth" unicode="&#xd0;" horiz-adv-x="701" 
d="M85 300h-58v118h58v291h201q90 0 159 -23t115 -69q51 -51 77 -111t26 -141q0 -91 -29.5 -155t-76.5 -111q-54 -54 -124.5 -76.5t-155.5 -22.5h-192v300zM280 125q51 0 89 12.5t67 40.5q25 25 45 68.5t20 112.5q0 55 -16.5 98.5t-43.5 70.5q-35 35 -78 46t-91 11h-35v-167
h68v-118h-68v-175h43z" />
    <glyph glyph-name="Ntilde" unicode="&#xd1;" horiz-adv-x="773" 
d="M80 709h140l239 -341l54.5 -81.5t44.5 -74.5q-5 56 -6 103.5t-2 103.5l-2 290h145v-709h-138l-247 351l-49 70.5t-46 71.5l4 -80.5t3 -80.5l7 -332h-147v709zM196 756q0 30 9 56.5t25.5 46t39 30.5t49.5 11t47 -7t37 -16t33.5 -16t36.5 -7q17 0 27.5 11.5t10.5 29.5h102
q0 -33 -10 -60t-27.5 -45.5t-41.5 -29t-51 -10.5q-24 0 -44 7.5t-38.5 16.5t-36 16.5t-35.5 7.5q-14 0 -24 -13.5t-10 -28.5h-99z" />
    <glyph glyph-name="Ograve" unicode="&#xd2;" horiz-adv-x="813" 
d="M406 -19q-79 0 -147.5 29t-119.5 79t-80 118t-29 146q0 77 30 145t81 118.5t119.5 80t145.5 29.5q78 0 147 -29t120 -79t80.5 -118.5t29.5 -146.5q0 -77 -30 -144.5t-81.5 -118t-120 -80t-145.5 -29.5zM406 128q47 0 87 17.5t69.5 48.5t46 72.5t16.5 88.5t-16.5 88
t-46 72t-69.5 48.5t-87 17.5t-87 -17.5t-69 -48.5t-45.5 -72t-16.5 -88t16.5 -88.5t45.5 -72.5t69 -48.5t87 -17.5zM390 931l131 -132l-72 -54l-184 111z" />
    <glyph glyph-name="Oacute" unicode="&#xd3;" horiz-adv-x="813" 
d="M406 -19q-79 0 -147.5 29t-119.5 79t-80 118t-29 146q0 77 30 145t81 118.5t119.5 80t145.5 29.5q78 0 147 -29t120 -79t80.5 -118.5t29.5 -146.5q0 -77 -30 -144.5t-81.5 -118t-120 -80t-145.5 -29.5zM406 128q47 0 87 17.5t69.5 48.5t46 72.5t16.5 88.5t-16.5 88
t-46 72t-69.5 48.5t-87 17.5t-87 -17.5t-69 -48.5t-45.5 -72t-16.5 -88t16.5 -88.5t45.5 -72.5t69 -48.5t87 -17.5zM424 928l126 -75l-184 -111l-72 55z" />
    <glyph glyph-name="Ocircumflex" unicode="&#xd4;" horiz-adv-x="813" 
d="M406 -19q-79 0 -147.5 29t-119.5 79t-80 118t-29 146q0 77 30 145t81 118.5t119.5 80t145.5 29.5q78 0 147 -29t120 -79t80.5 -118.5t29.5 -146.5q0 -77 -30 -144.5t-81.5 -118t-120 -80t-145.5 -29.5zM406 128q47 0 87 17.5t69.5 48.5t46 72.5t16.5 88.5t-16.5 88
t-46 72t-69.5 48.5t-87 17.5t-87 -17.5t-69 -48.5t-45.5 -72t-16.5 -88t16.5 -88.5t45.5 -72.5t69 -48.5t87 -17.5zM221 828l189 75l188 -71l-42 -90l-145 55l-149 -55z" />
    <glyph glyph-name="Otilde" unicode="&#xd5;" horiz-adv-x="813" 
d="M406 -19q-79 0 -147.5 29t-119.5 79t-80 118t-29 146q0 77 30 145t81 118.5t119.5 80t145.5 29.5q78 0 147 -29t120 -79t80.5 -118.5t29.5 -146.5q0 -77 -30 -144.5t-81.5 -118t-120 -80t-145.5 -29.5zM406 128q47 0 87 17.5t69.5 48.5t46 72.5t16.5 88.5t-16.5 88
t-46 72t-69.5 48.5t-87 17.5t-87 -17.5t-69 -48.5t-45.5 -72t-16.5 -88t16.5 -88.5t45.5 -72.5t69 -48.5t87 -17.5zM197 756q0 30 9 56.5t25.5 46t39 30.5t49.5 11t47 -7t37 -16t33.5 -16t36.5 -7q17 0 27.5 11.5t10.5 29.5h102q0 -33 -10 -60t-27.5 -45.5t-41.5 -29
t-51 -10.5q-24 0 -44 7.5t-38.5 16.5t-36 16.5t-35.5 7.5q-14 0 -24 -13.5t-10 -28.5h-99z" />
    <glyph glyph-name="Odieresis" unicode="&#xd6;" horiz-adv-x="813" 
d="M406 -19q-79 0 -147.5 29t-119.5 79t-80 118t-29 146q0 77 30 145t81 118.5t119.5 80t145.5 29.5q78 0 147 -29t120 -79t80.5 -118.5t29.5 -146.5q0 -77 -30 -144.5t-81.5 -118t-120 -80t-145.5 -29.5zM406 128q47 0 87 17.5t69.5 48.5t46 72.5t16.5 88.5t-16.5 88
t-46 72t-69.5 48.5t-87 17.5t-87 -17.5t-69 -48.5t-45.5 -72t-16.5 -88t16.5 -88.5t45.5 -72.5t69 -48.5t87 -17.5zM518 743q-33 0 -56.5 23.5t-23.5 56.5t23.5 56.5t56.5 23.5t56.5 -23.5t23.5 -56.5t-23.5 -56.5t-56.5 -23.5zM296 743q-33 0 -56.5 23.5t-23.5 56.5
t23.5 56.5t56.5 23.5t56.5 -23.5t23.5 -56.5t-23.5 -56.5t-56.5 -23.5z" />
    <glyph glyph-name="multiply" unicode="&#xd7;" horiz-adv-x="670" 
d="M61 110l183 182l-183 184l91 88l182 -181l184 181l90 -88l-182 -184l182 -182l-90 -91l-184 183l-182 -183z" />
    <glyph glyph-name="Oslash" unicode="&#xd8;" horiz-adv-x="822" 
d="M109 124q-36 47 -56.5 105t-20.5 124q0 77 30 145t81 118.5t119.5 80t145.5 29.5q64 0 122 -19.5t106 -55.5l85 85l53 -53l-82 -82q43 -48 68 -111.5t25 -136.5q0 -77 -30 -144.5t-81.5 -118t-120 -80t-145.5 -29.5q-71 0 -133.5 23.5t-113.5 65.5l-96 -96l-53 53z
M533 548q-26 18 -57.5 28t-67.5 10q-48 0 -88.5 -18t-70.5 -49.5t-46.5 -73.5t-16.5 -90q0 -67 32 -122zM266 175q28 -24 64 -38t78 -14q48 0 89 18t71 49.5t46.5 74t16.5 90.5q0 40 -11.5 76t-32.5 65z" />
    <glyph glyph-name="Ugrave" unicode="&#xd9;" horiz-adv-x="727" 
d="M76 709h154v-438q0 -45 6.5 -69t26.5 -44q15 -15 40.5 -28t64.5 -13q34 0 57 11t37 25q20 20 29 46t9 67v443h151v-430q0 -71 -19 -126t-61 -97q-38 -38 -92.5 -55.5t-116.5 -17.5q-66 0 -123.5 20.5t-95.5 58.5q-30 30 -48.5 76.5t-18.5 123.5v447zM318 931l131 -132
l-72 -54l-184 111z" />
    <glyph glyph-name="Uacute" unicode="&#xda;" horiz-adv-x="727" 
d="M76 709h154v-438q0 -45 6.5 -69t26.5 -44q15 -15 40.5 -28t64.5 -13q34 0 57 11t37 25q20 20 29 46t9 67v443h151v-430q0 -71 -19 -126t-61 -97q-38 -38 -92.5 -55.5t-116.5 -17.5q-66 0 -123.5 20.5t-95.5 58.5q-30 30 -48.5 76.5t-18.5 123.5v447zM394 928l126 -75
l-184 -111l-72 55z" />
    <glyph glyph-name="Ucircumflex" unicode="&#xdb;" horiz-adv-x="727" 
d="M76 709h154v-438q0 -45 6.5 -69t26.5 -44q15 -15 40.5 -28t64.5 -13q34 0 57 11t37 25q20 20 29 46t9 67v443h151v-430q0 -71 -19 -126t-61 -97q-38 -38 -92.5 -55.5t-116.5 -17.5q-66 0 -123.5 20.5t-95.5 58.5q-30 30 -48.5 76.5t-18.5 123.5v447zM180 828l189 75
l188 -71l-42 -90l-145 55l-149 -55z" />
    <glyph glyph-name="Udieresis" unicode="&#xdc;" horiz-adv-x="727" 
d="M76 709h154v-438q0 -45 6.5 -69t26.5 -44q15 -15 40.5 -28t64.5 -13q34 0 57 11t37 25q20 20 29 46t9 67v443h151v-430q0 -71 -19 -126t-61 -97q-38 -38 -92.5 -55.5t-116.5 -17.5q-66 0 -123.5 20.5t-95.5 58.5q-30 30 -48.5 76.5t-18.5 123.5v447zM475 743
q-33 0 -56.5 23.5t-23.5 56.5t23.5 56.5t56.5 23.5t56.5 -23.5t23.5 -56.5t-23.5 -56.5t-56.5 -23.5zM253 743q-33 0 -56.5 23.5t-23.5 56.5t23.5 56.5t56.5 23.5t56.5 -23.5t23.5 -56.5t-23.5 -56.5t-56.5 -23.5z" />
    <glyph glyph-name="Yacute" unicode="&#xdd;" horiz-adv-x="631" 
d="M238 317l-235 392h179l136 -270l138 270h173l-237 -386v-323h-154v317zM351 928l126 -75l-184 -111l-72 55z" />
    <glyph glyph-name="Thorn" unicode="&#xde;" horiz-adv-x="595" 
d="M85 709h153v-132h50q75 0 130.5 -13t93.5 -51q28 -28 43 -67.5t15 -87.5t-15 -88t-44 -69q-36 -36 -90 -52.5t-120 -16.5h-63v-132h-153v709zM299 262q61 0 88 27q12 12 18.5 29.5t6.5 35.5q0 20 -6 37t-17 28q-13 13 -32.5 19.5t-52.5 6.5h-66v-183h61z" />
    <glyph glyph-name="germandbls" unicode="&#xdf;" horiz-adv-x="551" 
d="M57 559q0 41 12.5 77.5t38 63.5t65.5 43t96 16q96 0 148 -49.5t52 -127.5q0 -37 -10.5 -61.5t-23 -43l-23 -35.5t-10.5 -39q0 -14 9.5 -26.5t24 -26l31.5 -29t31.5 -35t24 -45t9.5 -58.5q0 -47 -15.5 -82.5t-41 -59.5t-58.5 -36t-68 -12q-39 0 -67.5 9t-51.5 26l52 107
q21 -24 55 -24q21 0 36 14.5t15 42.5q0 21 -10 36.5t-24.5 29t-32 27t-32 31.5t-24.5 41t-10 57q0 35 10.5 59t23.5 43.5t23.5 38t10.5 43.5t-16 45t-46 20q-29 0 -45.5 -20.5t-16.5 -53.5v-565h-142v559z" />
    <glyph glyph-name="agrave" unicode="&#xe0;" horiz-adv-x="590" 
d="M392 45q-27 -27 -63 -43.5t-87 -16.5q-48 0 -86 17t-64.5 47t-40.5 72t-14 92q0 52 15 95.5t43 75.5t68.5 50t91.5 18q46 0 82.5 -18.5t54.5 -46.5v51h141v-438h-141v45zM292 97q25 0 44.5 9.5t33 25.5t20.5 36.5t7 43.5q0 24 -8 45t-22 37t-34.5 25.5t-45.5 9.5
q-45 0 -74.5 -30.5t-29.5 -81.5q0 -24 7.5 -46t21.5 -38.5t34 -26t46 -9.5zM232 709l142 -164l-82 -55l-171 136z" />
    <glyph glyph-name="aacute" unicode="&#xe1;" horiz-adv-x="590" 
d="M392 45q-27 -27 -63 -43.5t-87 -16.5q-48 0 -86 17t-64.5 47t-40.5 72t-14 92q0 52 15 95.5t43 75.5t68.5 50t91.5 18q46 0 82.5 -18.5t54.5 -46.5v51h141v-438h-141v45zM292 97q25 0 44.5 9.5t33 25.5t20.5 36.5t7 43.5q0 24 -8 45t-22 37t-34.5 25.5t-45.5 9.5
q-45 0 -74.5 -30.5t-29.5 -81.5q0 -24 7.5 -46t21.5 -38.5t34 -26t46 -9.5zM373 709l112 -83l-172 -136l-81 55z" />
    <glyph glyph-name="acircumflex" unicode="&#xe2;" horiz-adv-x="590" 
d="M392 45q-27 -27 -63 -43.5t-87 -16.5q-48 0 -86 17t-64.5 47t-40.5 72t-14 92q0 52 15 95.5t43 75.5t68.5 50t91.5 18q46 0 82.5 -18.5t54.5 -46.5v51h141v-438h-141v45zM292 97q25 0 44.5 9.5t33 25.5t20.5 36.5t7 43.5q0 24 -8 45t-22 37t-34.5 25.5t-45.5 9.5
q-45 0 -74.5 -30.5t-29.5 -81.5q0 -24 7.5 -46t21.5 -38.5t34 -26t46 -9.5zM114 580l195 136l182 -134l-62 -83l-126 85l-122 -86z" />
    <glyph glyph-name="atilde" unicode="&#xe3;" horiz-adv-x="590" 
d="M392 45q-27 -27 -63 -43.5t-87 -16.5q-48 0 -86 17t-64.5 47t-40.5 72t-14 92q0 52 15 95.5t43 75.5t68.5 50t91.5 18q46 0 82.5 -18.5t54.5 -46.5v51h141v-438h-141v45zM292 97q25 0 44.5 9.5t33 25.5t20.5 36.5t7 43.5q0 24 -8 45t-22 37t-34.5 25.5t-45.5 9.5
q-45 0 -74.5 -30.5t-29.5 -81.5q0 -24 7.5 -46t21.5 -38.5t34 -26t46 -9.5zM91 521q0 30 9 56.5t25.5 46t39 30.5t49.5 11t47 -7t37 -16t33.5 -16t36.5 -7q17 0 27.5 11.5t10.5 29.5h102q0 -33 -10 -60t-27.5 -45.5t-41.5 -29t-51 -10.5q-24 0 -44 7.5t-38.5 16.5t-36 16.5
t-35.5 7.5q-14 0 -24 -13.5t-10 -28.5h-99v0z" />
    <glyph glyph-name="adieresis" unicode="&#xe4;" horiz-adv-x="590" 
d="M392 45q-27 -27 -63 -43.5t-87 -16.5q-48 0 -86 17t-64.5 47t-40.5 72t-14 92q0 52 15 95.5t43 75.5t68.5 50t91.5 18q46 0 82.5 -18.5t54.5 -46.5v51h141v-438h-141v45zM292 97q25 0 44.5 9.5t33 25.5t20.5 36.5t7 43.5q0 24 -8 45t-22 37t-34.5 25.5t-45.5 9.5
q-45 0 -74.5 -30.5t-29.5 -81.5q0 -24 7.5 -46t21.5 -38.5t34 -26t46 -9.5zM419 523q-33 0 -56.5 23.5t-23.5 56.5t23.5 56.5t56.5 23.5t56.5 -23.5t23.5 -56.5t-23.5 -56.5t-56.5 -23.5zM197 523q-33 0 -56.5 23.5t-23.5 56.5t23.5 56.5t56.5 23.5t56.5 -23.5t23.5 -56.5
t-23.5 -56.5t-56.5 -23.5z" />
    <glyph glyph-name="aring" unicode="&#xe5;" horiz-adv-x="590" 
d="M392 45q-27 -27 -63 -43.5t-87 -16.5q-48 0 -86 17t-64.5 47t-40.5 72t-14 92q0 52 15 95.5t43 75.5t68.5 50t91.5 18q46 0 82.5 -18.5t54.5 -46.5v51h141v-438h-141v45zM292 97q25 0 44.5 9.5t33 25.5t20.5 36.5t7 43.5q0 24 -8 45t-22 37t-34.5 25.5t-45.5 9.5
q-45 0 -74.5 -30.5t-29.5 -81.5q0 -24 7.5 -46t21.5 -38.5t34 -26t46 -9.5zM308 497q-26 0 -48 9t-39 25.5t-26.5 38t-9.5 47.5q0 25 9.5 47t26.5 38.5t39 25.5t48 9q25 0 47.5 -9t39.5 -25.5t26.5 -38.5t9.5 -47q0 -26 -9.5 -47.5t-26.5 -38t-39.5 -25.5t-47.5 -9zM308 569
q20 0 34 14t14 34t-14 34t-34 14t-34 -14t-14 -34t14 -34t34 -14z" />
    <glyph glyph-name="ae" unicode="&#xe6;" horiz-adv-x="815" 
d="M52 376q32 33 80 55.5t117 22.5q43 0 82.5 -14t71.5 -46q58 60 151 60q50 0 91.5 -15.5t71 -44.5t46 -71.5t16.5 -97.5v-17t-1 -25h-316q2 -40 31 -67.5t75 -27.5q65 0 109 56l92 -61q-38 -48 -89 -73.5t-127 -25.5q-43 0 -85 17t-74 49q-29 -30 -70 -48t-89 -18
q-101 0 -150 40t-49 106q0 28 9.5 53.5t33 45t62.5 31t98 11.5h100q-6 32 -32.5 55.5t-72.5 23.5q-27 0 -51 -10t-41 -30zM638 271q0 15 -6 30t-17 27t-26.5 19.5t-35.5 7.5q-38 0 -62.5 -24t-27.5 -60h175zM238 183q-36 0 -54 -12.5t-18 -35.5q0 -20 18.5 -35.5t52.5 -15.5
q43 0 73.5 25t30.5 74h-103z" />
    <glyph glyph-name="ccedilla" unicode="&#xe7;" horiz-adv-x="439" 
d="M398 10q-20 -8 -55 -16t-74 -8q-56 0 -99 18.5t-72.5 50t-45 73t-15.5 88.5q0 44 15.5 86.5t45.5 75.5t75.5 53.5t105.5 20.5q30 0 63 -6t56 -17v-128q-15 11 -43.5 19.5t-54.5 8.5q-48 0 -82 -29t-34 -80q0 -23 8 -44t23 -36.5t36.5 -24.5t48.5 -9q29 0 55 9t43 24v-129
v0zM227 -37l111 -51l-137 -149l-80 62z" />
    <glyph glyph-name="egrave" unicode="&#xe8;" horiz-adv-x="528" 
d="M481 85q-38 -50 -89 -75.5t-127 -25.5q-44 0 -85.5 14.5t-73 43t-50.5 72t-19 102.5q0 51 16.5 94.5t47 75.5t72.5 50t93 18q50 0 91.5 -15.5t71 -44.5t46 -71.5t16.5 -97.5v-16.5t-1 -23.5h-316q2 -42 31 -69.5t75 -27.5q66 0 109 58zM350 269q0 16 -6 31t-17 27
t-26.5 19.5t-35.5 7.5q-38 0 -62 -24t-28 -61h175zM219 709l142 -164l-82 -55l-171 136z" />
    <glyph glyph-name="eacute" unicode="&#xe9;" horiz-adv-x="528" 
d="M481 85q-38 -50 -89 -75.5t-127 -25.5q-44 0 -85.5 14.5t-73 43t-50.5 72t-19 102.5q0 51 16.5 94.5t47 75.5t72.5 50t93 18q50 0 91.5 -15.5t71 -44.5t46 -71.5t16.5 -97.5v-16.5t-1 -23.5h-316q2 -42 31 -69.5t75 -27.5q66 0 109 58zM350 269q0 16 -6 31t-17 27
t-26.5 19.5t-35.5 7.5q-38 0 -62 -24t-28 -61h175zM315 709l112 -83l-172 -136l-81 55z" />
    <glyph glyph-name="ecircumflex" unicode="&#xea;" horiz-adv-x="528" 
d="M481 85q-38 -50 -89 -75.5t-127 -25.5q-44 0 -85.5 14.5t-73 43t-50.5 72t-19 102.5q0 51 16.5 94.5t47 75.5t72.5 50t93 18q50 0 91.5 -15.5t71 -44.5t46 -71.5t16.5 -97.5v-16.5t-1 -23.5h-316q2 -42 31 -69.5t75 -27.5q66 0 109 58zM350 269q0 16 -6 31t-17 27
t-26.5 19.5t-35.5 7.5q-38 0 -62 -24t-28 -61h175zM77 580l195 136l182 -134l-62 -83l-126 85l-122 -86z" />
    <glyph glyph-name="edieresis" unicode="&#xeb;" horiz-adv-x="528" 
d="M481 85q-38 -50 -89 -75.5t-127 -25.5q-44 0 -85.5 14.5t-73 43t-50.5 72t-19 102.5q0 51 16.5 94.5t47 75.5t72.5 50t93 18q50 0 91.5 -15.5t71 -44.5t46 -71.5t16.5 -97.5v-16.5t-1 -23.5h-316q2 -42 31 -69.5t75 -27.5q66 0 109 58zM350 269q0 16 -6 31t-17 27
t-26.5 19.5t-35.5 7.5q-38 0 -62 -24t-28 -61h175zM387 523q-33 0 -56.5 23.5t-23.5 56.5t23.5 56.5t56.5 23.5t56.5 -23.5t23.5 -56.5t-23.5 -56.5t-56.5 -23.5zM165 523q-33 0 -56.5 23.5t-23.5 56.5t23.5 56.5t56.5 23.5t56.5 -23.5t23.5 -56.5t-23.5 -56.5t-56.5 -23.5z
" />
    <glyph glyph-name="igrave" unicode="&#xec;" horiz-adv-x="262" 
d="M60 438h142v-438h-142v438zM90 709l142 -164l-82 -55l-171 136z" />
    <glyph glyph-name="iacute" unicode="&#xed;" horiz-adv-x="262" 
d="M60 438h142v-438h-142v438zM183 709l112 -83l-172 -136l-81 55z" />
    <glyph glyph-name="icircumflex" unicode="&#xee;" horiz-adv-x="262" 
d="M60 438h142v-438h-142v438zM-57 580l195 136l182 -134l-62 -83l-126 85l-122 -86z" />
    <glyph glyph-name="idieresis" unicode="&#xef;" horiz-adv-x="262" 
d="M60 438h142v-438h-142v438zM246 523q-33 0 -56.5 23.5t-23.5 56.5t23.5 56.5t56.5 23.5t56.5 -23.5t23.5 -56.5t-23.5 -56.5t-56.5 -23.5zM24 523q-33 0 -56.5 23.5t-23.5 56.5t23.5 56.5t56.5 23.5t56.5 -23.5t23.5 -56.5t-23.5 -56.5t-56.5 -23.5z" />
    <glyph glyph-name="eth" unicode="&#xf0;" horiz-adv-x="580" 
d="M154 586l47 28q-23 11 -48.5 17.5t-54.5 10.5l18 118q56 -8 108 -25t103 -45l83 50l55 -91l-44 -26q66 -64 100 -144.5t34 -180.5q0 -70 -20 -127t-57 -97.5t-88 -63t-112 -22.5q-56 0 -102 16t-79.5 46.5t-52 73.5t-18.5 97q0 45 16 87t45 73.5t71 50.5t93 19
q50 0 83 -12.5t57 -35.5q-11 49 -36 86t-53 63l-93 -57zM282 111q46 0 76 31t30 80t-29.5 79t-77.5 30q-23 0 -42.5 -8.5t-33.5 -23.5t-21.5 -35t-7.5 -42q0 -49 30.5 -80t75.5 -31z" />
    <glyph glyph-name="ntilde" unicode="&#xf1;" horiz-adv-x="548" 
d="M57 438h142v-58q8 11 20 23t29 22t40 16.5t53 6.5q42 0 70 -13t45 -30q21 -21 30 -50.5t9 -77.5v-277h-142v242q0 15 -3 30.5t-10.5 27.5t-20.5 20t-33 8q-11 0 -25.5 -4t-28.5 -14.5t-23.5 -29.5t-9.5 -50v-230h-142v438zM69 521q0 30 9 56.5t25.5 46t39 30.5t49.5 11
t47 -7t37 -16t33.5 -16t36.5 -7q17 0 27.5 11.5t10.5 29.5h102q0 -33 -10 -60t-27.5 -45.5t-41.5 -29t-51 -10.5q-24 0 -44 7.5t-38.5 16.5t-36 16.5t-35.5 7.5q-14 0 -24 -13.5t-10 -28.5h-99v0z" />
    <glyph glyph-name="ograve" unicode="&#xf2;" horiz-adv-x="572" 
d="M279 -16q-51 0 -95 17.5t-77 49t-51.5 74.5t-18.5 95q0 49 18 91.5t50.5 74t78.5 50t102 18.5q54 0 99.5 -17.5t79 -49t52 -74.5t18.5 -94q0 -45 -17 -87t-49.5 -75t-80.5 -53t-109 -20zM286 107q24 0 43 9t33 24.5t21.5 36t7.5 42.5q0 48 -30.5 79.5t-75.5 31.5
q-24 0 -43.5 -9t-33 -25t-21 -36.5t-7.5 -42.5q0 -24 9 -44t23.5 -35t33.5 -23t40 -8zM230 709l142 -164l-82 -55l-171 136z" />
    <glyph glyph-name="oacute" unicode="&#xf3;" horiz-adv-x="572" 
d="M279 -16q-51 0 -95 17.5t-77 49t-51.5 74.5t-18.5 95q0 49 18 91.5t50.5 74t78.5 50t102 18.5q54 0 99.5 -17.5t79 -49t52 -74.5t18.5 -94q0 -45 -17 -87t-49.5 -75t-80.5 -53t-109 -20zM286 107q24 0 43 9t33 24.5t21.5 36t7.5 42.5q0 48 -30.5 79.5t-75.5 31.5
q-24 0 -43.5 -9t-33 -25t-21 -36.5t-7.5 -42.5q0 -24 9 -44t23.5 -35t33.5 -23t40 -8zM340 709l112 -83l-172 -136l-81 55z" />
    <glyph glyph-name="ocircumflex" unicode="&#xf4;" horiz-adv-x="572" 
d="M279 -16q-51 0 -95 17.5t-77 49t-51.5 74.5t-18.5 95q0 49 18 91.5t50.5 74t78.5 50t102 18.5q54 0 99.5 -17.5t79 -49t52 -74.5t18.5 -94q0 -45 -17 -87t-49.5 -75t-80.5 -53t-109 -20zM286 107q24 0 43 9t33 24.5t21.5 36t7.5 42.5q0 48 -30.5 79.5t-75.5 31.5
q-24 0 -43.5 -9t-33 -25t-21 -36.5t-7.5 -42.5q0 -24 9 -44t23.5 -35t33.5 -23t40 -8zM98 580l195 136l182 -134l-62 -83l-126 85l-122 -86z" />
    <glyph glyph-name="otilde" unicode="&#xf5;" horiz-adv-x="572" 
d="M279 -16q-51 0 -95 17.5t-77 49t-51.5 74.5t-18.5 95q0 49 18 91.5t50.5 74t78.5 50t102 18.5q54 0 99.5 -17.5t79 -49t52 -74.5t18.5 -94q0 -45 -17 -87t-49.5 -75t-80.5 -53t-109 -20zM286 107q24 0 43 9t33 24.5t21.5 36t7.5 42.5q0 48 -30.5 79.5t-75.5 31.5
q-24 0 -43.5 -9t-33 -25t-21 -36.5t-7.5 -42.5q0 -24 9 -44t23.5 -35t33.5 -23t40 -8zM79 521q0 30 9 56.5t25.5 46t39 30.5t49.5 11t47 -7t37 -16t33.5 -16t36.5 -7q17 0 27.5 11.5t10.5 29.5h102q0 -33 -10 -60t-27.5 -45.5t-41.5 -29t-51 -10.5q-24 0 -44 7.5t-38.5 16.5
t-36 16.5t-35.5 7.5q-14 0 -24 -13.5t-10 -28.5h-99v0z" />
    <glyph glyph-name="odieresis" unicode="&#xf6;" horiz-adv-x="572" 
d="M279 -16q-51 0 -95 17.5t-77 49t-51.5 74.5t-18.5 95q0 49 18 91.5t50.5 74t78.5 50t102 18.5q54 0 99.5 -17.5t79 -49t52 -74.5t18.5 -94q0 -45 -17 -87t-49.5 -75t-80.5 -53t-109 -20zM286 107q24 0 43 9t33 24.5t21.5 36t7.5 42.5q0 48 -30.5 79.5t-75.5 31.5
q-24 0 -43.5 -9t-33 -25t-21 -36.5t-7.5 -42.5q0 -24 9 -44t23.5 -35t33.5 -23t40 -8zM398 523q-33 0 -56.5 23.5t-23.5 56.5t23.5 56.5t56.5 23.5t56.5 -23.5t23.5 -56.5t-23.5 -56.5t-56.5 -23.5zM176 523q-33 0 -56.5 23.5t-23.5 56.5t23.5 56.5t56.5 23.5t56.5 -23.5
t23.5 -56.5t-23.5 -56.5t-56.5 -23.5z" />
    <glyph glyph-name="divide" unicode="&#xf7;" horiz-adv-x="670" 
d="M335 411q-34 0 -57.5 23.5t-23.5 57.5t23.5 57.5t57.5 23.5t57.5 -23.5t23.5 -57.5t-23.5 -57.5t-57.5 -23.5zM0 356h670v-128h-670v128zM335 10q-34 0 -57.5 23.5t-23.5 57.5t23.5 57.5t57.5 23.5t57.5 -23.5t23.5 -57.5t-23.5 -57.5t-57.5 -23.5z" />
    <glyph glyph-name="oslash" unicode="&#xf8;" horiz-adv-x="576" 
d="M44 32l45 42q-23 29 -36 66t-13 80q0 49 18 91.5t50.5 74t78.5 50t102 18.5q45 0 83 -12t70 -34l49 47l44 -49l-46 -43q23 -29 36 -65.5t13 -78.5q0 -45 -17 -87t-49.5 -75t-80.5 -53t-109 -20q-42 0 -78.5 11.5t-67.5 32.5l-48 -45zM347 319q-26 18 -59 18
q-26 0 -46.5 -10t-35 -26.5t-22 -38t-7.5 -45.5q0 -26 10 -49zM230 118q27 -18 59 -18q25 0 45.5 9.5t35 26t22.5 38t8 45.5q0 25 -10 50z" />
    <glyph glyph-name="ugrave" unicode="&#xf9;" horiz-adv-x="550" 
d="M53 438h142v-225q0 -23 3.5 -43t12.5 -34.5t25 -23t41 -8.5t40.5 9t23.5 24t11 33.5t3 38.5v229h142v-229q0 -56 -9 -96t-40 -70q-32 -32 -78 -45.5t-95 -13.5q-52 0 -97 15.5t-80 50.5q-24 24 -34.5 61.5t-10.5 97.5v229zM224 709l142 -164l-82 -55l-171 136z" />
    <glyph glyph-name="uacute" unicode="&#xfa;" horiz-adv-x="550" 
d="M53 438h142v-225q0 -23 3.5 -43t12.5 -34.5t25 -23t41 -8.5t40.5 9t23.5 24t11 33.5t3 38.5v229h142v-229q0 -56 -9 -96t-40 -70q-32 -32 -78 -45.5t-95 -13.5q-52 0 -97 15.5t-80 50.5q-24 24 -34.5 61.5t-10.5 97.5v229zM338 709l112 -83l-172 -136l-81 55z" />
    <glyph glyph-name="ucircumflex" unicode="&#xfb;" horiz-adv-x="550" 
d="M53 438h142v-225q0 -23 3.5 -43t12.5 -34.5t25 -23t41 -8.5t40.5 9t23.5 24t11 33.5t3 38.5v229h142v-229q0 -56 -9 -96t-40 -70q-32 -32 -78 -45.5t-95 -13.5q-52 0 -97 15.5t-80 50.5q-24 24 -34.5 61.5t-10.5 97.5v229zM84 580l195 136l182 -134l-62 -83l-126 85
l-122 -86z" />
    <glyph glyph-name="udieresis" unicode="&#xfc;" horiz-adv-x="550" 
d="M53 438h142v-225q0 -23 3.5 -43t12.5 -34.5t25 -23t41 -8.5t40.5 9t23.5 24t11 33.5t3 38.5v229h142v-229q0 -56 -9 -96t-40 -70q-32 -32 -78 -45.5t-95 -13.5q-52 0 -97 15.5t-80 50.5q-24 24 -34.5 61.5t-10.5 97.5v229zM387 523q-33 0 -56.5 23.5t-23.5 56.5
t23.5 56.5t56.5 23.5t56.5 -23.5t23.5 -56.5t-23.5 -56.5t-56.5 -23.5zM165 523q-33 0 -56.5 23.5t-23.5 56.5t23.5 56.5t56.5 23.5t56.5 -23.5t23.5 -56.5t-23.5 -56.5t-56.5 -23.5z" />
    <glyph glyph-name="yacute" unicode="&#xfd;" horiz-adv-x="545" 
d="M202 -9l-203 447h162l81 -196l18.5 -46t18.5 -53l18.5 48l18.5 48l81 199h149l-278 -639h-152zM321 709l112 -83l-172 -136l-81 55z" />
    <glyph glyph-name="thorn" unicode="&#xfe;" horiz-adv-x="598" 
d="M60 749h142v-367q25 33 60.5 50.5t89.5 17.5q45 0 83 -18t65.5 -49t42.5 -73t15 -91q0 -42 -14.5 -83.5t-42 -74.5t-68.5 -53t-94 -20q-48 0 -81.5 15.5t-55.5 40.5v-245h-142v950zM303 98q26 0 45.5 10t32.5 26.5t19.5 37.5t6.5 42t-6 41.5t-19 36.5t-33 26t-48 10
q-24 0 -43.5 -9.5t-33 -26t-20.5 -37.5t-7 -43q0 -49 28.5 -81.5t77.5 -32.5z" />
    <glyph glyph-name="ydieresis" unicode="&#xff;" horiz-adv-x="545" 
d="M202 -9l-203 447h162l81 -196l18.5 -46t18.5 -53l18.5 48l18.5 48l81 199h149l-278 -639h-152zM389 523q-33 0 -56.5 23.5t-23.5 56.5t23.5 56.5t56.5 23.5t56.5 -23.5t23.5 -56.5t-23.5 -56.5t-56.5 -23.5zM167 523q-33 0 -56.5 23.5t-23.5 56.5t23.5 56.5t56.5 23.5
t56.5 -23.5t23.5 -56.5t-23.5 -56.5t-56.5 -23.5z" />
    <glyph glyph-name="Amacron" unicode="&#x100;" horiz-adv-x="741" 
d="M282 709h164l292 -709h-171l-53 143h-294l-52 -143h-165zM465 277l-60 161q-10 27 -20.5 59t-19.5 64q-9 -33 -19 -64.5t-20 -59.5l-58 -160h197zM223 762v116h294v-116h-294z" />
    <glyph glyph-name="amacron" unicode="&#x101;" horiz-adv-x="590" 
d="M392 45q-27 -27 -63 -43.5t-87 -16.5q-48 0 -86 17t-64.5 47t-40.5 72t-14 92q0 52 15 95.5t43 75.5t68.5 50t91.5 18q46 0 82.5 -18.5t54.5 -46.5v51h141v-438h-141v45zM292 97q25 0 44.5 9.5t33 25.5t20.5 36.5t7 43.5q0 24 -8 45t-22 37t-34.5 25.5t-45.5 9.5
q-45 0 -74.5 -30.5t-29.5 -81.5q0 -24 7.5 -46t21.5 -38.5t34 -26t46 -9.5zM162 648h294v-116h-294v116z" />
    <glyph glyph-name="Abreve" unicode="&#x102;" horiz-adv-x="741" 
d="M282 709h164l292 -709h-171l-53 143h-294l-52 -143h-165zM465 277l-60 161q-10 27 -20.5 59t-19.5 64q-9 -33 -19 -64.5t-20 -59.5l-58 -160h197zM309 959q0 -45 13.5 -66.5t45.5 -21.5t48 23t16 65h116q0 -57 -14 -96.5t-38 -65t-57 -37t-72 -11.5q-86 0 -130 52.5
t-44 157.5h116z" />
    <glyph glyph-name="abreve" unicode="&#x103;" horiz-adv-x="590" 
d="M392 45q-27 -27 -63 -43.5t-87 -16.5q-48 0 -86 17t-64.5 47t-40.5 72t-14 92q0 52 15 95.5t43 75.5t68.5 50t91.5 18q46 0 82.5 -18.5t54.5 -46.5v51h141v-438h-141v45zM292 97q25 0 44.5 9.5t33 25.5t20.5 36.5t7 43.5q0 24 -8 45t-22 37t-34.5 25.5t-45.5 9.5
q-45 0 -74.5 -30.5t-29.5 -81.5q0 -24 7.5 -46t21.5 -38.5t34 -26t46 -9.5zM233 709q0 -45 13.5 -66.5t45.5 -21.5t48 23t16 65h116q0 -57 -14 -97.5t-38 -66.5t-57 -38t-72 -12q-86 0 -130 54.5t-44 159.5h116z" />
    <glyph glyph-name="Aogonek" unicode="&#x104;" horiz-adv-x="741" 
d="M682 0q-33 -49 -33 -83q0 -23 15.5 -35t43.5 -12q5 0 10 0.5t11 1.5l8 -84q-36 -10 -72 -10q-29 0 -55 7t-45 20.5t-30 34t-11 46.5q0 24 10 52t33 62l-53 143h-294l-52 -143h-165l279 709h164l292 -709h-56zM405 438q-10 27 -20.5 59t-19.5 64q-9 -33 -19 -64.5
t-20 -59.5l-58 -160h197z" />
    <glyph glyph-name="aogonek" unicode="&#x105;" horiz-adv-x="590" 
d="M562 -212q-36 -10 -73 -10q-29 0 -54.5 7t-44.5 20.5t-29.5 33.5t-10.5 46q0 24 9.5 52.5t32.5 62.5v45q-27 -27 -63 -43.5t-87 -16.5q-48 0 -86 17t-64.5 47t-40.5 72t-14 92q0 52 15 95.5t43 75.5t68.5 50t91.5 18q46 0 82.5 -18.5t54.5 -46.5v51h141v-438h-26
q-34 -50 -34 -84q0 -23 15.5 -34.5t43.5 -11.5q5 0 10.5 0.5t11.5 1.5zM397 212q0 24 -8 45t-22 37t-34.5 25.5t-45.5 9.5q-45 0 -74.5 -30.5t-29.5 -81.5q0 -24 7.5 -46t21.5 -38.5t34 -26t46 -9.5q25 0 44.5 9.5t33 25.5t20.5 36.5t7 43.5z" />
    <glyph glyph-name="Cacute" unicode="&#x106;" horiz-adv-x="640" 
d="M593 27q-37 -19 -89 -30.5t-108 -11.5q-82 0 -148.5 29t-113 78.5t-71.5 115.5t-25 140q0 79 26.5 147t74.5 118t115.5 79t148.5 29q110 0 190 -37v-167q-34 28 -84 46t-101 18q-45 0 -83.5 -15.5t-67 -44.5t-44.5 -72t-16 -97q0 -45 13.5 -85.5t40.5 -71.5t67.5 -49.5
t94.5 -18.5q60 0 104 16.5t76 41.5v-158v0zM374 928l126 -75l-184 -111l-72 55z" />
    <glyph glyph-name="cacute" unicode="&#x107;" horiz-adv-x="439" 
d="M398 10q-20 -8 -55 -16t-74 -8q-56 0 -99 18.5t-72.5 50t-45 73t-15.5 88.5q0 44 15.5 86.5t45.5 75.5t75.5 53.5t105.5 20.5q30 0 63 -6t56 -17v-128q-15 11 -43.5 19.5t-54.5 8.5q-48 0 -82 -29t-34 -80q0 -23 8 -44t23 -36.5t36.5 -24.5t48.5 -9q29 0 55 9t43 24v-129
v0zM284 709l112 -83l-172 -136l-81 55z" />
    <glyph glyph-name="Cdotaccent" unicode="&#x10a;" horiz-adv-x="640" 
d="M593 27q-37 -19 -89 -30.5t-108 -11.5q-82 0 -148.5 29t-113 78.5t-71.5 115.5t-25 140q0 79 26.5 147t74.5 118t115.5 79t148.5 29q110 0 190 -37v-167q-34 28 -84 46t-101 18q-45 0 -83.5 -15.5t-67 -44.5t-44.5 -72t-16 -97q0 -45 13.5 -85.5t40.5 -71.5t67.5 -49.5
t94.5 -18.5q60 0 104 16.5t76 41.5v-158v0zM370 758q-36 0 -61.5 25.5t-25.5 61.5t25.5 61.5t61.5 25.5t61.5 -25.5t25.5 -61.5t-25.5 -61.5t-61.5 -25.5z" />
    <glyph glyph-name="cdotaccent" unicode="&#x10b;" horiz-adv-x="439" 
d="M398 10q-20 -8 -55 -16t-74 -8q-56 0 -99 18.5t-72.5 50t-45 73t-15.5 88.5q0 44 15.5 86.5t45.5 75.5t75.5 53.5t105.5 20.5q30 0 63 -6t56 -17v-128q-15 11 -43.5 19.5t-54.5 8.5q-48 0 -82 -29t-34 -80q0 -23 8 -44t23 -36.5t36.5 -24.5t48.5 -9q29 0 55 9t43 24v-129
v0zM247 506q-36 0 -61.5 25.5t-25.5 61.5t25.5 61.5t61.5 25.5t61.5 -25.5t25.5 -61.5t-25.5 -61.5t-61.5 -25.5z" />
    <glyph glyph-name="Ccaron" unicode="&#x10c;" horiz-adv-x="640" 
d="M593 27q-37 -19 -89 -30.5t-108 -11.5q-82 0 -148.5 29t-113 78.5t-71.5 115.5t-25 140q0 79 26.5 147t74.5 118t115.5 79t148.5 29q110 0 190 -37v-167q-34 28 -84 46t-101 18q-45 0 -83.5 -15.5t-67 -44.5t-44.5 -72t-16 -97q0 -45 13.5 -85.5t40.5 -71.5t67.5 -49.5
t94.5 -18.5q60 0 104 16.5t76 41.5v-158v0zM209 913l149 -55l145 55l42 -90l-189 -71l-188 75z" />
    <glyph glyph-name="ccaron" unicode="&#x10d;" horiz-adv-x="439" 
d="M398 10q-20 -8 -55 -16t-74 -8q-56 0 -99 18.5t-72.5 50t-45 73t-15.5 88.5q0 44 15.5 86.5t45.5 75.5t75.5 53.5t105.5 20.5q30 0 63 -6t56 -17v-128q-15 11 -43.5 19.5t-54.5 8.5q-48 0 -82 -29t-34 -80q0 -23 8 -44t23 -36.5t36.5 -24.5t48.5 -9q29 0 55 9t43 24v-129
v0zM118 706l125 -85l123 86l67 -82l-197 -137l-180 136z" />
    <glyph glyph-name="Dcaron" unicode="&#x10e;" horiz-adv-x="696" 
d="M80 709h201q90 0 159 -23t115 -69q51 -51 77 -111t26 -141q0 -91 -29.5 -155t-76.5 -111q-54 -54 -124.5 -76.5t-155.5 -22.5h-192v709zM275 125q51 0 89 12.5t67 40.5q25 25 45 68.5t20 112.5q0 55 -16.5 98.5t-43.5 70.5q-35 35 -78 46t-91 11h-35v-460h43zM195 913
l149 -55l145 55l42 -90l-189 -71l-188 75z" />
    <glyph glyph-name="dcaron" unicode="&#x10f;" horiz-adv-x="591" 
d="M392 56q-27 -28 -62 -47t-90 -19q-48 0 -86 18t-64 48.5t-39.5 72t-13.5 89.5q0 47 15 88.5t43.5 73t69.5 49.5t92 18q42 0 76.5 -13t58.5 -37v351h142v-748h-142v56zM288 106q24 0 44 9.5t34 25.5t22 37.5t8 44.5q0 25 -9 45.5t-23.5 34t-33 21t-38.5 7.5
q-24 0 -43.5 -9t-33 -25t-21 -36.5t-7.5 -43.5q0 -27 8.5 -47.5t23 -35t32.5 -21.5t37 -7zM574 597q22 17 35 34t13 36q0 14 -4.5 24t-9.5 19t-9.5 18t-4.5 21q0 27 20.5 45t53.5 18q32 0 54 -21.5t22 -56.5q0 -50 -35 -94.5t-94 -82.5z" />
    <glyph glyph-name="Dcroat" unicode="&#x110;" horiz-adv-x="701" 
d="M85 300h-58v118h58v291h201q90 0 159 -23t115 -69q51 -51 77 -111t26 -141q0 -91 -29.5 -155t-76.5 -111q-54 -54 -124.5 -76.5t-155.5 -22.5h-192v300zM280 125q51 0 89 12.5t67 40.5q25 25 45 68.5t20 112.5q0 55 -16.5 98.5t-43.5 70.5q-35 35 -78 46t-91 11h-35v-167
h68v-118h-68v-175h43z" />
    <glyph glyph-name="dcroat" unicode="&#x111;" horiz-adv-x="594" 
d="M534 494v-494h-142v56q-27 -28 -62 -47t-90 -19q-48 0 -86 18t-64 48.5t-39.5 72t-13.5 89.5q0 47 15 88.5t43.5 73t69.5 49.5t92 18q42 0 76.5 -13t58.5 -37v97h-76v104h76v151h142v-151h60v-104h-60zM396 223q0 25 -9 45.5t-23.5 34t-33 21t-38.5 7.5q-24 0 -43.5 -9
t-33 -25t-21 -36.5t-7.5 -43.5q0 -27 8.5 -47.5t23 -35t32.5 -21.5t37 -7q24 0 44 9.5t34 25.5t22 37.5t8 44.5z" />
    <glyph glyph-name="Emacron" unicode="&#x112;" horiz-adv-x="556" 
d="M80 709h401v-139h-247v-140h242v-138h-242v-151h247v-141h-401v709zM129 762v116h294v-116h-294z" />
    <glyph glyph-name="emacron" unicode="&#x113;" horiz-adv-x="528" 
d="M481 85q-38 -50 -89 -75.5t-127 -25.5q-44 0 -85.5 14.5t-73 43t-50.5 72t-19 102.5q0 51 16.5 94.5t47 75.5t72.5 50t93 18q50 0 91.5 -15.5t71 -44.5t46 -71.5t16.5 -97.5v-16.5t-1 -23.5h-316q2 -42 31 -69.5t75 -27.5q66 0 109 58zM350 269q0 16 -6 31t-17 27
t-26.5 19.5t-35.5 7.5q-38 0 -62 -24t-28 -61h175zM120 648h294v-116h-294v116z" />
    <glyph glyph-name="Edotaccent" unicode="&#x116;" horiz-adv-x="556" 
d="M80 709h401v-139h-247v-140h242v-138h-242v-151h247v-141h-401v709zM279 758q-36 0 -61.5 25.5t-25.5 61.5t25.5 61.5t61.5 25.5t61.5 -25.5t25.5 -61.5t-25.5 -61.5t-61.5 -25.5z" />
    <glyph glyph-name="edotaccent" unicode="&#x117;" horiz-adv-x="528" 
d="M481 85q-38 -50 -89 -75.5t-127 -25.5q-44 0 -85.5 14.5t-73 43t-50.5 72t-19 102.5q0 51 16.5 94.5t47 75.5t72.5 50t93 18q50 0 91.5 -15.5t71 -44.5t46 -71.5t16.5 -97.5v-16.5t-1 -23.5h-316q2 -42 31 -69.5t75 -27.5q66 0 109 58zM350 269q0 16 -6 31t-17 27
t-26.5 19.5t-35.5 7.5q-38 0 -62 -24t-28 -61h175zM264 506q-36 0 -61.5 25.5t-25.5 61.5t25.5 61.5t61.5 25.5t61.5 -25.5t25.5 -61.5t-25.5 -61.5t-61.5 -25.5z" />
    <glyph glyph-name="Eogonek" unicode="&#x118;" horiz-adv-x="556" 
d="M488 -212q-36 -10 -72 -10q-29 0 -55 7t-45 20.5t-30 34t-11 46.5q0 24 10 52t33 62h-238v709h401v-139h-247v-140h242v-138h-242v-151h247v-141h-48q-33 -49 -33 -83q0 -23 15.5 -35t43.5 -12q5 0 10 0.5t11 1.5l8 -84v0z" />
    <glyph glyph-name="eogonek" unicode="&#x119;" horiz-adv-x="528" 
d="M491 225v-16.5t-1 -23.5h-316q2 -42 31 -69.5t75 -27.5q66 0 109 58l92 -61q-16 -18 -36 -37t-38 -40t-30.5 -43.5t-12.5 -47.5q0 -23 15.5 -35t44.5 -12q5 0 10.5 0.5t10.5 1.5l8 -84q-36 -10 -72 -10q-29 0 -54.5 7t-44.5 20.5t-30 33.5t-11 46q0 21 7.5 47t35.5 61
q-8 -3 -15.5 -5t-18.5 -2q-38 0 -76 14t-68.5 42.5t-49.5 72t-19 101.5q0 51 16.5 94.5t47 75.5t72.5 50t93 18q50 0 91.5 -15.5t71 -44.5t46 -71.5t16.5 -97.5zM350 269q0 16 -6 31t-17 27t-26.5 19.5t-35.5 7.5q-38 0 -62 -24t-28 -61h175z" />
    <glyph glyph-name="Ecaron" unicode="&#x11a;" horiz-adv-x="556" 
d="M80 709h401v-139h-247v-140h242v-138h-242v-151h247v-141h-401v709zM129 913l149 -55l145 55l42 -90l-189 -71l-188 75z" />
    <glyph glyph-name="ecaron" unicode="&#x11b;" horiz-adv-x="528" 
d="M481 85q-38 -50 -89 -75.5t-127 -25.5q-44 0 -85.5 14.5t-73 43t-50.5 72t-19 102.5q0 51 16.5 94.5t47 75.5t72.5 50t93 18q50 0 91.5 -15.5t71 -44.5t46 -71.5t16.5 -97.5v-16.5t-1 -23.5h-316q2 -42 31 -69.5t75 -27.5q66 0 109 58zM350 269q0 16 -6 31t-17 27
t-26.5 19.5t-35.5 7.5q-38 0 -62 -24t-28 -61h175zM138 706l125 -85l123 86l67 -82l-197 -137l-180 136z" />
    <glyph glyph-name="Gbreve" unicode="&#x11e;" horiz-adv-x="792" 
d="M402 377h356v-28q0 -77 -24 -143.5t-70.5 -116t-113.5 -78t-154 -28.5q-82 0 -148.5 28.5t-113.5 79t-72.5 118.5t-25.5 147t26 147.5t74 118t115.5 78t150.5 28.5q96 0 178 -40.5t133 -121.5l-125 -74q-34 47 -81 71.5t-107 24.5q-51 0 -90 -18t-65 -49.5t-39.5 -73
t-13.5 -87.5q0 -48 13.5 -91.5t40.5 -77t66.5 -53t92.5 -19.5q70 0 119.5 34t67.5 92h-190v132zM335 959q0 -45 13.5 -66.5t45.5 -21.5t48 23t16 65h116q0 -57 -14 -96.5t-38 -65t-57 -37t-72 -11.5q-86 0 -130 52.5t-44 157.5h116z" />
    <glyph glyph-name="gbreve" unicode="&#x11f;" horiz-adv-x="583" 
d="M203 -44q0 -14 7 -26t19 -20.5t27 -13.5t31 -5q98 0 98 109v62q-29 -32 -64.5 -45.5t-77.5 -13.5q-53 0 -91.5 17.5t-64 47.5t-38 69t-12.5 83q0 49 16 91.5t44.5 73t66.5 48t83 17.5q46 0 82 -15t56 -47v50h141v-397q0 -36 -3 -64t-9.5 -50.5t-18 -41t-27.5 -34.5
q-37 -35 -83.5 -50.5t-106.5 -15.5q-51 0 -91.5 13t-68 36.5t-42 54.5t-14.5 67h141zM289 113q24 0 42.5 9t31 24.5t19.5 35.5t7 42q0 18 -6.5 36.5t-19 34t-32.5 25.5t-47 10q-23 0 -41.5 -8.5t-31.5 -23t-20.5 -34t-7.5 -41.5q0 -49 28 -79.5t78 -30.5zM229 709
q0 -45 13.5 -66.5t45.5 -21.5t48 23t16 65h116q0 -57 -14 -97.5t-38 -66.5t-57 -38t-72 -12q-86 0 -130 54.5t-44 159.5h116z" />
    <glyph glyph-name="Gdotaccent" unicode="&#x120;" horiz-adv-x="792" 
d="M402 377h356v-28q0 -77 -24 -143.5t-70.5 -116t-113.5 -78t-154 -28.5q-82 0 -148.5 28.5t-113.5 79t-72.5 118.5t-25.5 147t26 147.5t74 118t115.5 78t150.5 28.5q96 0 178 -40.5t133 -121.5l-125 -74q-34 47 -81 71.5t-107 24.5q-51 0 -90 -18t-65 -49.5t-39.5 -73
t-13.5 -87.5q0 -48 13.5 -91.5t40.5 -77t66.5 -53t92.5 -19.5q70 0 119.5 34t67.5 92h-190v132zM397 758q-36 0 -61.5 25.5t-25.5 61.5t25.5 61.5t61.5 25.5t61.5 -25.5t25.5 -61.5t-25.5 -61.5t-61.5 -25.5z" />
    <glyph glyph-name="gdotaccent" unicode="&#x121;" horiz-adv-x="583" 
d="M203 -44q0 -14 7 -26t19 -20.5t27 -13.5t31 -5q98 0 98 109v62q-29 -32 -64.5 -45.5t-77.5 -13.5q-53 0 -91.5 17.5t-64 47.5t-38 69t-12.5 83q0 49 16 91.5t44.5 73t66.5 48t83 17.5q46 0 82 -15t56 -47v50h141v-397q0 -36 -3 -64t-9.5 -50.5t-18 -41t-27.5 -34.5
q-37 -35 -83.5 -50.5t-106.5 -15.5q-51 0 -91.5 13t-68 36.5t-42 54.5t-14.5 67h141zM289 113q24 0 42.5 9t31 24.5t19.5 35.5t7 42q0 18 -6.5 36.5t-19 34t-32.5 25.5t-47 10q-23 0 -41.5 -8.5t-31.5 -23t-20.5 -34t-7.5 -41.5q0 -49 28 -79.5t78 -30.5zM292 506
q-36 0 -61.5 25.5t-25.5 61.5t25.5 61.5t61.5 25.5t61.5 -25.5t25.5 -61.5t-25.5 -61.5t-61.5 -25.5z" />
    <glyph glyph-name="Gcommaaccent" unicode="&#x122;" horiz-adv-x="792" 
d="M402 377h356v-28q0 -77 -24 -143.5t-70.5 -116t-113.5 -78t-154 -28.5q-82 0 -148.5 28.5t-113.5 79t-72.5 118.5t-25.5 147t26 147.5t74 118t115.5 78t150.5 28.5q96 0 178 -40.5t133 -121.5l-125 -74q-34 47 -81 71.5t-107 24.5q-51 0 -90 -18t-65 -49.5t-39.5 -73
t-13.5 -87.5q0 -48 13.5 -91.5t40.5 -77t66.5 -53t92.5 -19.5q70 0 119.5 34t67.5 92h-190v132zM303 -242q22 17 35 34t13 36q0 14 -4.5 24t-9.5 19t-9.5 18t-4.5 21q0 27 20.5 45t53.5 18q32 0 54 -21.5t22 -56.5q0 -50 -35 -94.5t-94 -82.5z" />
    <glyph glyph-name="gcommaaccent" unicode="&#x123;" horiz-adv-x="583" 
d="M203 -44q0 -14 7 -26t19 -20.5t27 -13.5t31 -5q98 0 98 109v62q-29 -32 -64.5 -45.5t-77.5 -13.5q-53 0 -91.5 17.5t-64 47.5t-38 69t-12.5 83q0 49 16 91.5t44.5 73t66.5 48t83 17.5q46 0 82 -15t56 -47v50h141v-397q0 -36 -3 -64t-9.5 -50.5t-18 -41t-27.5 -34.5
q-37 -35 -83.5 -50.5t-106.5 -15.5q-51 0 -91.5 13t-68 36.5t-42 54.5t-14.5 67h141zM289 113q24 0 42.5 9t31 24.5t19.5 35.5t7 42q0 18 -6.5 36.5t-19 34t-32.5 25.5t-47 10q-23 0 -41.5 -8.5t-31.5 -23t-20.5 -34t-7.5 -41.5q0 -49 28 -79.5t78 -30.5zM389.01 721.985
q-21.998 -16.999 -34.998 -33.998q-12.999 -16.999 -12.999 -35.998q0 -13.999 4.5 -23.998q4.5 -10 9.49902 -18.999q5 -9 9.5 -17.999t4.5 -20.999q0 -26.998 -20.499 -44.9971t-53.4971 -17.999q-31.998 0 -53.9961 21.499q-21.999 21.499 -21.999 56.4961
q0 49.9971 34.998 94.4951q34.998 44.4971 93.9941 82.4941z" />
    <glyph glyph-name="Hbar" unicode="&#x126;" horiz-adv-x="741" 
d="M239 430h263v86h-263v-86zM85 516h-58v118h58v75h154v-75h263v75h154v-75h58v-118h-58v-516h-154v292h-263v-292h-154v516z" />
    <glyph glyph-name="hbar" unicode="&#x127;" horiz-adv-x="549" 
d="M354 0v251q0 33 -16 55.5t-53 22.5q-19 0 -32.5 -6t-26.5 -19q-14 -14 -19 -35t-5 -50v-219h-142v494h-60v104h60v151h142v-151h132v-104h-132v-110q10 12 23 24.5t30.5 22t39 15.5t49.5 6q32 0 61.5 -11t48.5 -30q23 -23 32.5 -54t9.5 -70v-287h-142z" />
    <glyph glyph-name="Imacron" unicode="&#x12a;" horiz-adv-x="314" 
d="M80 709h154v-709h-154v709zM11 762v116h294v-116h-294z" />
    <glyph glyph-name="imacron" unicode="&#x12b;" horiz-adv-x="262" 
d="M60 438h142v-438h-142v438zM-15 648h294v-116h-294v116z" />
    <glyph glyph-name="Iogonek" unicode="&#x12e;" horiz-adv-x="314" 
d="M257 -212q-36 -10 -72 -10q-29 0 -55 7t-45 20.5t-30 34t-11 46.5q0 24 10 52t33 62h-7v709h154v-709h-32q-33 -49 -33 -83q0 -23 15.5 -35t43.5 -12q5 0 10 0.5t11 1.5l8 -84v0z" />
    <glyph glyph-name="iogonek" unicode="&#x12f;" horiz-adv-x="262" 
d="M217 603q0 -18 -7 -33.5t-18.5 -27t-27 -18.5t-33.5 -7t-33.5 7t-27 18.5t-18.5 27t-7 33.5t7 33.5t18.5 27t27 18.5t33.5 7t33.5 -7t27 -18.5t18.5 -27t7 -33.5zM231 -212q-36 -10 -72 -10q-29 0 -55 7t-45 20.5t-30 34t-11 46.5q0 24 10 52t33 62h-1v438h142v-438h-26
q-33 -49 -33 -83q0 -23 15.5 -35t43.5 -12q5 0 10 0.5t11 1.5z" />
    <glyph glyph-name="Idotaccent" unicode="&#x130;" horiz-adv-x="314" 
d="M80 709h154v-709h-154v709zM158 758q-36 0 -61.5 25.5t-25.5 61.5t25.5 61.5t61.5 25.5t61.5 -25.5t25.5 -61.5t-25.5 -61.5t-61.5 -25.5z" />
    <glyph glyph-name="dotlessi" unicode="&#x131;" horiz-adv-x="262" 
d="M60 438h142v-438h-142v438z" />
    <glyph glyph-name="Kcommaaccent" unicode="&#x136;" horiz-adv-x="699" 
d="M80 709h154v-319l237 319h186l-269 -338l278 -371h-193l-239 330v-330h-154v709zM254 -242q22 17 35 34t13 36q0 14 -4.5 24t-9.5 19t-9.5 18t-4.5 21q0 27 20.5 45t53.5 18q32 0 54 -21.5t22 -56.5q0 -50 -35 -94.5t-94 -82.5z" />
    <glyph glyph-name="kcommaaccent" unicode="&#x137;" horiz-adv-x="522" 
d="M57 749h142v-491l138 180h174l-169 -202l181 -236h-186l-138 205v-205h-142v749zM167 -242q22 17 35 34t13 36q0 14 -4.5 24t-9.5 19t-9.5 18t-4.5 21q0 27 20.5 45t53.5 18q32 0 54 -21.5t22 -56.5q0 -50 -35 -94.5t-94 -82.5z" />
    <glyph glyph-name="Lacute" unicode="&#x139;" horiz-adv-x="492" 
d="M80 709h155v-568h246v-141h-401v709zM290 928l126 -75l-184 -111l-72 55z" />
    <glyph glyph-name="lacute" unicode="&#x13a;" horiz-adv-x="256" 
d="M57 749h142v-749h-142v749zM179 1019l112 -83l-172 -136l-81 55z" />
    <glyph glyph-name="Lcommaaccent" unicode="&#x13b;" horiz-adv-x="492" 
d="M80 709h155v-568h246v-141h-401v709zM152 -242q22 17 35 34t13 36q0 14 -4.5 24t-9.5 19t-9.5 18t-4.5 21q0 27 20.5 45t53.5 18q32 0 54 -21.5t22 -56.5q0 -50 -35 -94.5t-94 -82.5z" />
    <glyph glyph-name="lcommaaccent" unicode="&#x13c;" horiz-adv-x="256" 
d="M57 749h142v-749h-142v749zM34 -242q22 17 35 34t13 36q0 14 -4.5 24t-9.5 19t-9.5 18t-4.5 21q0 27 20.5 45t53.5 18q32 0 54 -21.5t22 -56.5q0 -50 -35 -94.5t-94 -82.5z" />
    <glyph glyph-name="Lcaron" unicode="&#x13d;" horiz-adv-x="492" 
d="M80 709h155v-568h246v-141h-401v709zM285 511q22 17 35 34t13 36q0 14 -4.5 24t-9.5 19t-9.5 18t-4.5 21q0 27 20.5 45t53.5 18q32 0 54 -21.5t22 -56.5q0 -50 -35 -94.5t-94 -82.5z" />
    <glyph glyph-name="lcaron" unicode="&#x13e;" horiz-adv-x="256" 
d="M57 749h142v-749h-142v749zM239 597q22 17 35 34t13 36q0 14 -4.5 24t-9.5 19t-9.5 18t-4.5 21q0 27 20.5 45t53.5 18q32 0 54 -21.5t22 -56.5q0 -50 -35 -94.5t-94 -82.5z" />
    <glyph glyph-name="Lslash" unicode="&#x141;" horiz-adv-x="513" 
d="M101 278l-36 -22l-55 91l91 55v307h154v-214l39 23l55 -91l-94 -57v-229h247v-141h-401v278z" />
    <glyph glyph-name="lslash" unicode="&#x142;" horiz-adv-x="339" 
d="M97 282l-47 -30l-55 91l102 62v344h142v-258l45 27l55 -91l-100 -60v-367h-142v282z" />
    <glyph glyph-name="Nacute" unicode="&#x143;" horiz-adv-x="773" 
d="M80 709h140l239 -341l54.5 -81.5t44.5 -74.5q-5 56 -6 103.5t-2 103.5l-2 290h145v-709h-138l-247 351l-49 70.5t-46 71.5l4 -80.5t3 -80.5l7 -332h-147v709zM430 928l126 -75l-184 -111l-72 55z" />
    <glyph glyph-name="nacute" unicode="&#x144;" horiz-adv-x="548" 
d="M57 438h142v-58q8 11 20 23t29 22t40 16.5t53 6.5q42 0 70 -13t45 -30q21 -21 30 -50.5t9 -77.5v-277h-142v242q0 15 -3 30.5t-10.5 27.5t-20.5 20t-33 8q-11 0 -25.5 -4t-28.5 -14.5t-23.5 -29.5t-9.5 -50v-230h-142v438zM339 709l112 -83l-172 -136l-81 55z" />
    <glyph glyph-name="Ncommaaccent" unicode="&#x145;" horiz-adv-x="773" 
d="M80 709h140l239 -341l54.5 -81.5t44.5 -74.5q-5 56 -6 103.5t-2 103.5l-2 290h145v-709h-138l-247 351l-49 70.5t-46 71.5l4 -80.5t3 -80.5l7 -332h-147v709zM289 -242q22 17 35 34t13 36q0 14 -4.5 24t-9.5 19t-9.5 18t-4.5 21q0 27 20.5 45t53.5 18q32 0 54 -21.5
t22 -56.5q0 -50 -35 -94.5t-94 -82.5z" />
    <glyph glyph-name="ncommaaccent" unicode="&#x146;" horiz-adv-x="548" 
d="M57 438h142v-58q8 11 20 23t29 22t40 16.5t53 6.5q42 0 70 -13t45 -30q21 -21 30 -50.5t9 -77.5v-277h-142v242q0 15 -3 30.5t-10.5 27.5t-20.5 20t-33 8q-11 0 -25.5 -4t-28.5 -14.5t-23.5 -29.5t-9.5 -50v-230h-142v438zM179 -242q22 17 35 34t13 36q0 14 -4.5 24
t-9.5 19t-9.5 18t-4.5 21q0 27 20.5 45t53.5 18q32 0 54 -21.5t22 -56.5q0 -50 -35 -94.5t-94 -82.5z" />
    <glyph glyph-name="Ncaron" unicode="&#x147;" horiz-adv-x="773" 
d="M80 709h140l239 -341l54.5 -81.5t44.5 -74.5q-5 56 -6 103.5t-2 103.5l-2 290h145v-709h-138l-247 351l-49 70.5t-46 71.5l4 -80.5t3 -80.5l7 -332h-147v709zM238 913l149 -55l145 55l42 -90l-189 -71l-188 75z" />
    <glyph glyph-name="ncaron" unicode="&#x148;" horiz-adv-x="548" 
d="M57 438h142v-58q8 11 20 23t29 22t40 16.5t53 6.5q42 0 70 -13t45 -30q21 -21 30 -50.5t9 -77.5v-277h-142v242q0 15 -3 30.5t-10.5 27.5t-20.5 20t-33 8q-11 0 -25.5 -4t-28.5 -14.5t-23.5 -29.5t-9.5 -50v-230h-142v438zM148 706l125 -85l123 86l67 -82l-197 -137
l-180 136z" />
    <glyph glyph-name="Omacron" unicode="&#x14c;" horiz-adv-x="813" 
d="M406 -19q-79 0 -147.5 29t-119.5 79t-80 118t-29 146q0 77 30 145t81 118.5t119.5 80t145.5 29.5q78 0 147 -29t120 -79t80.5 -118.5t29.5 -146.5q0 -77 -30 -144.5t-81.5 -118t-120 -80t-145.5 -29.5zM406 128q47 0 87 17.5t69.5 48.5t46 72.5t16.5 88.5t-16.5 88
t-46 72t-69.5 48.5t-87 17.5t-87 -17.5t-69 -48.5t-45.5 -72t-16.5 -88t16.5 -88.5t45.5 -72.5t69 -48.5t87 -17.5zM260 762v116h294v-116h-294z" />
    <glyph glyph-name="omacron" unicode="&#x14d;" horiz-adv-x="572" 
d="M279 -16q-51 0 -95 17.5t-77 49t-51.5 74.5t-18.5 95q0 49 18 91.5t50.5 74t78.5 50t102 18.5q54 0 99.5 -17.5t79 -49t52 -74.5t18.5 -94q0 -45 -17 -87t-49.5 -75t-80.5 -53t-109 -20zM286 107q24 0 43 9t33 24.5t21.5 36t7.5 42.5q0 48 -30.5 79.5t-75.5 31.5
q-24 0 -43.5 -9t-33 -25t-21 -36.5t-7.5 -42.5q0 -24 9 -44t23.5 -35t33.5 -23t40 -8zM139 648h294v-116h-294v116z" />
    <glyph glyph-name="Ohungarumlaut" unicode="&#x150;" horiz-adv-x="813" 
d="M406 -19q-79 0 -147.5 29t-119.5 79t-80 118t-29 146q0 77 30 145t81 118.5t119.5 80t145.5 29.5q78 0 147 -29t120 -79t80.5 -118.5t29.5 -146.5q0 -77 -30 -144.5t-81.5 -118t-120 -80t-145.5 -29.5zM406 128q47 0 87 17.5t69.5 48.5t46 72.5t16.5 88.5t-16.5 88
t-46 72t-69.5 48.5t-87 17.5t-87 -17.5t-69 -48.5t-45.5 -72t-16.5 -88t16.5 -88.5t45.5 -72.5t69 -48.5t87 -17.5zM518 739l-81 55l127 178l112 -83zM305 742l-81 55l105 178l112 -83z" />
    <glyph glyph-name="ohungarumlaut" unicode="&#x151;" horiz-adv-x="572" 
d="M279 -16q-51 0 -95 17.5t-77 49t-51.5 74.5t-18.5 95q0 49 18 91.5t50.5 74t78.5 50t102 18.5q54 0 99.5 -17.5t79 -49t52 -74.5t18.5 -94q0 -45 -17 -87t-49.5 -75t-80.5 -53t-109 -20zM286 107q24 0 43 9t33 24.5t21.5 36t7.5 42.5q0 48 -30.5 79.5t-75.5 31.5
q-24 0 -43.5 -9t-33 -25t-21 -36.5t-7.5 -42.5q0 -24 9 -44t23.5 -35t33.5 -23t40 -8zM212 723l112 -83l-136 -150l-81 55zM447 720l112 -83l-158 -150l-81 55z" />
    <glyph glyph-name="OE" unicode="&#x152;" horiz-adv-x="1107" 
d="M616 58q-46 -34 -98.5 -54.5t-112.5 -20.5q-78 0 -146.5 28.5t-119.5 78t-80 117.5t-29 146q0 76 29.5 144t80 118t119 79.5t146.5 29.5q36 0 65.5 -5t54.5 -14t47 -22t44 -29v55h395v-138h-247v-141h242v-138h-242v-151h247v-141h-395v58zM405 130q47 0 87.5 17.5t70 48
t46 71.5t16.5 88q0 50 -18 91t-48 70.5t-70 46t-83 16.5q-42 0 -81 -15.5t-69.5 -44.5t-49 -70.5t-18.5 -92.5q0 -50 17.5 -91.5t47 -71.5t69 -46.5t83.5 -16.5z" />
    <glyph glyph-name="oe" unicode="&#x153;" horiz-adv-x="888" 
d="M839 85q-38 -50 -89 -75.5t-127 -25.5q-47 0 -90.5 16.5t-75.5 55.5q-32 -34 -75.5 -53t-99.5 -19q-51 0 -95 17.5t-77 49t-51.5 74.5t-18.5 95q0 49 18 91.5t50.5 74t78.5 50t102 18.5q52 0 95 -17t77 -54q26 33 69.5 52t93.5 19q49 0 90.5 -15.5t71.5 -44.5t46.5 -71.5
t16.5 -97.5v-16.5t-1 -23.5h-316q2 -42 31 -69.5t75 -27.5q66 0 109 58zM708 269q0 16 -6 31t-17 27t-26.5 19.5t-35.5 7.5q-38 0 -62 -24t-28 -61h175zM289 107q24 0 43 9t33 24.5t21.5 36t7.5 42.5q0 48 -30.5 79.5t-75.5 31.5q-24 0 -43.5 -9t-33 -25t-21 -36.5
t-7.5 -42.5q0 -24 9 -44t23.5 -35t33.5 -23t40 -8z" />
    <glyph glyph-name="Racute" unicode="&#x154;" horiz-adv-x="622" 
d="M80 709h219q64 0 117.5 -14t89.5 -50q31 -31 44 -66t13 -80q0 -39 -12.5 -73t-34.5 -60t-52.5 -43t-65.5 -22l204 -301h-182l-187 299v-299h-153v709zM288 399q36 0 57.5 6.5t35.5 20.5q26 26 26 67q0 8 -3 24.5t-17 33.5q-20 23 -47 28.5t-55 5.5h-52v-186h55zM355 928
l126 -75l-184 -111l-72 55z" />
    <glyph glyph-name="racute" unicode="&#x155;" horiz-adv-x="341" 
d="M57 438h141v-69q19 36 50 59t86 21v-143q-23 15 -58 15q-36 0 -56 -30.5t-20 -99.5v-191h-143v438zM237 709l112 -83l-172 -136l-81 55z" />
    <glyph glyph-name="Rcommaaccent" unicode="&#x156;" horiz-adv-x="622" 
d="M80 709h219q64 0 117.5 -14t89.5 -50q31 -31 44 -66t13 -80q0 -39 -12.5 -73t-34.5 -60t-52.5 -43t-65.5 -22l204 -301h-182l-187 299v-299h-153v709zM288 399q36 0 57.5 6.5t35.5 20.5q26 26 26 67q0 8 -3 24.5t-17 33.5q-20 23 -47 28.5t-55 5.5h-52v-186h55zM216 -242
q22 17 35 34t13 36q0 14 -4.5 24t-9.5 19t-9.5 18t-4.5 21q0 27 20.5 45t53.5 18q32 0 54 -21.5t22 -56.5q0 -50 -35 -94.5t-94 -82.5z" />
    <glyph glyph-name="rcommaaccent" unicode="&#x157;" horiz-adv-x="341" 
d="M57 438h141v-69q19 36 50 59t86 21v-143q-23 15 -58 15q-36 0 -56 -30.5t-20 -99.5v-191h-143v438zM49 -242q22 17 35 34t13 36q0 14 -4.5 24t-9.5 19t-9.5 18t-4.5 21q0 27 20.5 45t53.5 18q32 0 54 -21.5t22 -56.5q0 -50 -35 -94.5t-94 -82.5z" />
    <glyph glyph-name="Rcaron" unicode="&#x158;" horiz-adv-x="622" 
d="M80 709h219q64 0 117.5 -14t89.5 -50q31 -31 44 -66t13 -80q0 -39 -12.5 -73t-34.5 -60t-52.5 -43t-65.5 -22l204 -301h-182l-187 299v-299h-153v709zM288 399q36 0 57.5 6.5t35.5 20.5q26 26 26 67q0 8 -3 24.5t-17 33.5q-20 23 -47 28.5t-55 5.5h-52v-186h55zM156 913
l149 -55l145 55l42 -90l-189 -71l-188 75z" />
    <glyph glyph-name="rcaron" unicode="&#x159;" horiz-adv-x="341" 
d="M57 438h141v-69q19 36 50 59t86 21v-143q-23 15 -58 15q-36 0 -56 -30.5t-20 -99.5v-191h-143v438zM66 706l125 -85l123 86l67 -82l-197 -137l-180 136z" />
    <glyph glyph-name="Sacute" unicode="&#x15a;" horiz-adv-x="558" 
d="M126 192l27.5 -28.5t31.5 -26t36.5 -19t41.5 -7.5q38 0 63.5 23.5t25.5 61.5q0 30 -21.5 50t-53.5 37.5t-69.5 35t-69.5 43t-53.5 62.5t-21.5 93q0 48 18.5 86.5t50 66.5t73.5 43t88 15q63 0 117 -26t89 -68l-94 -102q-20 32 -48.5 50t-59.5 18q-37 0 -58 -22t-21 -54
q0 -29 21.5 -48t54 -35.5t70.5 -33t70.5 -41.5t54 -61.5t21.5 -91.5q0 -54 -20 -97t-54.5 -73t-80.5 -46t-97 -16q-75 0 -130.5 26.5t-98.5 73.5zM313 928l126 -75l-184 -111l-72 55z" />
    <glyph glyph-name="sacute" unicode="&#x15b;" horiz-adv-x="430" 
d="M151 138q8 -22 24.5 -36t38.5 -14q21 0 33 8t12 22q0 16 -16 25.5t-39.5 18l-51 18t-51 25t-39.5 40t-16 62.5q0 30 12 56.5t34.5 46.5t55 31.5t74.5 11.5q62 0 104.5 -24t64.5 -79l-114 -44q-11 26 -27.5 36t-33.5 10q-14 0 -26 -8t-12 -23q0 -17 16 -27.5t39.5 -19
l51.5 -18t51.5 -25t39.5 -40t16 -62.5q0 -33 -14 -59.5t-38.5 -45t-57.5 -28t-72 -9.5q-75 0 -117 25t-62 79zM280 709l112 -83l-172 -136l-81 55z" />
    <glyph glyph-name="Scedilla" unicode="&#x15e;" horiz-adv-x="558" 
d="M126 192l27.5 -28.5t31.5 -26t36.5 -19t41.5 -7.5q38 0 63.5 23.5t25.5 61.5q0 30 -21.5 50t-53.5 37.5t-69.5 35t-69.5 43t-53.5 62.5t-21.5 93q0 48 18.5 86.5t50 66.5t73.5 43t88 15q63 0 117 -26t89 -68l-94 -102q-20 32 -48.5 50t-59.5 18q-37 0 -58 -22t-21 -54
q0 -29 21.5 -48t54 -35.5t70.5 -33t70.5 -41.5t54 -61.5t21.5 -91.5q0 -54 -20 -97t-54.5 -73t-80.5 -46t-97 -16q-75 0 -130.5 26.5t-98.5 73.5zM278 -37l111 -51l-137 -149l-80 62z" />
    <glyph glyph-name="scedilla" unicode="&#x15f;" horiz-adv-x="430" 
d="M151 138q8 -22 24.5 -36t38.5 -14q21 0 33 8t12 22q0 16 -16 25.5t-39.5 18l-51 18t-51 25t-39.5 40t-16 62.5q0 30 12 56.5t34.5 46.5t55 31.5t74.5 11.5q62 0 104.5 -24t64.5 -79l-114 -44q-11 26 -27.5 36t-33.5 10q-14 0 -26 -8t-12 -23q0 -17 16 -27.5t39.5 -19
l51.5 -18t51.5 -25t39.5 -40t16 -62.5q0 -33 -14 -59.5t-38.5 -45t-57.5 -28t-72 -9.5q-75 0 -117 25t-62 79zM215 -37l111 -51l-137 -149l-80 62z" />
    <glyph glyph-name="Scaron" unicode="&#x160;" horiz-adv-x="558" 
d="M126 192l27.5 -28.5t31.5 -26t36.5 -19t41.5 -7.5q38 0 63.5 23.5t25.5 61.5q0 30 -21.5 50t-53.5 37.5t-69.5 35t-69.5 43t-53.5 62.5t-21.5 93q0 48 18.5 86.5t50 66.5t73.5 43t88 15q63 0 117 -26t89 -68l-94 -102q-20 32 -48.5 50t-59.5 18q-37 0 -58 -22t-21 -54
q0 -29 21.5 -48t54 -35.5t70.5 -33t70.5 -41.5t54 -61.5t21.5 -91.5q0 -54 -20 -97t-54.5 -73t-80.5 -46t-97 -16q-75 0 -130.5 26.5t-98.5 73.5zM141 913l149 -55l145 55l42 -90l-189 -71l-188 75z" />
    <glyph glyph-name="scaron" unicode="&#x161;" horiz-adv-x="430" 
d="M151 138q8 -22 24.5 -36t38.5 -14q21 0 33 8t12 22q0 16 -16 25.5t-39.5 18l-51 18t-51 25t-39.5 40t-16 62.5q0 30 12 56.5t34.5 46.5t55 31.5t74.5 11.5q62 0 104.5 -24t64.5 -79l-114 -44q-11 26 -27.5 36t-33.5 10q-14 0 -26 -8t-12 -23q0 -17 16 -27.5t39.5 -19
l51.5 -18t51.5 -25t39.5 -40t16 -62.5q0 -33 -14 -59.5t-38.5 -45t-57.5 -28t-72 -9.5q-75 0 -117 25t-62 79zM91 706l125 -85l123 86l67 -82l-197 -137l-180 136z" />
    <glyph glyph-name="Tcedilla" unicode="&#x162;" horiz-adv-x="482" 
d="M164 570h-152v139h458v-137h-152v-572h-154v570zM241 -37l111 -51l-137 -149l-80 62z" />
    <glyph glyph-name="tcedilla" unicode="&#x163;" horiz-adv-x="302" 
d="M79 332h-60v106h60v156h142v-156h81v-106h-81v-332h-142v332zM151 -37l111 -51l-137 -149l-80 62z" />
    <glyph glyph-name="Tcaron" unicode="&#x164;" horiz-adv-x="482" 
d="M164 570h-152v139h458v-137h-152v-572h-154v570zM93 913l149 -55l145 55l42 -90l-189 -71l-188 75z" />
    <glyph glyph-name="tcaron" unicode="&#x165;" horiz-adv-x="302" 
d="M79 332h-60v106h60v156h142v-156h81v-106h-81v-332h-142v332zM261 548q22 17 35 34t13 36q0 14 -4.5 24t-9.5 19t-9.5 18t-4.5 21q0 27 20.5 45t53.5 18q32 0 54 -21.5t22 -56.5q0 -50 -35 -94.5t-94 -82.5z" />
    <glyph glyph-name="Umacron" unicode="&#x16a;" horiz-adv-x="727" 
d="M76 709h154v-438q0 -45 6.5 -69t26.5 -44q15 -15 40.5 -28t64.5 -13q34 0 57 11t37 25q20 20 29 46t9 67v443h151v-430q0 -71 -19 -126t-61 -97q-38 -38 -92.5 -55.5t-116.5 -17.5q-66 0 -123.5 20.5t-95.5 58.5q-30 30 -48.5 76.5t-18.5 123.5v447zM216 762v116h294
v-116h-294z" />
    <glyph glyph-name="umacron" unicode="&#x16b;" horiz-adv-x="550" 
d="M53 438h142v-225q0 -23 3.5 -43t12.5 -34.5t25 -23t41 -8.5t40.5 9t23.5 24t11 33.5t3 38.5v229h142v-229q0 -56 -9 -96t-40 -70q-32 -32 -78 -45.5t-95 -13.5q-52 0 -97 15.5t-80 50.5q-24 24 -34.5 61.5t-10.5 97.5v229zM128 648h294v-116h-294v116z" />
    <glyph glyph-name="Uring" unicode="&#x16e;" horiz-adv-x="727" 
d="M76 709h154v-438q0 -45 6.5 -69t26.5 -44q15 -15 40.5 -28t64.5 -13q34 0 57 11t37 25q20 20 29 46t9 67v443h151v-430q0 -71 -19 -126t-61 -97q-38 -38 -92.5 -55.5t-116.5 -17.5q-66 0 -123.5 20.5t-95.5 58.5q-30 30 -48.5 76.5t-18.5 123.5v447zM367 737q-26 0 -48 9
t-39 25.5t-26.5 38t-9.5 47.5q0 25 9.5 47t26.5 38.5t39 25.5t48 9q25 0 47.5 -9t39.5 -25.5t26.5 -38.5t9.5 -47q0 -26 -9.5 -47.5t-26.5 -38t-39.5 -25.5t-47.5 -9zM367 809q20 0 34 14t14 34t-14 34t-34 14t-34 -14t-14 -34t14 -34t34 -14z" />
    <glyph glyph-name="uring" unicode="&#x16f;" horiz-adv-x="550" 
d="M53 438h142v-225q0 -23 3.5 -43t12.5 -34.5t25 -23t41 -8.5t40.5 9t23.5 24t11 33.5t3 38.5v229h142v-229q0 -56 -9 -96t-40 -70q-32 -32 -78 -45.5t-95 -13.5q-52 0 -97 15.5t-80 50.5q-24 24 -34.5 61.5t-10.5 97.5v229zM280 497q-26 0 -48 9t-39 25.5t-26.5 38
t-9.5 47.5q0 25 9.5 47t26.5 38.5t39 25.5t48 9q25 0 47.5 -9t39.5 -25.5t26.5 -38.5t9.5 -47q0 -26 -9.5 -47.5t-26.5 -38t-39.5 -25.5t-47.5 -9zM280 569q20 0 34 14t14 34t-14 34t-34 14t-34 -14t-14 -34t14 -34t34 -14z" />
    <glyph glyph-name="Uhungarumlaut" unicode="&#x170;" horiz-adv-x="727" 
d="M76 709h154v-438q0 -45 6.5 -69t26.5 -44q15 -15 40.5 -28t64.5 -13q34 0 57 11t37 25q20 20 29 46t9 67v443h151v-430q0 -71 -19 -126t-61 -97q-38 -38 -92.5 -55.5t-116.5 -17.5q-66 0 -123.5 20.5t-95.5 58.5q-30 30 -48.5 76.5t-18.5 123.5v447zM475 739l-81 55
l127 178l112 -83zM262 742l-81 55l105 178l112 -83z" />
    <glyph glyph-name="uhungarumlaut" unicode="&#x171;" horiz-adv-x="550" 
d="M53 438h142v-225q0 -23 3.5 -43t12.5 -34.5t25 -23t41 -8.5t40.5 9t23.5 24t11 33.5t3 38.5v229h142v-229q0 -56 -9 -96t-40 -70q-32 -32 -78 -45.5t-95 -13.5q-52 0 -97 15.5t-80 50.5q-24 24 -34.5 61.5t-10.5 97.5v229zM201 723l112 -83l-136 -150l-81 55zM436 720
l112 -83l-158 -150l-81 55z" />
    <glyph glyph-name="Uogonek" unicode="&#x172;" horiz-adv-x="727" 
d="M651 279q0 -71 -20 -126.5t-58 -100.5q-28 -33 -46.5 -71t-18.5 -64q0 -23 15.5 -35t43.5 -12q5 0 10 0.5t11 1.5l8 -84q-36 -10 -72 -10q-29 0 -55 7t-45 20.5t-30 34t-11 46.5q0 21 10 47.5t37 64.5q-12 -8 -33 -11.5t-35 -3.5q-66 0 -123.5 20.5t-95.5 58.5
q-30 30 -48.5 76.5t-18.5 123.5v447h154v-438q0 -45 6.5 -69t26.5 -44q15 -15 40.5 -28t64.5 -13q34 0 57 11t37 25q20 20 29 46t9 67v443h151v-430v0z" />
    <glyph glyph-name="uogonek" unicode="&#x173;" horiz-adv-x="550" 
d="M497 209q0 -56 -9 -95t-38 -72q-26 -30 -44.5 -65t-18.5 -60q0 -23 15.5 -35t43.5 -12q5 0 10 0.5t11 1.5l8 -84q-36 -10 -72 -10q-29 0 -55 7t-45 20.5t-30 34t-11 46.5q0 21 9.5 47.5t36.5 62.5q-8 -5 -22.5 -7.5t-31.5 -2.5q-35 0 -78.5 15t-77.5 49
q-24 24 -34.5 61.5t-10.5 97.5v229h142v-225q0 -23 3.5 -43t12.5 -34.5t25 -23t41 -8.5t40.5 9t23.5 24t11 33.5t3 38.5v229h142v-229v0z" />
    <glyph glyph-name="Ydieresis" unicode="&#x178;" horiz-adv-x="631" 
d="M238 317l-235 392h179l136 -270l138 270h173l-237 -386v-323h-154v317zM424 743q-33 0 -56.5 23.5t-23.5 56.5t23.5 56.5t56.5 23.5t56.5 -23.5t23.5 -56.5t-23.5 -56.5t-56.5 -23.5zM202 743q-33 0 -56.5 23.5t-23.5 56.5t23.5 56.5t56.5 23.5t56.5 -23.5t23.5 -56.5
t-23.5 -56.5t-56.5 -23.5z" />
    <glyph glyph-name="Zacute" unicode="&#x179;" horiz-adv-x="607" 
d="M332 572h-296v137h548l-331 -571h327v-138h-579zM347 928l126 -75l-184 -111l-72 55z" />
    <glyph glyph-name="zacute" unicode="&#x17a;" horiz-adv-x="475" 
d="M228 330h-190v108h420l-218 -331h205v-107h-432zM303 709l112 -83l-172 -136l-81 55z" />
    <glyph glyph-name="Zdotaccent" unicode="&#x17b;" horiz-adv-x="607" 
d="M332 572h-296v137h548l-331 -571h327v-138h-579zM303 758q-36 0 -61.5 25.5t-25.5 61.5t25.5 61.5t61.5 25.5t61.5 -25.5t25.5 -61.5t-25.5 -61.5t-61.5 -25.5z" />
    <glyph glyph-name="zdotaccent" unicode="&#x17c;" horiz-adv-x="475" 
d="M228 330h-190v108h420l-218 -331h205v-107h-432zM238 506q-36 0 -61.5 25.5t-25.5 61.5t25.5 61.5t61.5 25.5t61.5 -25.5t25.5 -61.5t-25.5 -61.5t-61.5 -25.5z" />
    <glyph glyph-name="Zcaron" unicode="&#x17d;" horiz-adv-x="607" 
d="M332 572h-296v137h548l-331 -571h327v-138h-579zM151 913l149 -55l145 55l42 -90l-189 -71l-188 75z" />
    <glyph glyph-name="zcaron" unicode="&#x17e;" horiz-adv-x="475" 
d="M228 330h-190v108h420l-218 -331h205v-107h-432zM120 706l125 -85l123 86l67 -82l-197 -137l-180 136z" />
    <glyph glyph-name="florin" unicode="&#x192;" horiz-adv-x="580" 
d="M65 -89q21 -3 40 -3t31 5t19 17.5t11.5 34t9.5 53.5l45 300h-85l13 85h85l18 111q8 48 18.5 86.5t31 66.5t54 43t86.5 15q22 0 49 -2t43 -5l-18 -118q-21 3 -42 3q-19 0 -30.5 -4.5t-19 -15t-11.5 -28t-8 -44.5l-16 -107h92l-13 -84h-91l-51 -323q-8 -48 -18.5 -86.5
t-30.5 -66.5t-53.5 -43t-86.5 -15q-22 0 -48 2t-43 5z" />
    <glyph glyph-name="Scommaaccent" unicode="&#x218;" horiz-adv-x="558" 
d="M126 192l27.5 -28.5t31.5 -26t36.5 -19t41.5 -7.5q38 0 63.5 23.5t25.5 61.5q0 30 -21.5 50t-53.5 37.5t-69.5 35t-69.5 43t-53.5 62.5t-21.5 93q0 48 18.5 86.5t50 66.5t73.5 43t88 15q63 0 117 -26t89 -68l-94 -102q-20 32 -48.5 50t-59.5 18q-37 0 -58 -22t-21 -54
q0 -29 21.5 -48t54 -35.5t70.5 -33t70.5 -41.5t54 -61.5t21.5 -91.5q0 -54 -20 -97t-54.5 -73t-80.5 -46t-97 -16q-75 0 -130.5 26.5t-98.5 73.5zM185 -242q22 17 35 34t13 36q0 14 -4.5 24t-9.5 19t-9.5 18t-4.5 21q0 27 20.5 45t53.5 18q32 0 54 -21.5t22 -56.5
q0 -50 -35 -94.5t-94 -82.5z" />
    <glyph glyph-name="scommaaccent" unicode="&#x219;" horiz-adv-x="430" 
d="M151 138q8 -22 24.5 -36t38.5 -14q21 0 33 8t12 22q0 16 -16 25.5t-39.5 18l-51 18t-51 25t-39.5 40t-16 62.5q0 30 12 56.5t34.5 46.5t55 31.5t74.5 11.5q62 0 104.5 -24t64.5 -79l-114 -44q-11 26 -27.5 36t-33.5 10q-14 0 -26 -8t-12 -23q0 -17 16 -27.5t39.5 -19
l51.5 -18t51.5 -25t39.5 -40t16 -62.5q0 -33 -14 -59.5t-38.5 -45t-57.5 -28t-72 -9.5q-75 0 -117 25t-62 79zM123 -242q22 17 35 34t13 36q0 14 -4.5 24t-9.5 19t-9.5 18t-4.5 21q0 27 20.5 45t53.5 18q32 0 54 -21.5t22 -56.5q0 -50 -35 -94.5t-94 -82.5z" />
    <glyph glyph-name="Tcommaaccent" unicode="&#x21a;" horiz-adv-x="482" 
d="M164 570h-152v139h458v-137h-152v-572h-154v570zM151 -242q22 17 35 34t13 36q0 14 -4.5 24t-9.5 19t-9.5 18t-4.5 21q0 27 20.5 45t53.5 18q32 0 54 -21.5t22 -56.5q0 -50 -35 -94.5t-94 -82.5z" />
    <glyph glyph-name="tcommaaccent" unicode="&#x21b;" horiz-adv-x="302" 
d="M79 332h-60v106h60v156h142v-156h81v-106h-81v-332h-142v332zM60 -242q22 17 35 34t13 36q0 14 -4.5 24t-9.5 19t-9.5 18t-4.5 21q0 27 20.5 45t53.5 18q32 0 54 -21.5t22 -56.5q0 -50 -35 -94.5t-94 -82.5z" />
    <glyph glyph-name="circumflex" unicode="&#x2c6;" 
d="M61 580l195 136l182 -134l-62 -83l-126 85l-122 -86z" />
    <glyph glyph-name="caron" unicode="&#x2c7;" 
d="M123 706l125 -85l123 86l67 -82l-197 -137l-180 136z" />
    <glyph glyph-name="breve" unicode="&#x2d8;" 
d="M188 709q0 -45 13.5 -66.5t45.5 -21.5t48 23t16 65h116q0 -57 -14 -97.5t-38 -66.5t-57 -38t-72 -12q-86 0 -130 54.5t-44 159.5h116z" />
    <glyph glyph-name="dotaccent" unicode="&#x2d9;" 
d="M250 506q-36 0 -61.5 25.5t-25.5 61.5t25.5 61.5t61.5 25.5t61.5 -25.5t25.5 -61.5t-25.5 -61.5t-61.5 -25.5z" />
    <glyph glyph-name="ring" unicode="&#x2da;" 
d="M250 497q-26 0 -48 9t-39 25.5t-26.5 38t-9.5 47.5q0 25 9.5 47t26.5 38.5t39 25.5t48 9q25 0 47.5 -9t39.5 -25.5t26.5 -38.5t9.5 -47q0 -26 -9.5 -47.5t-26.5 -38t-39.5 -25.5t-47.5 -9zM250 569q20 0 34 14t14 34t-14 34t-34 14t-34 -14t-14 -34t14 -34t34 -14z" />
    <glyph glyph-name="ogonek" unicode="&#x2db;" 
d="M301 0q-34 -50 -34 -84q0 -23 15.5 -34.5t43.5 -11.5q5 0 10.5 0.5t11.5 1.5l8 -84q-36 -10 -73 -10q-29 0 -54.5 7t-44.5 20.5t-29.5 33.5t-10.5 46q0 24 9.5 52.5t32.5 62.5h115z" />
    <glyph glyph-name="tilde" unicode="&#x2dc;" 
d="M41 521q0 30 9 56.5t25.5 46t39 30.5t49.5 11t47 -7t37 -16t33.5 -16t36.5 -7q17 0 27.5 11.5t10.5 29.5h102q0 -33 -10 -60t-27.5 -45.5t-41.5 -29t-51 -10.5q-24 0 -44 7.5t-38.5 16.5t-36 16.5t-35.5 7.5q-14 0 -24 -13.5t-10 -28.5h-99v0z" />
    <glyph glyph-name="hungarumlaut" unicode="&#x2dd;" 
d="M129 723l112 -83l-136 -150l-81 55zM364 720l112 -83l-158 -150l-81 55z" />
    <glyph glyph-name="tonos" unicode="&#x384;" 
d="M269 709l112 -83l-172 -136l-81 55z" />
    <glyph glyph-name="dieresistonos" unicode="&#x385;" horiz-adv-x="600" 
d="M477 525q-32 0 -55 23t-23 55t23 55t55 23t55 -23t23 -55t-23 -55t-55 -23zM123 525q-32 0 -55 23t-23 55t23 55t55 23t55 -23t23 -55t-23 -55t-55 -23zM234 772h130l-20 -229h-90z" />
    <glyph glyph-name="Alphatonos" unicode="&#x386;" horiz-adv-x="772" 
d="M313 709h164l292 -709h-171l-53 143h-294l-52 -143h-165zM496 277l-60 161q-10 27 -20.5 59t-19.5 64q-9 -33 -19 -64.5t-20 -59.5l-58 -160h197zM18 709h130l-20 -229h-90z" />
    <glyph glyph-name="Epsilontonos" unicode="&#x388;" horiz-adv-x="726" 
d="M250 709h401v-139h-247v-140h242v-138h-242v-151h247v-141h-401v709zM18 709h130l-20 -229h-90z" />
    <glyph glyph-name="Etatonos" unicode="&#x389;" horiz-adv-x="901" 
d="M250 709h154v-279h263v279h154v-709h-154v292h-263v-292h-154v709zM18 709h130l-20 -229h-90z" />
    <glyph glyph-name="Iotatonos" unicode="&#x38a;" horiz-adv-x="484" 
d="M251 709h154v-709h-154v709zM18 709h130l-20 -229h-90z" />
    <glyph glyph-name="Omicrontonos" unicode="&#x38c;" horiz-adv-x="973" 
d="M567 -19q-79 0 -147.5 29t-119.5 79t-80 118t-29 146q0 77 30 145t81 118.5t119.5 80t145.5 29.5q78 0 147 -29t120 -79t80.5 -118.5t29.5 -146.5q0 -77 -30 -144.5t-81.5 -118t-120 -80t-145.5 -29.5zM567 128q47 0 87 17.5t69.5 48.5t46 72.5t16.5 88.5t-16.5 88
t-46 72t-69.5 48.5t-87 17.5t-87 -17.5t-69 -48.5t-45.5 -72t-16.5 -88t16.5 -88.5t45.5 -72.5t69 -48.5t87 -17.5zM18 709h130l-20 -229h-90z" />
    <glyph glyph-name="Upsilontonos" unicode="&#x38e;" horiz-adv-x="828" 
d="M435 317l-235 392h179l136 -270l138 270h173l-237 -386v-323h-154v317zM18 709h130l-20 -229h-90z" />
    <glyph glyph-name="Omegatonos" unicode="&#x38f;" horiz-adv-x="963" 
d="M773 367q0 47 -15.5 86t-43.5 67.5t-67 44.5t-86 16t-86 -16t-66.5 -44.5t-43 -67.5t-15.5 -86q0 -36 10.5 -69t28.5 -60t42.5 -47.5t52.5 -32.5v-158h-279v136h110q-22 17 -44 40.5t-39.5 53.5t-28.5 65t-11 76q0 77 29 142t79 112.5t117 74t144 26.5q78 0 146 -26
t117.5 -73t78 -112.5t28.5 -143.5q0 -39 -12 -74.5t-31 -65.5t-41.5 -54t-44.5 -41h116v-136h-279v158q28 12 52.5 32.5t42.5 47.5t28.5 60t10.5 69zM18 709h130l-20 -229h-90z" />
    <glyph glyph-name="iotadieresistonos" unicode="&#x390;" horiz-adv-x="262" 
d="M60 438h142v-438h-142v438zM309 525q-32 0 -55 23t-23 55t23 55t55 23t55 -23t23 -55t-23 -55t-55 -23zM-45 525q-32 0 -55 23t-23 55t23 55t55 23t55 -23t23 -55t-23 -55t-55 -23zM66 772h130l-20 -229h-90z" />
    <glyph glyph-name="Alpha" unicode="&#x391;" horiz-adv-x="741" 
d="M282 709h164l292 -709h-171l-53 143h-294l-52 -143h-165zM465 277l-60 161q-10 27 -20.5 59t-19.5 64q-9 -33 -19 -64.5t-20 -59.5l-58 -160h197z" />
    <glyph glyph-name="Beta" unicode="&#x392;" horiz-adv-x="648" 
d="M80 709h225q36 0 63.5 -2.5t50.5 -9.5t42.5 -19.5t39.5 -31.5q44 -44 44 -118q0 -49 -20.5 -82.5t-57.5 -54.5q59 -11 97.5 -57t38.5 -114q0 -95 -61 -155q-31 -31 -83 -48t-146 -17h-233v709zM298 433q50 0 71 21q11 11 18 26t7 35q0 12 -4 25t-14 23q-12 12 -28 17
t-47 5h-71v-152h68zM324 125q66 0 95.5 23.5t29.5 68.5q0 17 -5 35.5t-17 30.5q-18 18 -41.5 22.5t-55.5 4.5h-100v-185h94z" />
    <glyph glyph-name="Gamma" unicode="&#x393;" horiz-adv-x="492" 
d="M80 709h401v-141h-246v-568h-155v709z" />
    <glyph glyph-name="uni0394" unicode="&#x394;" horiz-adv-x="752" 
d="M3 0l283 709h167l296 -709h-746zM221 141h302l-112 291q-11 27 -21.5 59t-19.5 64q-9 -33 -19 -64.5t-21 -59.5z" />
    <glyph glyph-name="Epsilon" unicode="&#x395;" horiz-adv-x="556" 
d="M80 709h401v-139h-247v-140h242v-138h-242v-151h247v-141h-401v709z" />
    <glyph glyph-name="Zeta" unicode="&#x396;" horiz-adv-x="607" 
d="M332 572h-296v137h548l-331 -571h327v-138h-579z" />
    <glyph glyph-name="Eta" unicode="&#x397;" horiz-adv-x="731" 
d="M80 709h154v-279h263v279h154v-709h-154v292h-263v-292h-154v709z" />
    <glyph glyph-name="Theta" unicode="&#x398;" horiz-adv-x="813" 
d="M406 -19q-79 0 -147.5 29t-119.5 79t-80 118t-29 146q0 77 30 145t81 118.5t119.5 80t145.5 29.5q78 0 147 -29t120 -79t80.5 -118.5t29.5 -146.5q0 -77 -30 -144.5t-81.5 -118t-120 -80t-145.5 -29.5zM406 128q47 0 87 17.5t69.5 48.5t46 72.5t16.5 88.5t-16.5 88
t-46 72t-69.5 48.5t-87 17.5t-87 -17.5t-69 -48.5t-45.5 -72t-16.5 -88t16.5 -88.5t45.5 -72.5t69 -48.5t87 -17.5zM259 425h290v-138h-290v138z" />
    <glyph glyph-name="Iota" unicode="&#x399;" horiz-adv-x="314" 
d="M80 709h154v-709h-154v709z" />
    <glyph glyph-name="Kappa" unicode="&#x39a;" horiz-adv-x="699" 
d="M80 709h154v-319l237 319h186l-269 -338l278 -371h-193l-239 330v-330h-154v709z" />
    <glyph glyph-name="Lambda" unicode="&#x39b;" horiz-adv-x="714" 
d="M174 0h-170l265 709h168l273 -709h-173l-145 410l-21.5 65t-19.5 68q-9 -37 -18.5 -70.5t-19.5 -61.5z" />
    <glyph glyph-name="Mu" unicode="&#x39c;" horiz-adv-x="921" 
d="M134 709h160l123 -342q12 -34 23.5 -71.5t20.5 -75.5l21 77t21 67l124 345h157l99 -709h-150l-43 385q-3 26 -4.5 57.5t-2.5 70.5l-18.5 -67t-16.5 -55l-140 -391h-102l-138 382q-9 25 -18.5 58.5t-17.5 67.5q0 -40 -2 -72t-5 -61l-40 -375h-148z" />
    <glyph glyph-name="Nu" unicode="&#x39d;" horiz-adv-x="773" 
d="M80 709h140l239 -341l54.5 -81.5t44.5 -74.5q-5 56 -6 103.5t-2 103.5l-2 290h145v-709h-138l-247 351l-49 70.5t-46 71.5l4 -80.5t3 -80.5l7 -332h-147v709z" />
    <glyph glyph-name="Xi" unicode="&#x39e;" horiz-adv-x="671" 
d="M55 141h561v-141h-561v141zM99 292v138h473v-138h-473zM616 709v-139h-561v139h561z" />
    <glyph glyph-name="Omicron" unicode="&#x39f;" horiz-adv-x="813" 
d="M406 -19q-79 0 -147.5 29t-119.5 79t-80 118t-29 146q0 77 30 145t81 118.5t119.5 80t145.5 29.5q78 0 147 -29t120 -79t80.5 -118.5t29.5 -146.5q0 -77 -30 -144.5t-81.5 -118t-120 -80t-145.5 -29.5zM406 128q47 0 87 17.5t69.5 48.5t46 72.5t16.5 88.5t-16.5 88
t-46 72t-69.5 48.5t-87 17.5t-87 -17.5t-69 -48.5t-45.5 -72t-16.5 -88t16.5 -88.5t45.5 -72.5t69 -48.5t87 -17.5z" />
    <glyph glyph-name="Pi" unicode="&#x3a0;" horiz-adv-x="731" 
d="M80 709h571v-709h-154v570h-263v-570h-154v709z" />
    <glyph glyph-name="Rho" unicode="&#x3a1;" horiz-adv-x="590" 
d="M80 709h203q75 0 130.5 -13t93.5 -51q28 -28 43 -67.5t15 -87.5t-15 -88t-44 -69q-36 -36 -90 -52.5t-120 -16.5h-63v-264h-153v709zM294 394q61 0 88 27q12 12 18.5 29.5t6.5 35.5q0 20 -6 37t-17 28q-13 13 -32.5 19.5t-52.5 6.5h-66v-183h61z" />
    <glyph glyph-name="Sigma" unicode="&#x3a3;" horiz-adv-x="634" 
d="M234 354l-219 355h560v-134h-300l127 -207l-142 -227h324v-141h-573z" />
    <glyph glyph-name="Tau" unicode="&#x3a4;" horiz-adv-x="482" 
d="M164 570h-152v139h458v-137h-152v-572h-154v570z" />
    <glyph glyph-name="Upsilon" unicode="&#x3a5;" horiz-adv-x="631" 
d="M238 317l-235 392h179l136 -270l138 270h173l-237 -386v-323h-154v317z" />
    <glyph glyph-name="Phi" unicode="&#x3a6;" horiz-adv-x="843" 
d="M344 82h-30q-70 0 -124 18.5t-89 53.5q-39 39 -59.5 85.5t-20.5 108.5q0 70 23 119.5t59 85.5q42 42 96.5 59.5t120.5 17.5h24v79h152v-79h33q70 0 124 -18.5t89 -53.5q39 -39 59.5 -85.5t20.5 -108.5q0 -70 -23 -119.5t-59 -85.5q-42 -42 -96.5 -59.5t-120.5 -17.5h-27
v-82h-152v82zM664 359q0 33 -8.5 61t-25.5 45q-22 22 -48.5 31.5t-63.5 9.5h-22v-300h28q39 0 62.5 10t40.5 27q15 15 26 44.5t11 71.5zM179 353q0 -33 8.5 -61t25.5 -45q22 -22 48.5 -31.5t63.5 -9.5h19v300h-25q-39 0 -62.5 -10t-40.5 -27q-15 -15 -26 -44.5t-11 -71.5z
" />
    <glyph glyph-name="Chi" unicode="&#x3a7;" horiz-adv-x="682" 
d="M265 372l-238 337h189l133 -213l139 213h183l-242 -334l252 -375h-181l-159 250l-159 -250h-181z" />
    <glyph glyph-name="Psi" unicode="&#x3a8;" horiz-adv-x="827" 
d="M490 0h-154v173h-38q-55 0 -101 15.5t-79.5 49.5t-52 86.5t-18.5 126.5v258h154v-248q0 -45 7.5 -74.5t21 -47t31 -24t37.5 -6.5h38v400h154v-400h39q20 0 37.5 6.5t31 24t21 47t7.5 74.5v248h154v-258q0 -74 -18.5 -126.5t-52 -86.5t-79.5 -49.5t-101 -15.5h-39v-173z
" />
    <glyph glyph-name="uni03A9" unicode="&#x3a9;" horiz-adv-x="803" 
d="M613 367q0 47 -15.5 86t-43.5 67.5t-67 44.5t-86 16t-86 -16t-66.5 -44.5t-43 -67.5t-15.5 -86q0 -36 10.5 -69t28.5 -60t42.5 -47.5t52.5 -32.5v-158h-279v136h110q-22 17 -44 40.5t-39.5 53.5t-28.5 65t-11 76q0 77 29 142t79 112.5t117 74t144 26.5q78 0 146 -26
t117.5 -73t78 -112.5t28.5 -143.5q0 -39 -12 -74.5t-31 -65.5t-41.5 -54t-44.5 -41h116v-136h-279v158q28 12 52.5 32.5t42.5 47.5t28.5 60t10.5 69z" />
    <glyph glyph-name="Iotadieresis" unicode="&#x3aa;" horiz-adv-x="314" 
d="M80 709h154v-709h-154v709zM269 743q-33 0 -56.5 23.5t-23.5 56.5t23.5 56.5t56.5 23.5t56.5 -23.5t23.5 -56.5t-23.5 -56.5t-56.5 -23.5zM47 743q-33 0 -56.5 23.5t-23.5 56.5t23.5 56.5t56.5 23.5t56.5 -23.5t23.5 -56.5t-23.5 -56.5t-56.5 -23.5z" />
    <glyph glyph-name="Upsilondieresis" unicode="&#x3ab;" horiz-adv-x="631" 
d="M238 317l-235 392h179l136 -270l138 270h173l-237 -386v-323h-154v317zM424 743q-33 0 -56.5 23.5t-23.5 56.5t23.5 56.5t56.5 23.5t56.5 -23.5t23.5 -56.5t-23.5 -56.5t-56.5 -23.5zM202 743q-33 0 -56.5 23.5t-23.5 56.5t23.5 56.5t56.5 23.5t56.5 -23.5t23.5 -56.5
t-23.5 -56.5t-56.5 -23.5z" />
    <glyph glyph-name="alphatonos" unicode="&#x3ac;" horiz-adv-x="590" 
d="M392 45q-27 -27 -63 -43.5t-87 -16.5q-48 0 -86 17t-64.5 47t-40.5 72t-14 92q0 52 15 95.5t43 75.5t68.5 50t91.5 18q46 0 82.5 -18.5t54.5 -46.5v51h141v-438h-141v45zM292 97q25 0 44.5 9.5t33 25.5t20.5 36.5t7 43.5q0 24 -8 45t-22 37t-34.5 25.5t-45.5 9.5
q-45 0 -74.5 -30.5t-29.5 -81.5q0 -24 7.5 -46t21.5 -38.5t34 -26t46 -9.5zM373 709l112 -83l-172 -136l-81 55z" />
    <glyph glyph-name="epsilontonos" unicode="&#x3ad;" horiz-adv-x="457" 
d="M379 325q-18 6 -36 11q-16 5 -36 8.5t-40 3.5q-28 0 -45.5 -8.5t-17.5 -28.5t18 -29t45 -9h93v-95h-100q-32 0 -52 -10.5t-20 -31.5t22.5 -31.5t55.5 -10.5q23 0 45.5 3t39.5 8q20 5 38 12l40 -93q-22 -11 -50 -20q-24 -8 -58 -14t-78 -6q-96 0 -150.5 37.5t-54.5 103.5
q0 28 11 47.5t26 32t30.5 19t24.5 7.5q-9 1 -22 7t-25 17.5t-20.5 29t-8.5 41.5q0 31 15 55t42 40t63.5 24.5t80.5 8.5q38 0 68.5 -7t52.5 -15q26 -10 46 -22zM293 709l112 -83l-172 -136l-81 55z" />
    <glyph glyph-name="etatonos" unicode="&#x3ae;" horiz-adv-x="548" 
d="M57 438h142v-58q8 11 20 23t29 22t40 16.5t53 6.5q42 0 70 -13t45 -30q21 -21 30 -50.5t9 -77.5v-478h-142v443q0 15 -3 30.5t-10.5 27.5t-20.5 20t-33 8q-11 0 -25.5 -4t-28.5 -14.5t-23.5 -29.5t-9.5 -50v-230h-142v438zM339 709l112 -83l-172 -136l-81 55z" />
    <glyph glyph-name="iotatonos" unicode="&#x3af;" horiz-adv-x="262" 
d="M60 438h142v-438h-142v438zM183 709l112 -83l-172 -136l-81 55z" />
    <glyph glyph-name="upsilondieresistonos" unicode="&#x3b0;" horiz-adv-x="550" 
d="M53 438h142v-225q0 -23 3.5 -43t12.5 -34.5t25 -23t41 -8.5t40.5 9t23.5 24t11 33.5t3 38.5v229h142v-229q0 -56 -9 -96t-40 -70q-32 -32 -78 -45.5t-95 -13.5q-52 0 -97 15.5t-80 50.5q-24 24 -34.5 61.5t-10.5 97.5v229zM453 525q-32 0 -55 23t-23 55t23 55t55 23
t55 -23t23 -55t-23 -55t-55 -23zM99 525q-32 0 -55 23t-23 55t23 55t55 23t55 -23t23 -55t-23 -55t-55 -23zM210 772h130l-20 -229h-90z" />
    <glyph glyph-name="alpha" unicode="&#x3b1;" horiz-adv-x="590" 
d="M392 45q-27 -27 -63 -43.5t-87 -16.5q-48 0 -86 17t-64.5 47t-40.5 72t-14 92q0 52 15 95.5t43 75.5t68.5 50t91.5 18q46 0 82.5 -18.5t54.5 -46.5v51h141v-438h-141v45zM292 97q25 0 44.5 9.5t33 25.5t20.5 36.5t7 43.5q0 24 -8 45t-22 37t-34.5 25.5t-45.5 9.5
q-45 0 -74.5 -30.5t-29.5 -81.5q0 -24 7.5 -46t21.5 -38.5t34 -26t46 -9.5z" />
    <glyph glyph-name="beta" unicode="&#x3b2;" horiz-adv-x="585" 
d="M57 533q0 45 13 85.5t39.5 72t67 50t95.5 18.5q53 0 93 -16.5t66.5 -44.5t39.5 -66t13 -80t-10.5 -69t-23.5 -43q-15 -18 -33 -29q36 -10 65 -35q25 -21 45.5 -58.5t20.5 -98.5q0 -42 -14.5 -83.5t-42 -74.5t-68.5 -53t-94 -20q-34 0 -58 7.5t-40 16.5q-18 11 -32 24
v-237h-142v734zM239 438h24q39 0 56 25t17 78q0 49 -19 73.5t-51 24.5q-35 0 -51 -20t-16 -55v-408q7 -17 20 -29q11 -11 29 -20t45 -9q26 0 45.5 10t32.5 26.5t19.5 37.5t6.5 42q0 22 -8 43.5t-22.5 39t-35.5 28t-47 10.5h-45v103z" />
    <glyph glyph-name="gamma" unicode="&#x3b3;" horiz-adv-x="540" 
d="M-1 438h160l84 -214q8 -19 16.5 -46t15.5 -53q6 26 14 52t18 52l78 209h156l-201 -451v-188h-142v188z" />
    <glyph glyph-name="delta" unicode="&#x3b4;" horiz-adv-x="578" 
d="M282 -16q-51 0 -95.5 17t-78 48t-52.5 74t-19 95t20 94.5t51.5 72.5t70 46.5t76.5 16.5q14 0 24.5 -1.5t12.5 -2.5l-150 242v62h334v-116h-142l146 -236q26 -42 43 -83t17 -89q0 -45 -16.5 -88.5t-49 -77t-80.5 -54t-112 -20.5zM178 218q0 -25 9 -45.5t24.5 -35
t35.5 -22.5t42 -8q49 0 78 33t29 79q0 49 -30 81t-81 32q-49 0 -78 -32.5t-29 -81.5z" />
    <glyph glyph-name="epsilon" unicode="&#x3b5;" horiz-adv-x="457" 
d="M379 325q-18 6 -36 11q-16 5 -36 8.5t-40 3.5q-28 0 -45.5 -8.5t-17.5 -28.5t18 -29t45 -9h93v-95h-100q-32 0 -52 -10.5t-20 -31.5t22.5 -31.5t55.5 -10.5q23 0 45.5 3t39.5 8q20 5 38 12l40 -93q-22 -11 -50 -20q-24 -8 -58 -14t-78 -6q-96 0 -150.5 37.5t-54.5 103.5
q0 28 11 47.5t26 32t30.5 19t24.5 7.5q-9 1 -22 7t-25 17.5t-20.5 29t-8.5 41.5q0 31 15 55t42 40t63.5 24.5t80.5 8.5q38 0 68.5 -7t52.5 -15q26 -10 46 -22z" />
    <glyph glyph-name="zeta" unicode="&#x3b6;" horiz-adv-x="458" 
d="M37 198q0 57 22 105.5t46 85.5l161 243h-181v116h360v-82l-212 -319q-20 -30 -34.5 -60.5t-14.5 -68.5q0 -37 20.5 -58.5t51.5 -36t66.5 -27t66.5 -32t51.5 -51t20.5 -83.5q0 -26 -5 -47t-13 -39t-17.5 -33t-18.5 -27l-104 61q13 17 21.5 31.5t8.5 32.5q0 22 -22 36.5
t-55 28l-71 29.5t-71 40.5t-55 61.5t-22 93z" />
    <glyph glyph-name="eta" unicode="&#x3b7;" horiz-adv-x="548" 
d="M57 438h142v-58q8 11 20 23t29 22t40 16.5t53 6.5q42 0 70 -13t45 -30q21 -21 30 -50.5t9 -77.5v-478h-142v443q0 15 -3 30.5t-10.5 27.5t-20.5 20t-33 8q-11 0 -25.5 -4t-28.5 -14.5t-23.5 -29.5t-9.5 -50v-230h-142v438z" />
    <glyph glyph-name="theta" unicode="&#x3b8;" horiz-adv-x="599" 
d="M295 -16q-71 0 -119.5 30.5t-78.5 82.5t-43.5 121.5t-13.5 148.5q0 81 15 152t46.5 124.5t81 84.5t119.5 31q72 0 121.5 -30t79.5 -82t43 -121t13 -148q0 -81 -15 -152.5t-47.5 -125t-82.5 -85t-119 -31.5zM300 107q28 0 47.5 18t32.5 48t19.5 69.5t8.5 82.5h-219
q2 -46 8.5 -86t19.5 -69t33.5 -46t49.5 -17zM296 636q-26 0 -45 -17t-32 -45.5t-20 -66.5t-9 -80h217q-3 45 -9.5 83.5t-19.5 66t-33 43.5t-49 16z" />
    <glyph glyph-name="iota" unicode="&#x3b9;" horiz-adv-x="262" 
d="M60 438h142v-438h-142v438z" />
    <glyph glyph-name="kappa" unicode="&#x3ba;" horiz-adv-x="522" 
d="M57 438h142v-184l141 184h174l-172 -206l179 -232h-186l-136 200v-200h-142v438z" />
    <glyph glyph-name="lambda" unicode="&#x3bb;" horiz-adv-x="567" 
d="M96 749h154l315 -749h-159l-77 198l-19 51.5l-18 51.5q-8 -26 -19.5 -53.5l-19.5 -45.5l-87 -202h-166l219 462z" />
    <glyph glyph-name="uni03BC" unicode="&#x3bc;" horiz-adv-x="559" 
d="M57 438h142v-207q0 -24 4 -46t13 -39.5t25 -27.5t40 -10t39.5 12t24 30.5t12 41t3.5 44.5v202h142v-438h-138v45q-5 -9 -12 -19.5t-17 -19.5t-24 -15t-32 -6t-31 5t-22.5 12.5t-16 16.5t-10.5 16v-236h-142v639z" />
    <glyph glyph-name="nu" unicode="&#x3bd;" horiz-adv-x="540" 
d="M-1 438h160l84 -214q8 -19 16.5 -46t15.5 -53q6 26 14 52t18 52l78 209h156l-194 -438h-155z" />
    <glyph glyph-name="xi" unicode="&#x3be;" horiz-adv-x="454" 
d="M37 208q0 54 22 90t49.5 57.5t52 31t28.5 10.5q-5 1 -21 10t-33 28t-31 47t-14 67q0 50 19 89t50.5 65.5t72.5 40.5t85 14q28 0 50 -3.5t38 -8.5q18 -5 32 -11v-120q-11 7 -28 13q-14 5 -35 9t-48 4q-23 0 -41 -8.5t-30 -22t-18.5 -31t-6.5 -36.5q0 -22 8 -41t22.5 -33.5
t33 -22.5t39.5 -8h86v-106h-98q-32 0 -57.5 -9t-44 -25t-28.5 -37.5t-10 -45.5q0 -37 20 -58t50.5 -35t66 -26.5t66 -32t50.5 -50.5t20 -83q0 -25 -5 -46.5t-13 -39.5t-17.5 -33t-18.5 -27l-104 61q13 17 21.5 31.5t8.5 32.5q0 21 -21.5 36.5t-53.5 30l-69.5 31.5
t-69.5 43.5t-53.5 64t-21.5 93.5z" />
    <glyph glyph-name="omicron" unicode="&#x3bf;" horiz-adv-x="572" 
d="M279 -16q-51 0 -95 17.5t-77 49t-51.5 74.5t-18.5 95q0 49 18 91.5t50.5 74t78.5 50t102 18.5q54 0 99.5 -17.5t79 -49t52 -74.5t18.5 -94q0 -45 -17 -87t-49.5 -75t-80.5 -53t-109 -20zM286 107q24 0 43 9t33 24.5t21.5 36t7.5 42.5q0 48 -30.5 79.5t-75.5 31.5
q-24 0 -43.5 -9t-33 -25t-21 -36.5t-7.5 -42.5q0 -24 9 -44t23.5 -35t33.5 -23t40 -8z" />
    <glyph glyph-name="pi" unicode="&#x3c0;" horiz-adv-x="616" 
d="M97 322h-76v116h574v-116h-76v-322h-142v322h-138v-322h-142v322z" />
    <glyph glyph-name="rho" unicode="&#x3c1;" horiz-adv-x="588" 
d="M57 206q0 55 18 100.5t50.5 78t78 50t100.5 17.5q54 0 99.5 -18t78 -49.5t51 -74t18.5 -91.5q0 -42 -14 -83.5t-41 -74.5t-67.5 -53t-92.5 -20q-48 0 -81.5 15.5t-55.5 40.5v-245h-142v407zM300 98q26 0 45.5 10t32.5 26.5t19.5 37.5t6.5 42t-6 41.5t-19 36.5t-33 26
t-48 10q-24 0 -43.5 -9.5t-33 -26t-20.5 -37.5t-7 -43q0 -49 28.5 -81.5t77.5 -32.5z" />
    <glyph glyph-name="sigma1" unicode="&#x3c2;" horiz-adv-x="420" 
d="M184 220q0 -26 8 -44.5t22 -33.5t32.5 -27t39.5 -23q32 -17 56.5 -32t41.5 -33t25.5 -41t8.5 -56q0 -26 -5 -47t-13 -39t-17.5 -33t-18.5 -27l-104 61q14 18 22 32.5t8 31.5q0 20 -24.5 39t-87.5 48q-26 12 -51 31.5t-45 46.5t-32.5 62.5t-12.5 79.5t15.5 86.5t45.5 75.5
t75.5 53.5t105.5 20.5q30 0 63 -6t56 -17v-128q-15 11 -43.5 19.5t-54.5 8.5q-48 0 -82 -29t-34 -80z" />
    <glyph glyph-name="sigma" unicode="&#x3c3;" horiz-adv-x="572" 
d="M529 194q0 -44 -16 -82t-46.5 -66.5t-76.5 -45t-106 -16.5q-52 0 -97 17.5t-78.5 49t-52.5 74.5t-19 95q0 49 19 91t53 73.5t81 49.5t103 18q25 0 48.5 -2t48 -5t51.5 -5t60 -2h48v-112h-21q-29 0 -49 2.5t-31 4.5q4 -2 17.5 -11.5t27.5 -27t25 -42.5t11 -58zM178 217
q0 -23 8.5 -43t22.5 -35t33.5 -23.5t42.5 -8.5q22 0 41.5 7.5t34 21t22.5 31.5t8 39q0 22 -8 44t-22.5 38.5t-34 27t-41.5 10.5q-23 0 -42.5 -8.5t-33.5 -23.5t-22.5 -35t-8.5 -42z" />
    <glyph glyph-name="tau" unicode="&#x3c4;" horiz-adv-x="410" 
d="M403 322h-127v-322h-142v322h-127v116h396v-116z" />
    <glyph glyph-name="upsilon" unicode="&#x3c5;" horiz-adv-x="550" 
d="M53 438h142v-225q0 -23 3.5 -43t12.5 -34.5t25 -23t41 -8.5t40.5 9t23.5 24t11 33.5t3 38.5v229h142v-229q0 -56 -9 -96t-40 -70q-32 -32 -78 -45.5t-95 -13.5q-52 0 -97 15.5t-80 50.5q-24 24 -34.5 61.5t-10.5 97.5v229z" />
    <glyph glyph-name="phi" unicode="&#x3c6;" horiz-adv-x="784" 
d="M305 0h-7q-65 0 -113 16t-79.5 44.5t-47.5 67.5t-16 84q0 40 13 75t31.5 63.5t40 50.5t39.5 37h127q-17 -20 -35.5 -45.5t-34.5 -54t-26.5 -58.5t-10.5 -58q0 -21 7 -41t21.5 -36t36 -26t51.5 -10h3v123q0 45 14 85t41.5 70t67.5 47.5t93 17.5q58 0 99.5 -17t67.5 -47.5
t38.5 -72.5t12.5 -92q0 -56 -20.5 -98t-56.5 -69.5t-84.5 -41.5t-104.5 -14h-28v-201h-140v201zM481 109q24 0 45 5.5t37 18t25.5 33.5t9.5 52q0 57 -19 89t-64 32q-23 0 -37 -8.5t-21.5 -22.5t-9.5 -31t-2 -33v-135h36z" />
    <glyph glyph-name="chi" unicode="&#x3c7;" horiz-adv-x="540" 
d="M182 224l-168 214h170l46.5 -68t41.5 -67l41 68.5t45 66.5h171l-167 -210l179 -228h-169l-51 76l-48 76q-26 -43 -52 -80.5l-52 -71.5h-170z" />
    <glyph glyph-name="psi" unicode="&#x3c8;" horiz-adv-x="728" 
d="M435 -201h-142v201h-29q-68 0 -109 19.5t-63.5 51t-30 70.5t-7.5 78v219h142v-220q0 -18 2 -35.5t9 -31.5t20.5 -22.5t36.5 -8.5h29v438h142v-438h29q23 0 36.5 8.5t20.5 22.5t9 31.5t2 35.5v220h142v-219q0 -39 -7.5 -78t-30 -70.5t-64 -51t-108.5 -19.5h-29v-201z" />
    <glyph glyph-name="omega" unicode="&#x3c9;" horiz-adv-x="777" 
d="M388 78q-34 -94 -140 -94q-102 0 -156 56t-54 153q0 58 19.5 103t42.5 77q27 37 63 65h130q-43 -54 -74 -114t-31 -122q0 -21 3.5 -39.5t11.5 -33t22 -22.5t34 -8q35 0 48 29.5t13 72.5v141h136v-141q0 -43 13 -72.5t48 -29.5q41 0 56.5 30.5t15.5 72.5q0 31 -8.5 61.5
t-23.5 60.5t-34.5 58.5t-40.5 55.5h133q35 -28 62 -65q23 -32 42.5 -77t19.5 -103q0 -97 -54.5 -153t-156.5 -56q-106 0 -140 94z" />
    <glyph glyph-name="iotadieresis" unicode="&#x3ca;" horiz-adv-x="262" 
d="M60 438h142v-438h-142v438zM246 523q-33 0 -56.5 23.5t-23.5 56.5t23.5 56.5t56.5 23.5t56.5 -23.5t23.5 -56.5t-23.5 -56.5t-56.5 -23.5zM24 523q-33 0 -56.5 23.5t-23.5 56.5t23.5 56.5t56.5 23.5t56.5 -23.5t23.5 -56.5t-23.5 -56.5t-56.5 -23.5z" />
    <glyph glyph-name="upsilondieresis" unicode="&#x3cb;" horiz-adv-x="550" 
d="M53 438h142v-225q0 -23 3.5 -43t12.5 -34.5t25 -23t41 -8.5t40.5 9t23.5 24t11 33.5t3 38.5v229h142v-229q0 -56 -9 -96t-40 -70q-32 -32 -78 -45.5t-95 -13.5q-52 0 -97 15.5t-80 50.5q-24 24 -34.5 61.5t-10.5 97.5v229zM387 523q-33 0 -56.5 23.5t-23.5 56.5
t23.5 56.5t56.5 23.5t56.5 -23.5t23.5 -56.5t-23.5 -56.5t-56.5 -23.5zM165 523q-33 0 -56.5 23.5t-23.5 56.5t23.5 56.5t56.5 23.5t56.5 -23.5t23.5 -56.5t-23.5 -56.5t-56.5 -23.5z" />
    <glyph glyph-name="omicrontonos" unicode="&#x3cc;" horiz-adv-x="572" 
d="M279 -16q-51 0 -95 17.5t-77 49t-51.5 74.5t-18.5 95q0 49 18 91.5t50.5 74t78.5 50t102 18.5q54 0 99.5 -17.5t79 -49t52 -74.5t18.5 -94q0 -45 -17 -87t-49.5 -75t-80.5 -53t-109 -20zM286 107q24 0 43 9t33 24.5t21.5 36t7.5 42.5q0 48 -30.5 79.5t-75.5 31.5
q-24 0 -43.5 -9t-33 -25t-21 -36.5t-7.5 -42.5q0 -24 9 -44t23.5 -35t33.5 -23t40 -8zM341 709l112 -83l-172 -136l-81 55z" />
    <glyph glyph-name="upsilontonos" unicode="&#x3cd;" horiz-adv-x="550" 
d="M53 438h142v-225q0 -23 3.5 -43t12.5 -34.5t25 -23t41 -8.5t40.5 9t23.5 24t11 33.5t3 38.5v229h142v-229q0 -56 -9 -96t-40 -70q-32 -32 -78 -45.5t-95 -13.5q-52 0 -97 15.5t-80 50.5q-24 24 -34.5 61.5t-10.5 97.5v229zM338 709l112 -83l-172 -136l-81 55z" />
    <glyph glyph-name="omegatonos" unicode="&#x3ce;" horiz-adv-x="777" 
d="M388 78q-34 -94 -140 -94q-102 0 -156 56t-54 153q0 58 19.5 103t42.5 77q27 37 63 65h130q-43 -54 -74 -114t-31 -122q0 -21 3.5 -39.5t11.5 -33t22 -22.5t34 -8q35 0 48 29.5t13 72.5v141h136v-141q0 -43 13 -72.5t48 -29.5q41 0 56.5 30.5t15.5 72.5q0 31 -8.5 61.5
t-23.5 60.5t-34.5 58.5t-40.5 55.5h133q35 -28 62 -65q23 -32 42.5 -77t19.5 -103q0 -97 -54.5 -153t-156.5 -56q-106 0 -140 94zM444 709l112 -83l-172 -136l-81 55z" />
    <glyph glyph-name="afii10023" unicode="&#x401;" horiz-adv-x="556" 
d="M80 709h401v-139h-247v-140h242v-138h-242v-151h247v-141h-401v709zM398 743q-33 0 -56.5 23.5t-23.5 56.5t23.5 56.5t56.5 23.5t56.5 -23.5t23.5 -56.5t-23.5 -56.5t-56.5 -23.5zM176 743q-33 0 -56.5 23.5t-23.5 56.5t23.5 56.5t56.5 23.5t56.5 -23.5t23.5 -56.5
t-23.5 -56.5t-56.5 -23.5z" />
    <glyph glyph-name="afii10051" unicode="&#x402;" horiz-adv-x="762" 
d="M448 434q70 0 125 -14.5t90 -49.5q27 -27 43 -64t16 -88q0 -47 -17.5 -87.5t-48.5 -70.5q-15 -15 -36 -27.5t-50 -21.5t-68.5 -13.5t-91.5 -4.5v124q51 0 80.5 6.5t46.5 23.5q14 14 20 30.5t6 38.5q0 40 -28.5 66.5t-94.5 26.5q-18 0 -36 -0.5t-32 -1.5q-17 -1 -32 -1
v-306h-154v570h-174v139h502v-139h-174v-139q19 0 37 1q16 1 35 1.5t36 0.5z" />
    <glyph glyph-name="afii10052" unicode="&#x403;" horiz-adv-x="492" 
d="M80 709h401v-141h-246v-568h-155v709zM299 928l126 -75l-184 -111l-72 55z" />
    <glyph glyph-name="afii10053" unicode="&#x404;" horiz-adv-x="640" 
d="M593 27q-37 -19 -89 -31t-108 -12q-82 0 -148.5 29t-113 78.5t-71.5 116t-25 140.5q0 79 26.5 148t74.5 119t115.5 79t148.5 29q55 0 102 -10t88 -29v-163q-34 28 -84.5 46t-101.5 18q-37 0 -70.5 -10.5t-60.5 -31.5t-46 -51.5t-28 -69.5h308v-138h-306q9 -34 26.5 -63.5
t44 -51t61 -34t77.5 -12.5q60 0 104 16.5t76 41.5v-154v0z" />
    <glyph glyph-name="afii10054" unicode="&#x405;" horiz-adv-x="558" 
d="M126 192l27.5 -28.5t31.5 -26t36.5 -19t41.5 -7.5q38 0 63.5 23.5t25.5 61.5q0 30 -21.5 50t-53.5 37.5t-69.5 35t-69.5 43t-53.5 62.5t-21.5 93q0 48 18.5 86.5t50 66.5t73.5 43t88 15q63 0 117 -26t89 -68l-94 -102q-20 32 -48.5 50t-59.5 18q-37 0 -58 -22t-21 -54
q0 -29 21.5 -48t54 -35.5t70.5 -33t70.5 -41.5t54 -61.5t21.5 -91.5q0 -54 -20 -97t-54.5 -73t-80.5 -46t-97 -16q-75 0 -130.5 26.5t-98.5 73.5z" />
    <glyph glyph-name="afii10055" unicode="&#x406;" horiz-adv-x="314" 
d="M80 709h154v-709h-154v709z" />
    <glyph glyph-name="afii10056" unicode="&#x407;" horiz-adv-x="342" 
d="M94 709h154v-709h-154v709zM82 748q-31 0 -53 22t-22 53t22 53t53 22t53 -22t22 -53t-22 -53t-53 -22zM260 748q-31 0 -53 22t-22 53t22 53t53 22t53 -22t22 -53t-22 -53t-53 -22z" />
    <glyph glyph-name="afii10057" unicode="&#x408;" horiz-adv-x="478" 
d="M116 206q12 -35 32.5 -56t48.5 -21q11 0 19 3.5t13 8.5q13 13 17 34t4 66v468h152v-464q0 -41 -3.5 -72t-11 -55.5t-19.5 -43.5t-29 -36q-26 -26 -63.5 -38.5t-85.5 -12.5q-33 0 -63 10t-55 28.5t-44.5 44t-31.5 57.5z" />
    <glyph glyph-name="afii10058" unicode="&#x409;" horiz-adv-x="974" 
d="M261 246q0 -66 -10.5 -114t-35.5 -79t-65.5 -46t-101.5 -15h-21q-6 0 -12 1v132h14q41 0 59.5 22t18.5 66v496h481v-268h77q80 0 134.5 -14.5t89.5 -49.5q28 -28 43.5 -67t15.5 -88q0 -47 -17 -87t-46 -69q-33 -33 -87 -49.5t-120 -16.5h-244v570h-173v-324zM789 220
q0 43 -23 66q-13 13 -32.5 19.5t-52.5 6.5h-93v-185h88q61 0 88 27q12 12 18.5 30t6.5 36z" />
    <glyph glyph-name="afii10059" unicode="&#x40a;" horiz-adv-x="1012" 
d="M463 308h-229v-308h-154v709h154v-268h229v268h154v-268h86q80 0 134.5 -14.5t89.5 -49.5q28 -28 43.5 -67t15.5 -88q0 -47 -17 -87t-46 -69q-33 -33 -87 -49.5t-120 -16.5h-253v308zM827 220q0 43 -23 66q-13 13 -32.5 19.5t-52.5 6.5h-102v-185h97q61 0 88 27
q12 12 18.5 30t6.5 36z" />
    <glyph glyph-name="afii10060" unicode="&#x40b;" horiz-adv-x="759" 
d="M340 570v-140l37 2q17 1 38 1.5t44 0.5q35 0 78.5 -6.5t81.5 -29.5t64 -69.5t26 -125.5v-203h-154v194q0 33 -7.5 54.5t-21.5 33.5t-34.5 17t-45.5 5q-23 0 -42.5 -0.5t-33.5 -1.5q-17 -1 -30 -2v-300h-154v570h-174v139h502v-139h-174z" />
    <glyph glyph-name="afii10061" unicode="&#x40c;" horiz-adv-x="699" 
d="M80 709h154v-319l237 319h186l-269 -338l278 -371h-193l-239 330v-330h-154v709zM392 928l126 -75l-184 -111l-72 55z" />
    <glyph glyph-name="afii10062" unicode="&#x40e;" horiz-adv-x="648" 
d="M281 492q9 -20 17.5 -42l15.5 -40l16 -42l145 341h169l-334 -709h-171l110 232l-243 477h178zM269 959q0 -45 13.5 -66.5t45.5 -21.5t48 23t16 65h116q0 -57 -14 -96.5t-38 -65t-57 -37t-72 -11.5q-86 0 -130 52.5t-44 157.5h116z" />
    <glyph glyph-name="afii10145" unicode="&#x40f;" horiz-adv-x="731" 
d="M234 709v-568h263v568h154v-709h-213v-146h-145v146h-213v709h154z" />
    <glyph glyph-name="afii10017" unicode="&#x410;" horiz-adv-x="741" 
d="M282 709h164l292 -709h-171l-53 143h-294l-52 -143h-165zM465 277l-60 161q-10 27 -20.5 59t-19.5 64q-9 -33 -19 -64.5t-20 -59.5l-58 -160h197z" />
    <glyph glyph-name="afii10018" unicode="&#x411;" horiz-adv-x="653" 
d="M80 709h456v-139h-302v-129h96q80 0 134.5 -14.5t89.5 -49.5q28 -28 43.5 -67t15.5 -88q0 -47 -17 -87t-46 -69q-33 -33 -87 -49.5t-120 -16.5h-263v709zM454 220q0 20 -6 37.5t-17 28.5q-13 13 -32.5 19.5t-52.5 6.5h-112v-185h107q61 0 88 27q12 12 18.5 30t6.5 36z
" />
    <glyph glyph-name="afii10019" unicode="&#x412;" horiz-adv-x="648" 
d="M80 709h225q36 0 63.5 -2.5t50.5 -9.5t42.5 -19.5t39.5 -31.5q44 -44 44 -118q0 -49 -20.5 -82.5t-57.5 -54.5q59 -11 97.5 -57t38.5 -114q0 -95 -61 -155q-31 -31 -83 -48t-146 -17h-233v709zM298 433q50 0 71 21q11 11 18 26t7 35q0 12 -4 25t-14 23q-12 12 -28 17
t-47 5h-71v-152h68zM324 125q66 0 95.5 23.5t29.5 68.5q0 17 -5 35.5t-17 30.5q-18 18 -41.5 22.5t-55.5 4.5h-100v-185h94z" />
    <glyph glyph-name="afii10020" unicode="&#x413;" horiz-adv-x="492" 
d="M80 709h401v-141h-246v-568h-155v709z" />
    <glyph glyph-name="afii10021" unicode="&#x414;" horiz-adv-x="742" 
d="M482 570h-189v-200q0 -54 -8 -94t-20 -67.5t-26.5 -44t-27.5 -23.5h271v429zM5 -124v244q19 7 42.5 23.5t43.5 43.5t34 65.5t14 89.5v367h497v-568h86v-265h-145v124h-427v-124h-145z" />
    <glyph glyph-name="afii10022" unicode="&#x415;" horiz-adv-x="556" 
d="M80 709h401v-139h-247v-140h242v-138h-242v-151h247v-141h-401v709z" />
    <glyph glyph-name="afii10024" unicode="&#x416;" horiz-adv-x="1082" 
d="M463 709h154v-319l237 319h186l-269 -338l278 -371h-193l-239 330v-330h-154v330l-239 -330h-187l281 352l-285 357h193l237 -319v319z" />
    <glyph glyph-name="afii10025" unicode="&#x417;" horiz-adv-x="616" 
d="M186 202q2 -48 33 -72t82 -24q52 0 81.5 25.5t29.5 68.5q0 45 -27.5 69t-92.5 24h-72v125h68q51 0 80.5 22.5t29.5 68.5q0 38 -28 63t-71 25q-45 0 -70.5 -22.5t-28.5 -59.5h-156q2 44 20.5 82.5t52 67t81.5 45t108 16.5q54 0 99 -16t77.5 -44t50.5 -66.5t18 -84.5
q0 -49 -23.5 -89t-67.5 -63q24 -8 44.5 -24t35.5 -37.5t23 -46.5t8 -52q0 -43 -17 -83t-50 -71t-83 -49.5t-116 -18.5q-57 0 -106.5 12.5t-86.5 39.5t-58.5 69t-23.5 100h156z" />
    <glyph glyph-name="afii10026" unicode="&#x418;" horiz-adv-x="773" 
d="M547 487l-46 -74.5l-49 -74.5l-238 -338h-134v709h151v-291q0 -43 -1 -79.5t-3 -62.5q-2 -32 -4 -57q17 32 44 74l55 82l234 334h137v-709h-154v291q0 42 1 78t3 62q2 31 4 56z" />
    <glyph glyph-name="afii10027" unicode="&#x419;" horiz-adv-x="773" 
d="M547 487l-46 -74.5l-49 -74.5l-238 -338h-134v709h151v-291q0 -43 -1 -79.5t-3 -62.5q-2 -32 -4 -57q17 32 44 74l55 82l234 334h137v-709h-154v291q0 42 1 78t3 62q2 31 4 56zM334 959q0 -45 13.5 -66.5t45.5 -21.5t48 23t16 65h116q0 -57 -14 -96.5t-38 -65t-57 -37
t-72 -11.5q-86 0 -130 52.5t-44 157.5h116z" />
    <glyph glyph-name="afii10028" unicode="&#x41a;" horiz-adv-x="699" 
d="M80 709h154v-319l237 319h186l-269 -338l278 -371h-193l-239 330v-330h-154v709z" />
    <glyph glyph-name="afii10029" unicode="&#x41b;" horiz-adv-x="687" 
d="M261 246q0 -66 -10.5 -114t-35.5 -79t-65.5 -46t-101.5 -15h-21q-6 0 -12 1v132h14q41 0 59.5 22t18.5 66v496h500v-709h-154v570h-192v-324z" />
    <glyph glyph-name="afii10030" unicode="&#x41c;" horiz-adv-x="921" 
d="M134 709h160l123 -342q12 -34 23.5 -71.5t20.5 -75.5l21 77t21 67l124 345h157l99 -709h-150l-43 385q-3 26 -4.5 57.5t-2.5 70.5l-18.5 -67t-16.5 -55l-140 -391h-102l-138 382q-9 25 -18.5 58.5t-17.5 67.5q0 -40 -2 -72t-5 -61l-40 -375h-148z" />
    <glyph glyph-name="afii10031" unicode="&#x41d;" horiz-adv-x="731" 
d="M80 709h154v-279h263v279h154v-709h-154v292h-263v-292h-154v709z" />
    <glyph glyph-name="afii10032" unicode="&#x41e;" horiz-adv-x="813" 
d="M406 -19q-79 0 -147.5 29t-119.5 79t-80 118t-29 146q0 77 30 145t81 118.5t119.5 80t145.5 29.5q78 0 147 -29t120 -79t80.5 -118.5t29.5 -146.5q0 -77 -30 -144.5t-81.5 -118t-120 -80t-145.5 -29.5zM406 128q47 0 87 17.5t69.5 48.5t46 72.5t16.5 88.5t-16.5 88
t-46 72t-69.5 48.5t-87 17.5t-87 -17.5t-69 -48.5t-45.5 -72t-16.5 -88t16.5 -88.5t45.5 -72.5t69 -48.5t87 -17.5z" />
    <glyph glyph-name="afii10033" unicode="&#x41f;" horiz-adv-x="731" 
d="M80 709h571v-709h-154v570h-263v-570h-154v709z" />
    <glyph glyph-name="afii10034" unicode="&#x420;" horiz-adv-x="590" 
d="M80 709h203q75 0 130.5 -13t93.5 -51q28 -28 43 -67.5t15 -87.5t-15 -88t-44 -69q-36 -36 -90 -52.5t-120 -16.5h-63v-264h-153v709zM294 394q61 0 88 27q12 12 18.5 29.5t6.5 35.5q0 20 -6 37t-17 28q-13 13 -32.5 19.5t-52.5 6.5h-66v-183h61z" />
    <glyph glyph-name="afii10035" unicode="&#x421;" horiz-adv-x="640" 
d="M593 27q-37 -19 -89 -30.5t-108 -11.5q-82 0 -148.5 29t-113 78.5t-71.5 115.5t-25 140q0 79 26.5 147t74.5 118t115.5 79t148.5 29q110 0 190 -37v-167q-34 28 -84 46t-101 18q-45 0 -83.5 -15.5t-67 -44.5t-44.5 -72t-16 -97q0 -45 13.5 -85.5t40.5 -71.5t67.5 -49.5
t94.5 -18.5q60 0 104 16.5t76 41.5v-158v0z" />
    <glyph glyph-name="afii10036" unicode="&#x422;" horiz-adv-x="482" 
d="M164 570h-152v139h458v-137h-152v-572h-154v570z" />
    <glyph glyph-name="afii10037" unicode="&#x423;" horiz-adv-x="648" 
d="M281 492q9 -20 17.5 -42l15.5 -40l16 -42l145 341h169l-334 -709h-171l110 232l-243 477h178z" />
    <glyph glyph-name="afii10038" unicode="&#x424;" horiz-adv-x="843" 
d="M344 82h-30q-70 0 -124 18.5t-89 53.5q-39 39 -59.5 85.5t-20.5 108.5q0 70 23 119.5t59 85.5q42 42 96.5 59.5t120.5 17.5h24v79h152v-79h33q70 0 124 -18.5t89 -53.5q39 -39 59.5 -85.5t20.5 -108.5q0 -70 -23 -119.5t-59 -85.5q-42 -42 -96.5 -59.5t-120.5 -17.5h-27
v-82h-152v82zM664 359q0 33 -8.5 61t-25.5 45q-22 22 -48.5 31.5t-63.5 9.5h-22v-300h28q39 0 62.5 10t40.5 27q15 15 26 44.5t11 71.5zM179 353q0 -33 8.5 -61t25.5 -45q22 -22 48.5 -31.5t63.5 -9.5h19v300h-25q-39 0 -62.5 -10t-40.5 -27q-15 -15 -26 -44.5t-11 -71.5z
" />
    <glyph glyph-name="afii10039" unicode="&#x425;" horiz-adv-x="682" 
d="M265 372l-238 337h189l133 -213l139 213h183l-242 -334l252 -375h-181l-159 250l-159 -250h-181z" />
    <glyph glyph-name="afii10040" unicode="&#x426;" horiz-adv-x="752" 
d="M234 709v-568h263v568h154v-568h86v-265h-146v124h-511v709h154z" />
    <glyph glyph-name="afii10041" unicode="&#x427;" horiz-adv-x="664" 
d="M430 0v280q-16 -2 -35 -3q-17 -1 -41 -1.5t-54 -0.5q-23 0 -50.5 2.5t-55.5 10.5t-54 23t-46 41t-32 63.5t-12 90.5v203h154v-194q0 -33 7.5 -54.5t21.5 -33.5t34 -17t46 -5t47 0.5t37 1.5q18 1 33 3v299h154v-709h-154z" />
    <glyph glyph-name="afii10042" unicode="&#x428;" horiz-adv-x="1022" 
d="M80 0v709h154v-568h200v568h154v-568h200v568h154v-709h-862z" />
    <glyph glyph-name="afii10043" unicode="&#x429;" horiz-adv-x="1043" 
d="M80 0v709h154v-568h200v568h154v-568h200v568h154v-568h86v-265h-145v124h-803z" />
    <glyph glyph-name="afii10044" unicode="&#x42a;" horiz-adv-x="712" 
d="M153 570h-141v139h295v-268h96q80 0 134.5 -14.5t89.5 -49.5q28 -28 43.5 -67t15.5 -88q0 -47 -17 -87t-46 -69q-33 -33 -87 -49.5t-120 -16.5h-263v570zM527 220q0 43 -23 66q-13 13 -32.5 19.5t-52.5 6.5h-112v-185h107q61 0 88 27q12 12 18.5 30t6.5 36z" />
    <glyph glyph-name="afii10045" unicode="&#x42b;" horiz-adv-x="924" 
d="M690 0v709h154v-709h-154zM454 220q0 20 -6 37.5t-17 28.5q-13 13 -32.5 19.5t-52.5 6.5h-112v-185h107q61 0 88 27q12 12 18.5 30t6.5 36zM80 709h154v-268h96q80 0 134.5 -14.5t89.5 -49.5q28 -28 43.5 -67t15.5 -88q0 -47 -17 -87t-46 -69q-33 -33 -87 -49.5
t-120 -16.5h-263v709z" />
    <glyph glyph-name="afii10046" unicode="&#x42c;" horiz-adv-x="639" 
d="M454 220q0 20 -6 37.5t-17 28.5q-13 13 -32.5 19.5t-52.5 6.5h-112v-185h107q61 0 88 27q12 12 18.5 30t6.5 36zM80 709h154v-268h96q80 0 134.5 -14.5t89.5 -49.5q28 -28 43.5 -67t15.5 -88q0 -47 -17 -87t-46 -69q-33 -33 -87 -49.5t-120 -16.5h-263v709z" />
    <glyph glyph-name="afii10047" unicode="&#x42d;" horiz-adv-x="640" 
d="M47 181q32 -24 83.5 -41t108.5 -17q42 0 75.5 13t59 35t42 51.5t23.5 62.5h-309v137h307q-18 75 -73 119t-130 44q-57 0 -105 -16t-82 -44v155q37 20 86 31.5t104 11.5q81 0 148.5 -28t115.5 -77.5t74.5 -117.5t26.5 -147q0 -76 -25 -143t-71.5 -117t-113 -79t-148.5 -29
q-56 0 -107.5 10.5t-89.5 28.5v157z" />
    <glyph glyph-name="afii10048" unicode="&#x42e;" horiz-adv-x="1090" 
d="M1060 353q0 -77 -29 -144.5t-79 -118t-117 -80t-142 -29.5q-69 0 -130.5 23.5t-109.5 65t-79.5 98.5t-41.5 124h-98v-292h-154v709h154v-279h101q13 63 46 117.5t80.5 94t107 62t124.5 22.5q76 0 143 -29t117 -79t78.5 -118.5t28.5 -146.5zM902 355q0 47 -16 88t-43.5 72
t-66 48.5t-83.5 17.5t-83 -17.5t-65.5 -48.5t-43.5 -72t-16 -88t16 -88.5t43.5 -72.5t65.5 -48.5t83 -17.5t83.5 17.5t66 48.5t43.5 72.5t16 88.5z" />
    <glyph glyph-name="afii10049" unicode="&#x42f;" horiz-adv-x="623" 
d="M20 0l204 301q-35 5 -65.5 22t-52.5 43t-34.5 60t-12.5 73q0 45 13 80t44 66q36 36 89.5 50t117.5 14h220v-709h-154v307l-199 -307h-170zM215 493q0 -41 26 -67q14 -14 35.5 -20.5t57.5 -6.5h55v186h-52q-28 0 -55 -5.5t-47 -28.5q-14 -17 -17 -33.5t-3 -24.5z" />
    <glyph glyph-name="afii10065" unicode="&#x430;" horiz-adv-x="590" 
d="M392 45q-27 -27 -63 -43.5t-87 -16.5q-48 0 -86 17t-64.5 47t-40.5 72t-14 92q0 52 15 95.5t43 75.5t68.5 50t91.5 18q46 0 82.5 -18.5t54.5 -46.5v51h141v-438h-141v45zM292 97q25 0 44.5 9.5t33 25.5t20.5 36.5t7 43.5q0 24 -8 45t-22 37t-34.5 25.5t-45.5 9.5
q-45 0 -74.5 -30.5t-29.5 -81.5q0 -24 7.5 -46t21.5 -38.5t34 -26t46 -9.5z" />
    <glyph glyph-name="afii10066" unicode="&#x431;" horiz-adv-x="584" 
d="M403 219q-1 27 -10.5 47.5t-24.5 34.5t-33.5 21.5t-37.5 7.5q-23 0 -42 -9t-33 -24t-22 -35.5t-8 -44.5q0 -26 13 -52q14 -28 40 -43t53 -15q28 0 50 13q9 5 18.5 13.5t17.5 21t13.5 28.5t5.5 36zM291 -16q-59 0 -101 18.5t-69.5 48t-43.5 66t-24.5 72t-10.5 66t-2 48.5
q0 37 3 83t11.5 92.5t23.5 89.5t39 74q41 53 106 79.5t138 26.5h124v-136h-117q-51 0 -91 -11t-65 -45q-13 -17 -21 -42.5t-12.5 -52t-6 -49.5t-1.5 -36q4 6 15 18.5t30.5 25t47.5 22t67 9.5q52 0 92.5 -19t68 -50.5t41.5 -73.5t14 -87q0 -48 -18 -91.5t-51.5 -75.5t-81 -51
t-105.5 -19z" />
    <glyph glyph-name="afii10067" unicode="&#x432;" horiz-adv-x="508" 
d="M332 137q0 23 -13.5 35t-46.5 12h-76v-94h73q33 0 48 12t15 35zM303 308q0 20 -13.5 31t-34.5 11h-59v-87h59q21 0 34.5 12.5t13.5 32.5zM57 0v438h241q44 0 71 -8t50 -30q28 -28 28 -74q0 -32 -15.5 -54t-44.5 -33q17 -3 33.5 -11.5t29 -22t20.5 -31.5t8 -39
q0 -57 -38 -95q-19 -19 -51 -29.5t-91 -10.5h-241z" />
    <glyph glyph-name="afii10068" unicode="&#x433;" horiz-adv-x="372" 
d="M365 322h-166v-322h-142v438h308v-116z" />
    <glyph glyph-name="afii10069" unicode="&#x434;" horiz-adv-x="587" 
d="M350 325h-100v-101q0 -33 -4.5 -53.5t-10.5 -32.5t-11.5 -16.5t-7.5 -5.5h134v209zM148 0v-105h-139v204q29 3 48.5 13t31 24.5t16.5 31.5t5 32v238h382v-322h82v-221h-139v105h-287z" />
    <glyph glyph-name="afii10070" unicode="&#x435;" horiz-adv-x="528" 
d="M481 85q-38 -50 -89 -75.5t-127 -25.5q-44 0 -85.5 14.5t-73 43t-50.5 72t-19 102.5q0 51 16.5 94.5t47 75.5t72.5 50t93 18q50 0 91.5 -15.5t71 -44.5t46 -71.5t16.5 -97.5v-16.5t-1 -23.5h-316q2 -42 31 -69.5t75 -27.5q66 0 109 58zM350 269q0 16 -6 31t-17 27
t-26.5 19.5t-35.5 7.5q-38 0 -62 -24t-28 -61h175z" />
    <glyph glyph-name="afii10072" unicode="&#x436;" horiz-adv-x="790" 
d="M325 200l-136 -200h-188l181 217l-177 221h184l136 -184v184h142v-184l141 184h174l-172 -206l179 -232h-186l-136 200v-200h-142v200z" />
    <glyph glyph-name="afii10073" unicode="&#x437;" horiz-adv-x="457" 
d="M34 410q27 17 75 30.5t110 13.5q36 0 69 -7.5t57.5 -23.5t39 -41.5t14.5 -61.5q0 -20 -7.5 -36t-18 -26.5t-20.5 -16.5t-14 -7q4 -1 17 -6.5t26.5 -17.5t24 -32t10.5 -50q0 -39 -16.5 -66t-44 -44.5t-63 -25.5t-72.5 -8q-68 0 -117 11.5t-78 28.5l42 99q21 -10 57.5 -19
t69.5 -9q32 0 52 9.5t20 32.5q0 39 -66 39h-76v93h68q32 0 45 10.5t13 29.5q0 38 -59 38q-31 0 -61.5 -9t-50.5 -19z" />
    <glyph glyph-name="afii10074" unicode="&#x438;" horiz-adv-x="552" 
d="M57 0v438h142v-232l168 232h128v-438h-142v232l-168 -232h-128z" />
    <glyph glyph-name="afii10075" unicode="&#x439;" horiz-adv-x="552" 
d="M57 0v438h142v-232l168 232h128v-438h-142v232l-168 -232h-128zM221 707q0 -45 13.5 -66.5t45.5 -21.5t48 23t16 65h116q0 -57 -14 -96.5t-38 -65t-57 -37t-72 -11.5q-86 0 -130 52.5t-44 157.5h116z" />
    <glyph glyph-name="afii10076" unicode="&#x43a;" horiz-adv-x="522" 
d="M57 438h142v-184l141 184h174l-172 -206l179 -232h-186l-136 200v-200h-142v438z" />
    <glyph glyph-name="afii10077" unicode="&#x43b;" horiz-adv-x="543" 
d="M15 105h13q23 0 38.5 17t15.5 43v273h404v-438h-142v322h-120v-150q0 -39 -11.5 -72t-34 -56.5t-56.5 -37t-80 -13.5h-11t-9 1q-4 0 -7 1v110z" />
    <glyph glyph-name="afii10078" unicode="&#x43c;" horiz-adv-x="708" 
d="M409 0h-114l-51 150q-7 20 -13 41l-11 39l-10 41q-2 -19 -4 -40l-4.5 -41.5t-5.5 -46.5l-20 -143h-150l86 438h152l56 -168l15.5 -51t10.5 -38q4 -18 7 -33q3 15 7 33q4 16 10 38t16 51l56 168h154l86 -438h-154l-20 143q-4 23 -5.5 46.5t-3.5 41.5q-2 21 -2 40
q-5 -19 -11 -39l-11.5 -39t-14.5 -43z" />
    <glyph glyph-name="afii10079" unicode="&#x43d;" horiz-adv-x="552" 
d="M353 0v169h-154v-169h-142v438h142v-153h154v153h142v-438h-142z" />
    <glyph glyph-name="afii10080" unicode="&#x43e;" horiz-adv-x="572" 
d="M279 -16q-51 0 -95 17.5t-77 49t-51.5 74.5t-18.5 95q0 49 18 91.5t50.5 74t78.5 50t102 18.5q54 0 99.5 -17.5t79 -49t52 -74.5t18.5 -94q0 -45 -17 -87t-49.5 -75t-80.5 -53t-109 -20zM286 107q24 0 43 9t33 24.5t21.5 36t7.5 42.5q0 48 -30.5 79.5t-75.5 31.5
q-24 0 -43.5 -9t-33 -25t-21 -36.5t-7.5 -42.5q0 -24 9 -44t23.5 -35t33.5 -23t40 -8z" />
    <glyph glyph-name="afii10081" unicode="&#x43f;" horiz-adv-x="548" 
d="M349 0v322h-150v-322h-142v438h434v-438h-142z" />
    <glyph glyph-name="afii10082" unicode="&#x440;" horiz-adv-x="592" 
d="M57 438h142v-56q25 33 60.5 50.5t89.5 17.5q45 0 83 -18t65.5 -49t42.5 -73t15 -91q0 -42 -14.5 -83.5t-42 -74.5t-68.5 -53t-94 -20q-48 0 -81.5 15.5t-55.5 40.5v-245h-142v639zM300 98q26 0 45.5 10t32.5 26.5t19.5 37.5t6.5 42t-6 41.5t-19 36.5t-33 26t-48 10
q-24 0 -43.5 -9.5t-33 -26t-20.5 -37.5t-7 -43q0 -49 28.5 -81.5t77.5 -32.5z" />
    <glyph glyph-name="afii10083" unicode="&#x441;" horiz-adv-x="439" 
d="M398 10q-20 -8 -55 -16t-74 -8q-56 0 -99 18.5t-72.5 50t-45 73t-15.5 88.5q0 44 15.5 86.5t45.5 75.5t75.5 53.5t105.5 20.5q30 0 63 -6t56 -17v-128q-15 11 -43.5 19.5t-54.5 8.5q-48 0 -82 -29t-34 -80q0 -23 8 -44t23 -36.5t36.5 -24.5t48.5 -9q29 0 55 9t43 24v-129
v0z" />
    <glyph glyph-name="afii10084" unicode="&#x442;" horiz-adv-x="410" 
d="M403 322h-127v-322h-142v322h-127v116h396v-116z" />
    <glyph glyph-name="afii10085" unicode="&#x443;" horiz-adv-x="545" 
d="M202 -9l-203 447h162l81 -196l18.5 -46t18.5 -53l18.5 48l18.5 48l81 199h149l-278 -639h-152z" />
    <glyph glyph-name="afii10086" unicode="&#x444;" horiz-adv-x="752" 
d="M463 111q49 0 74 24q11 11 21 32.5t10 53.5q0 25 -8 46t-21 34q-16 17 -36.5 21.5t-43.5 4.5h-14v-216h18zM445 640v-194h25q58 0 103 -14.5t74 -44.5q32 -32 49 -70.5t17 -91.5q0 -58 -19.5 -99.5t-48.5 -70.5q-35 -35 -80.5 -49t-100.5 -14h-19v-193h-141v193h-22
q-58 0 -103 14.5t-74 44.5q-32 32 -49 70.5t-17 91.5q0 58 19.5 99.5t48.5 70.5q35 35 80.5 49t100.5 14h16v194h141zM289 327q-49 0 -74 -24q-11 -11 -21 -32.5t-10 -53.5q0 -25 8 -46t21 -34q16 -17 36.5 -21.5t43.5 -4.5h11v216h-15z" />
    <glyph glyph-name="afii10087" unicode="&#x445;" horiz-adv-x="540" 
d="M182 224l-168 214h170l46.5 -68t41.5 -67l41 68.5t45 66.5h171l-167 -210l179 -228h-169l-51 76l-48 76q-26 -43 -52 -80.5l-52 -71.5h-170z" />
    <glyph glyph-name="afii10088" unicode="&#x446;" horiz-adv-x="585" 
d="M573 -119h-138v119h-378v438h142v-320h150v320h142v-320h82v-237z" />
    <glyph glyph-name="afii10089" unicode="&#x447;" horiz-adv-x="524" 
d="M325 0v139q-14 -1 -31 -2q-14 -1 -32.5 -1.5t-38.5 -0.5q-36 0 -68.5 8t-57.5 28.5t-39.5 55t-14.5 87.5v124h142v-118q0 -38 14.5 -53.5t52.5 -15.5h29.5t23.5 1q11 1 20 2v184h142v-438h-142z" />
    <glyph glyph-name="afii10090" unicode="&#x448;" horiz-adv-x="804" 
d="M57 0v438h142v-320h132v320h142v-320h132v320h142v-438h-690z" />
    <glyph glyph-name="afii10091" unicode="&#x449;" horiz-adv-x="839" 
d="M57 0v438h142v-320h132v320h142v-320h132v320h142v-320h80v-237h-138v119h-632z" />
    <glyph glyph-name="afii10092" unicode="&#x44a;" horiz-adv-x="562" 
d="M115 324h-108v114h250v-137h89q58 0 93.5 -10.5t58.5 -32.5q40 -40 40 -106q0 -64 -43 -107q-22 -21 -55.5 -33t-84.5 -12h-240v324zM392 151q0 22 -12 35.5t-44 13.5h-79v-99h76q32 0 45.5 14t13.5 36z" />
    <glyph glyph-name="afii10093" unicode="&#x44b;" horiz-adv-x="739" 
d="M540 0v438h142v-438h-142zM334 151q0 22 -12 35.5t-44 13.5h-79v-99h76q32 0 45.5 14t13.5 36zM57 438h142v-137h89q58 0 93.5 -10.5t58.5 -32.5q40 -40 40 -106q0 -64 -43 -107q-22 -21 -55.5 -33t-84.5 -12h-240v438z" />
    <glyph glyph-name="afii10094" unicode="&#x44c;" horiz-adv-x="504" 
d="M334 151q0 22 -12 35.5t-44 13.5h-79v-99h76q32 0 45.5 14t13.5 36zM57 438h142v-137h89q58 0 93.5 -10.5t58.5 -32.5q40 -40 40 -106q0 -64 -43 -107q-22 -21 -55.5 -33t-84.5 -12h-240v438z" />
    <glyph glyph-name="afii10095" unicode="&#x44d;" horiz-adv-x="457" 
d="M95 265h180q-10 37 -40 58.5t-68 21.5q-25 0 -45 -4.5t-35 -9.5q-18 -6 -32 -14v113q23 11 56.5 17.5t66.5 6.5q63 0 108.5 -19.5t75 -52.5t44 -76t14.5 -90t-15 -89t-45 -73.5t-74.5 -50.5t-102.5 -19q-47 0 -80.5 8t-47.5 15v115q13 -8 30 -14q14 -5 35 -9.5t47 -4.5
q44 0 71.5 23t36.5 58h-180v90z" />
    <glyph glyph-name="afii10096" unicode="&#x44e;" horiz-adv-x="774" 
d="M737 219q0 -45 -16.5 -87t-49 -75t-79.5 -53t-107 -20q-44 0 -82.5 13.5t-69.5 37.5t-52 58t-29 76h-53v-169h-142v438h142v-153h57q10 37 31 68t51.5 53.5t69.5 35t84 12.5q53 0 98 -17.5t77.5 -49t51 -74.5t18.5 -94zM593 219q0 24 -8 44t-21.5 35t-32.5 23.5t-40 8.5
q-24 0 -42.5 -9t-31.5 -25t-20 -36.5t-7 -42.5q0 -24 8.5 -44t22.5 -35t32.5 -23t38.5 -8q23 0 41.5 9t32 24.5t20.5 36t7 42.5z" />
    <glyph glyph-name="afii10097" unicode="&#x44f;" horiz-adv-x="498" 
d="M299 336h-52q-30 0 -44.5 -13t-14.5 -34q0 -23 14 -36.5t45 -13.5h52v97zM142 153q-47 17 -73.5 50.5t-26.5 85.5q0 61 42 103q22 21 58 33.5t101 12.5h198v-438h-142v166l-124 -166h-161z" />
    <glyph glyph-name="afii10071" unicode="&#x451;" horiz-adv-x="528" 
d="M481 85q-38 -50 -89 -75.5t-127 -25.5q-44 0 -85.5 14.5t-73 43t-50.5 72t-19 102.5q0 51 16.5 94.5t47 75.5t72.5 50t93 18q50 0 91.5 -15.5t71 -44.5t46 -71.5t16.5 -97.5v-16.5t-1 -23.5h-316q2 -42 31 -69.5t75 -27.5q66 0 109 58zM350 269q0 16 -6 31t-17 27
t-26.5 19.5t-35.5 7.5q-38 0 -62 -24t-28 -61h175zM387 523q-33 0 -56.5 23.5t-23.5 56.5t23.5 56.5t56.5 23.5t56.5 -23.5t23.5 -56.5t-23.5 -56.5t-56.5 -23.5zM165 523q-33 0 -56.5 23.5t-23.5 56.5t23.5 56.5t56.5 23.5t56.5 -23.5t23.5 -56.5t-23.5 -56.5t-56.5 -23.5z
" />
    <glyph glyph-name="afii10099" unicode="&#x452;" horiz-adv-x="549" 
d="M273 -101q5 -1 11 -1.5t16 -0.5q23 0 38.5 17t15.5 43v294q0 33 -16 55.5t-53 22.5q-19 0 -32.5 -6t-26.5 -19q-14 -14 -19 -35t-5 -50v-219h-142v494h-60v104h60v151h142v-151h132v-104h-132v-110q10 12 23 24.5t30.5 22t39 15.5t49.5 6q32 0 61.5 -11t48.5 -30
q23 -23 32.5 -54t9.5 -70v-323q0 -39 -11.5 -72t-34 -56.5t-56.5 -37t-80 -13.5h-17.5t-12.5 1q-6 1 -11 2v111z" />
    <glyph glyph-name="afii10100" unicode="&#x453;" horiz-adv-x="372" 
d="M365 322h-166v-322h-142v438h308v-116zM252 709l112 -83l-172 -136l-81 55z" />
    <glyph glyph-name="afii10101" unicode="&#x454;" horiz-adv-x="457" 
d="M362 175h-180q9 -37 38 -59t76 -22q24 0 43.5 4.5t33.5 9.5q16 6 29 14v-115q-20 -8 -54.5 -15.5t-73.5 -7.5q-58 0 -102.5 19t-74.5 50.5t-45 73.5t-15 89q0 44 15 86.5t46 76.5t77 54.5t108 20.5q30 0 63 -6t56 -17v-113q-13 7 -30 13q-14 5 -34 9.5t-44 4.5
q-40 0 -71 -21.5t-41 -58.5h180v-90z" />
    <glyph glyph-name="afii10102" unicode="&#x455;" horiz-adv-x="430" 
d="M151 138q8 -22 24.5 -36t38.5 -14q21 0 33 8t12 22q0 16 -16 25.5t-39.5 18l-51 18t-51 25t-39.5 40t-16 62.5q0 30 12 56.5t34.5 46.5t55 31.5t74.5 11.5q62 0 104.5 -24t64.5 -79l-114 -44q-11 26 -27.5 36t-33.5 10q-14 0 -26 -8t-12 -23q0 -17 16 -27.5t39.5 -19
l51.5 -18t51.5 -25t39.5 -40t16 -62.5q0 -33 -14 -59.5t-38.5 -45t-57.5 -28t-72 -9.5q-75 0 -117 25t-62 79z" />
    <glyph glyph-name="afii10103" unicode="&#x456;" horiz-adv-x="262" 
d="M131 517q-18 0 -33.5 7t-27 18.5t-18.5 27t-7 33.5t7 33.5t18.5 27t27 18.5t33.5 7t33.5 -7t27 -18.5t18.5 -27t7 -33.5t-7 -33.5t-18.5 -27t-27 -18.5t-33.5 -7zM60 438h142v-438h-142v438z" />
    <glyph glyph-name="afii10104" unicode="&#x457;" horiz-adv-x="336" 
d="M97 438h142v-438h-142v438zM79 528q-31 0 -53 22t-22 53t22 53t53 22t53 -22t22 -53t-22 -53t-53 -22zM257 528q-31 0 -53 22t-22 53t22 53t53 22t53 -22t22 -53t-22 -53t-53 -22z" />
    <glyph glyph-name="afii10105" unicode="&#x458;" horiz-adv-x="262" 
d="M131 517q-18 0 -33.5 7t-27 18.5t-18.5 27t-7 33.5t7 33.5t18.5 27t27 18.5t33.5 7t33.5 -7t27 -18.5t18.5 -27t7 -33.5t-7 -33.5t-18.5 -27t-27 -18.5t-33.5 -7zM60 438h142v-639h-142v639z" />
    <glyph glyph-name="afii10106" unicode="&#x459;" horiz-adv-x="758" 
d="M324 322h-100v-150q0 -39 -11.5 -72t-34 -56.5t-56.5 -37t-80 -13.5h-11t-9 1q-4 0 -7 1v110h13q23 0 38.5 17t15.5 43v273h384v-137h76q58 0 93.5 -10.5t58.5 -32.5q40 -40 40 -106q0 -64 -43 -107q-22 -21 -55.5 -33t-84.5 -12h-227v322zM588 151q0 22 -12 35.5
t-44 13.5h-66v-99h63q32 0 45.5 14t13.5 36z" />
    <glyph glyph-name="afii10107" unicode="&#x45a;" horiz-adv-x="776" 
d="M339 189h-140v-189h-142v438h142v-145h140v145h142v-137h79q58 0 93.5 -10.5t58.5 -32.5q40 -40 40 -106q0 -64 -43 -107q-22 -21 -55.5 -33t-84.5 -12h-230v189zM606 151q0 22 -12 35.5t-44 13.5h-69v-99h66q32 0 45.5 14t13.5 36z" />
    <glyph glyph-name="afii10108" unicode="&#x45b;" horiz-adv-x="549" 
d="M354 0v251q0 33 -16 55.5t-53 22.5q-19 0 -32.5 -6t-26.5 -19q-14 -14 -19 -35t-5 -50v-219h-142v494h-60v104h60v151h142v-151h132v-104h-132v-110q10 12 23 24.5t30.5 22t39 15.5t49.5 6q32 0 61.5 -11t48.5 -30q23 -23 32.5 -54t9.5 -70v-287h-142z" />
    <glyph glyph-name="afii10109" unicode="&#x45c;" horiz-adv-x="522" 
d="M57 438h142v-184l141 184h174l-172 -206l179 -232h-186l-136 200v-200h-142v438zM326 709l112 -83l-172 -136l-81 55z" />
    <glyph glyph-name="afii10110" unicode="&#x45e;" horiz-adv-x="545" 
d="M202 -9l-203 447h162l81 -196l18.5 -46t18.5 -53l18.5 48l18.5 48l81 199h149l-278 -639h-152zM220 707q0 -45 13.5 -66.5t45.5 -21.5t48 23t16 65h116q0 -57 -14 -96.5t-38 -65t-57 -37t-72 -11.5q-86 0 -130 52.5t-44 157.5h116z" />
    <glyph glyph-name="afii10193" unicode="&#x45f;" horiz-adv-x="548" 
d="M206 0h-149v438h142v-322h150v322h142v-438h-149v-132h-136v132z" />
    <glyph glyph-name="afii10050" unicode="&#x490;" horiz-adv-x="492" 
d="M336 709v152h145v-293h-246v-568h-155v709h256z" />
    <glyph glyph-name="afii10098" unicode="&#x491;" horiz-adv-x="372" 
d="M363 322h-164v-322h-142v438h174v105h132v-221z" />
    <glyph glyph-name="endash" unicode="&#x2013;" horiz-adv-x="585" 
d="M37 312h512v-118h-512v118z" />
    <glyph glyph-name="emdash" unicode="&#x2014;" horiz-adv-x="1000" 
d="M0 310h1000v-115h-1000v115z" />
    <glyph glyph-name="quoteleft" unicode="&#x2018;" horiz-adv-x="251" 
d="M234 684q-26 -23 -41.5 -45t-15.5 -48q0 -18 4 -31t9 -23.5t9 -21.5t4 -25q0 -36 -24 -60.5t-59 -24.5q-36 0 -61 24.5t-25 68.5q0 67 42.5 127t112.5 111z" />
    <glyph glyph-name="quoteright" unicode="&#x2019;" horiz-adv-x="272" 
d="M34 440q26 23 41.5 45t15.5 48q0 18 -4 31t-9 23.5t-9 21.5t-4 25q0 36 24 60.5t59 24.5q36 0 61 -24.5t25 -68.5q0 -67 -42.5 -127t-112.5 -111z" />
    <glyph glyph-name="quotesinglbase" unicode="&#x201a;" horiz-adv-x="251" 
d="M13 -124q26 23 41.5 45t15.5 48q0 18 -4 31t-9 23.5t-9 21.5t-4 25q0 36 24 60.5t59 24.5q36 0 61 -24.5t25 -68.5q0 -67 -42.5 -127t-112.5 -111z" />
    <glyph glyph-name="quotedblleft" unicode="&#x201c;" horiz-adv-x="470" 
d="M457 684q-26 -23 -41.5 -45t-15.5 -48q0 -18 4 -31t9 -23.5t9 -21.5t4 -25q0 -36 -24 -60.5t-59 -24.5q-36 0 -61 24.5t-25 68.5q0 67 42.5 127t112.5 111zM234 684q-26 -23 -41.5 -45t-15.5 -48q0 -18 4 -31t9 -23.5t9 -21.5t4 -25q0 -36 -24 -60.5t-59 -24.5
q-36 0 -61 24.5t-25 68.5q0 67 42.5 127t112.5 111z" />
    <glyph glyph-name="quotedblright" unicode="&#x201d;" horiz-adv-x="470" 
d="M236 440q26 23 41.5 45t15.5 48q0 18 -4 31t-9 23.5t-9 21.5t-4 25q0 36 24 60.5t59 24.5q36 0 61 -24.5t25 -68.5q0 -67 -42.5 -127t-112.5 -111zM13 440q26 23 41.5 45t15.5 48q0 18 -4 31t-9 23.5t-9 21.5t-4 25q0 36 24 60.5t59 24.5q36 0 61 -24.5t25 -68.5
q0 -67 -42.5 -127t-112.5 -111z" />
    <glyph glyph-name="quotedblbase" unicode="&#x201e;" horiz-adv-x="470" 
d="M236 -124q26 23 41.5 45t15.5 48q0 18 -4 31t-9 23.5t-9 21.5t-4 25q0 36 24 60.5t59 24.5q36 0 61 -24.5t25 -68.5q0 -67 -42.5 -127t-112.5 -111zM13 -124q26 23 41.5 45t15.5 48q0 18 -4 31t-9 23.5t-9 21.5t-4 25q0 36 24 60.5t59 24.5q36 0 61 -24.5t25 -68.5
q0 -67 -42.5 -127t-112.5 -111z" />
    <glyph glyph-name="dagger" unicode="&#x2020;" horiz-adv-x="564" 
d="M210 407h-189v137h189v275h146v-275h186v-138h-186v-513h-146v514z" />
    <glyph glyph-name="daggerdbl" unicode="&#x2021;" horiz-adv-x="564" 
d="M210 114h-189v138h189v203h-189v137h189v227h146v-227h186v-138h-186v-202h186v-138h-186v-221h-146v221z" />
    <glyph glyph-name="bullet" unicode="&#x2022;" horiz-adv-x="334" 
d="M168 198q-32 0 -60.5 12.5t-49.5 33.5t-33.5 49.5t-12.5 60.5t12.5 60.5t33.5 49.5t49.5 33.5t60.5 12.5t60.5 -12.5t49.5 -33.5t33.5 -49.5t12.5 -60.5t-12.5 -60.5t-33.5 -49.5t-49.5 -33.5t-60.5 -12.5z" />
    <glyph glyph-name="ellipsis" unicode="&#x2026;" horiz-adv-x="818" 
d="M684 -12q-35 0 -59.5 24.5t-24.5 59.5t24.5 59.5t59.5 24.5t59.5 -24.5t24.5 -59.5t-24.5 -59.5t-59.5 -24.5zM409 -12q-35 0 -59.5 24.5t-24.5 59.5t24.5 59.5t59.5 24.5t59.5 -24.5t24.5 -59.5t-24.5 -59.5t-59.5 -24.5zM134 -12q-35 0 -59.5 24.5t-24.5 59.5
t24.5 59.5t59.5 24.5t59.5 -24.5t24.5 -59.5t-24.5 -59.5t-59.5 -24.5z" />
    <glyph glyph-name="perthousand" unicode="&#x2030;" horiz-adv-x="1159" 
d="M973 -10q-72 0 -111 58t-39 160q0 100 39.5 158.5t117.5 58.5q70 0 109 -58t39 -158q0 -102 -41 -160.5t-114 -58.5zM622 -10q-72 0 -111 58t-39 160q0 100 39.5 158.5t117.5 58.5q70 0 109 -58t39 -158q0 -102 -41 -160.5t-114 -58.5zM579 744l76 -46l-440 -737l-75 47z
M174 282q-72 0 -111 58t-39 160q0 100 39.5 158.5t117.5 58.5q70 0 109 -58t39 -158q0 -102 -41 -160.5t-114 -58.5zM977 85q21 0 39.5 27.5t18.5 96.5q0 53 -14 87.5t-44 34.5q-15 0 -26 -10t-18.5 -27t-11 -40t-3.5 -50q0 -22 2.5 -43.5t9.5 -38t18.5 -27t28.5 -10.5z
M626 85q21 0 39.5 27.5t18.5 96.5q0 53 -14 87.5t-44 34.5q-15 0 -26 -10t-18.5 -27t-11 -40t-3.5 -50q0 -22 2.5 -43.5t9.5 -38t18.5 -27t28.5 -10.5zM178 377q21 0 39.5 27.5t18.5 96.5q0 53 -14 87.5t-44 34.5q-15 0 -26 -10t-18.5 -27t-11 -40t-3.5 -50q0 -22 2.5 -43.5
t9.5 -38t18.5 -27t28.5 -10.5z" />
    <glyph glyph-name="guilsinglleft" unicode="&#x2039;" horiz-adv-x="307" 
d="M26 223l159 231l87 -56l-116 -170l118 -156l-96 -55z" />
    <glyph glyph-name="guilsinglright" unicode="&#x203a;" horiz-adv-x="307" 
d="M151 247l-118 156l96 55l152 -206l-159 -231l-87 56z" />
    <glyph glyph-name="fraction" unicode="&#x2044;" horiz-adv-x="137" 
d="M209 738l79 -35l-367 -735l-79 36z" />
    <glyph glyph-name="zerosuperior" unicode="&#x2070;" horiz-adv-x="396" 
d="M191 305q-73 0 -113.5 53.5t-40.5 150.5t43.5 152t120.5 55q40 0 69.5 -15.5t49 -43t29.5 -65t10 -82.5q0 -43 -11 -80.5t-32 -65t-52.5 -43.5t-72.5 -16zM198 392q22 0 37 26.5t15 90.5q0 52 -12.5 87t-40.5 35q-26 0 -38.5 -34t-12.5 -86q0 -54 13 -86.5t39 -32.5z" />
    <glyph glyph-name="foursuperior" unicode="&#x2074;" horiz-adv-x="367" 
d="M29 473l143 236h123v-235h49v-88h-49v-72h-99v72h-167v87zM196 473v84v19t1 19l-73 -122h72z" />
    <glyph glyph-name="fivesuperior" unicode="&#x2075;" horiz-adv-x="353" 
d="M54 426q18 -13 46.5 -22t52.5 -9q23 0 39.5 11t16.5 35t-15 40.5t-57 16.5q-16 0 -39.5 -2.5t-45.5 -10.5l32 224h214v-92h-133l-5 -40h8q3 0 7 0.5t8 0.5q25 0 49 -7.5t43 -23t30.5 -40.5t11.5 -60q0 -62 -42.5 -102t-121.5 -40q-36 0 -71 9.5t-57 23.5z" />
    <glyph glyph-name="sixsuperior" unicode="&#x2076;" horiz-adv-x="378" 
d="M315 709l-29.5 -31l-34 -36.5t-34 -40l-30.5 -39.5q5 2 12.5 3t18.5 1q51 0 85 -32t34 -89q0 -30 -11.5 -55.5t-32 -44t-49.5 -29.5t-63 -11q-69 0 -108 37.5t-39 100.5q0 33 12.5 68.5t41.5 77.5q22 31 48.5 63.5t48.5 56.5h130zM185 391q23 0 35 14.5t12 34.5t-12 34
t-35 14t-35.5 -14.5t-12.5 -34.5t12.5 -34t35.5 -14z" />
    <glyph glyph-name="sevensuperior" unicode="&#x2077;" horiz-adv-x="342" 
d="M189 618h-165v91h297v-43l-165 -352h-117z" />
    <glyph glyph-name="eightsuperior" unicode="&#x2078;" horiz-adv-x="371" 
d="M185 305q-31 0 -58 7.5t-47.5 23t-32 38.5t-11.5 54q0 35 17.5 57.5t39.5 33.5q-17 12 -29 33.5t-12 47.5q0 51 35 83.5t102 32.5q28 0 52 -7.5t42 -21.5t28 -35t10 -48q0 -31 -10.5 -50t-28.5 -31q20 -11 36.5 -33t16.5 -58q0 -56 -41 -91.5t-109 -35.5zM185 558
q20 0 29.5 10.5t9.5 26.5q0 15 -10 26t-29 11t-28 -11t-9 -27q0 -14 9 -25t28 -11zM185 389q21 0 33.5 12.5t12.5 30.5q0 17 -12.5 30.5t-33.5 13.5q-20 0 -32.5 -13.5t-12.5 -30.5t12 -30t33 -13z" />
    <glyph glyph-name="ninesuperior" unicode="&#x2079;" horiz-adv-x="353" 
d="M46 314l29 30l33.5 36l34.5 39t31 39q-9 -3 -31 -3q-51 0 -85 31.5t-34 88.5q0 30 11.5 55.5t32 44.5t49 30t63.5 11q69 0 108 -38t39 -101q0 -32 -12.5 -67.5t-41.5 -77.5q-22 -31 -48.5 -63t-49.5 -55h-129zM175 532q23 0 35.5 15t12.5 35t-12 34t-36 14
q-22 0 -34 -14.5t-12 -34.5t11.5 -34.5t34.5 -14.5z" />
    <glyph glyph-name="minussuperior" unicode="&#x207b;" horiz-adv-x="384" 
d="M35 550h314v-87h-314v87z" />
    <glyph glyph-name="parenleftsuperior" unicode="&#x207d;" horiz-adv-x="221" 
d="M118 244q-41 69 -57.5 133t-16.5 134q0 78 19 141t54 123l79 -28q-31 -52 -48 -112.5t-17 -123.5q0 -66 16.5 -125t47.5 -116z" />
    <glyph glyph-name="parenrightsuperior" unicode="&#x207e;" horiz-adv-x="221" 
d="M25 269q31 58 48 117t17 126q0 63 -17.5 124.5t-47.5 109.5l79 29q35 -57 54 -119.5t19 -141.5q0 -75 -18 -139.5t-56 -130.5z" />
    <glyph glyph-name="zeroinferior" unicode="&#x2080;" horiz-adv-x="396" 
d="M191 -210q-73 0 -113.5 53.5t-40.5 150.5t43.5 152t120.5 55q40 0 69.5 -15.5t49 -43t29.5 -65t10 -82.5q0 -43 -11 -80.5t-32 -65t-52.5 -43.5t-72.5 -16zM198 -123q22 0 37 26.5t15 90.5q0 52 -12.5 87t-40.5 35q-26 0 -38.5 -34t-12.5 -86q0 -54 13 -86.5t39 -32.5z
" />
    <glyph glyph-name="oneinferior" unicode="&#x2081;" horiz-adv-x="264" 
d="M98 101h-72v93h179v-395h-107v302z" />
    <glyph glyph-name="twoinferior" unicode="&#x2082;" horiz-adv-x="377" 
d="M40 -157l69 69t59 62t41.5 53t15.5 41q0 20 -11.5 31t-32.5 11q-45 0 -45 -59v-9h-104q0 75 40 117t112 42q37 0 65 -11t46.5 -29t27.5 -41t9 -48q0 -27 -10 -51t-26.5 -46.5t-38.5 -43.5t-47 -42q5 1 14 1.5t19 0.5h95v-92h-298v44z" />
    <glyph glyph-name="threeinferior" unicode="&#x2083;" horiz-adv-x="371" 
d="M135 -72q0 -29 11.5 -41.5t35.5 -12.5q23 0 34 12.5t11 29.5q0 22 -15.5 34.5t-61.5 12.5v73q40 0 54 11.5t14 30.5q0 17 -10 27t-27 10q-38 0 -38 -48h-101q2 60 38.5 97t103.5 37q62 0 100.5 -33t38.5 -87q0 -49 -46 -77q26 -9 42 -34.5t16 -51.5t-10.5 -49t-30 -40.5
t-48 -28t-64.5 -10.5q-61 0 -103.5 34.5t-44.5 103.5h101z" />
    <glyph glyph-name="fourinferior" unicode="&#x2084;" horiz-adv-x="367" 
d="M29 -42l143 236h123v-235h49v-88h-49v-72h-99v72h-167v87zM196 -42v84v19t1 19l-73 -122h72z" />
    <glyph glyph-name="fiveinferior" unicode="&#x2085;" horiz-adv-x="353" 
d="M54 -89q18 -13 46.5 -22t52.5 -9q23 0 39.5 11t16.5 35t-15 40.5t-57 16.5q-16 0 -39.5 -2.5t-45.5 -10.5l32 224h214v-92h-133l-5 -40h8q3 0 7 0.5t8 0.5q25 0 49 -7.5t43 -23t30.5 -40.5t11.5 -60q0 -62 -42.5 -102t-121.5 -40q-36 0 -71 9.5t-57 23.5z" />
    <glyph glyph-name="sixinferior" unicode="&#x2086;" horiz-adv-x="378" 
d="M315 194l-29.5 -31l-34 -36.5t-34 -40l-30.5 -39.5q5 2 12.5 3t18.5 1q51 0 85 -32t34 -89q0 -30 -11.5 -55.5t-32 -44t-49.5 -29.5t-63 -11q-69 0 -108 37.5t-39 100.5q0 33 12.5 68.5t41.5 77.5q22 31 48.5 63.5t48.5 56.5h130zM185 -124q23 0 35 14.5t12 34.5t-12 34
t-35 14t-35.5 -14.5t-12.5 -34.5t12.5 -34t35.5 -14z" />
    <glyph glyph-name="seveninferior" unicode="&#x2087;" horiz-adv-x="342" 
d="M189 103h-165v91h297v-43l-165 -352h-117z" />
    <glyph glyph-name="eightinferior" unicode="&#x2088;" horiz-adv-x="371" 
d="M185 -210q-31 0 -58 7.5t-47.5 23t-32 38.5t-11.5 54q0 35 17.5 57.5t39.5 33.5q-17 12 -29 33.5t-12 47.5q0 51 35 83.5t102 32.5q28 0 52 -7.5t42 -21.5t28 -35t10 -48q0 -31 -10.5 -50t-28.5 -31q20 -11 36.5 -33t16.5 -58q0 -56 -41 -91.5t-109 -35.5zM185 43
q20 0 29.5 10.5t9.5 26.5q0 15 -10 26t-29 11t-28 -11t-9 -27q0 -14 9 -25t28 -11zM185 -126q21 0 33.5 12.5t12.5 30.5q0 17 -12.5 30.5t-33.5 13.5q-20 0 -32.5 -13.5t-12.5 -30.5t12 -30t33 -13z" />
    <glyph glyph-name="nineinferior" unicode="&#x2089;" horiz-adv-x="353" 
d="M46 -201l29 30l33.5 36l34.5 39t31 39q-9 -3 -31 -3q-51 0 -85 31.5t-34 88.5q0 30 11.5 55.5t32 44.5t49 30t63.5 11q69 0 108 -38t39 -101q0 -32 -12.5 -67.5t-41.5 -77.5q-22 -31 -48.5 -63t-49.5 -55h-129zM175 17q23 0 35.5 15t12.5 35t-12 34t-36 14
q-22 0 -34 -14.5t-12 -34.5t11.5 -34.5t34.5 -14.5z" />
    <glyph glyph-name="parenleftinferior" unicode="&#x208d;" horiz-adv-x="221" 
d="M118 -271q-41 69 -57.5 133t-16.5 134q0 78 19 141t54 123l79 -28q-31 -52 -48 -112.5t-17 -123.5q0 -66 16.5 -125t47.5 -116z" />
    <glyph glyph-name="parenrightinferior" unicode="&#x208e;" horiz-adv-x="221" 
d="M25 -246q31 58 48 117t17 126q0 63 -17.5 124.5t-47.5 109.5l79 29q35 -57 54 -119.5t19 -141.5q0 -75 -18 -139.5t-56 -130.5z" />
    <glyph glyph-name="Euro" unicode="&#x20ac;" horiz-adv-x="580" 
d="M33 318h76q-1 8 -1 16.5v17.5v17.5t1 17.5h-76v95h89q28 118 103.5 180.5t181.5 62.5q35 0 71.5 -6t65.5 -16v-138q-28 14 -60.5 21.5t-63.5 7.5q-47 0 -82.5 -26t-53.5 -86h164v-95h-179q-1 -8 -1 -17v-18v-17.5t1 -16.5h179v-96h-162q20 -55 56 -79.5t81 -24.5
q32 0 64 7.5t60 21.5v-137q-32 -12 -69 -18.5t-80 -6.5q-107 0 -179 60.5t-98 176.5h-88v96z" />
    <glyph glyph-name="afii61352" unicode="&#x2116;" horiz-adv-x="1139" 
d="M286 340l-21.5 35.5t-17 29.5l-14.5 27.5l-16 29.5q5 -56 6 -103.5t2 -103.5v-255h-145v709h140l207 -341l21.5 -35.5t17 -29.5l14.5 -27.5l16 -29.5q-5 56 -6 103.5t-2 103.5v256h145v-709h-138zM1114 531q0 -36 -14 -69.5t-40.5 -60t-64.5 -42.5t-87 -16q-41 0 -77 14
t-63 39t-42.5 60t-15.5 76q0 39 15 73t41.5 59.5t63 40t80.5 14.5q43 0 80.5 -14t65 -39.5t43 -60t15.5 -74.5zM723 178v118h376v-118h-376zM986 531q0 34 -21.5 56.5t-53.5 22.5q-35 0 -54.5 -24.5t-19.5 -56.5q0 -35 22.5 -56.5t52.5 -21.5q33 0 53.5 24.5t20.5 55.5z" />
    <glyph glyph-name="trademark" unicode="&#x2122;" horiz-adv-x="879" 
d="M347 709h182l53 -202l52 202h186l43 -351h-140l-16 230l-65 -230h-143l-61 229l-12 -229h-115zM96 601h-81v108h284v-108h-77v-243h-126v243z" />
    <glyph glyph-name="Omega" unicode="&#x2126;" horiz-adv-x="803" 
d="M613 367q0 47 -15.5 86t-43.5 67.5t-67 44.5t-86 16t-86 -16t-66.5 -44.5t-43 -67.5t-15.5 -86q0 -36 10.5 -69t28.5 -60t42.5 -47.5t52.5 -32.5v-158h-279v136h110q-22 17 -44 40.5t-39.5 53.5t-28.5 65t-11 76q0 77 29 142t79 112.5t117 74t144 26.5q78 0 146 -26
t117.5 -73t78 -112.5t28.5 -143.5q0 -39 -12 -74.5t-31 -65.5t-41.5 -54t-44.5 -41h116v-136h-279v158q28 12 52.5 32.5t42.5 47.5t28.5 60t10.5 69z" />
    <glyph glyph-name="arrowleft" unicode="&#x2190;" horiz-adv-x="1000" 
d="M471 727l111 -111l-261 -241h679v-148h-680l262 -241l-111 -111l-426 426z" />
    <glyph glyph-name="arrowup" unicode="&#x2191;" horiz-adv-x="1000" 
d="M426 481l-241 -262l-111 111l426 426l426 -426l-111 -111l-241 261v-679h-148v680z" />
    <glyph glyph-name="arrowright" unicode="&#x2192;" horiz-adv-x="1000" 
d="M0 375h680l-262 241l111 111l426 -426l-426 -426l-111 111l261 241h-679v148z" />
    <glyph glyph-name="arrowdown" unicode="&#x2193;" horiz-adv-x="1000" 
d="M185 383l241 -261v679h148v-680l241 262l111 -111l-426 -426l-426 426z" />
    <glyph glyph-name="uni2196" unicode="&#x2196;" horiz-adv-x="1000" 
d="M178 623h603v-157l-355 14l480 -480l-105 -105l-481 481l15 -356h-157v603z" />
    <glyph glyph-name="uni2197" unicode="&#x2197;" horiz-adv-x="1000" 
d="M575 481l-356 -15v157h603v-603h-157l14 355l-480 -480l-105 105z" />
    <glyph glyph-name="uni2198" unicode="&#x2198;" horiz-adv-x="1000" 
d="M219 136l355 -14l-480 480l105 105l481 -481l-15 356h157v-603h-603v157z" />
    <glyph glyph-name="uni2199" unicode="&#x2199;" horiz-adv-x="1000" 
d="M178 582h157l-14 -355l480 480l105 -105l-481 -481l356 15v-157h-603v603z" />
    <glyph glyph-name="partialdiff" unicode="&#x2202;" horiz-adv-x="572" 
d="M120 751q86 -15 161.5 -57t132 -106t89 -147t32.5 -178q0 -58 -16.5 -109t-48.5 -88.5t-79.5 -59t-110.5 -21.5q-52 0 -96.5 17.5t-77 48.5t-51 73.5t-18.5 92.5q0 48 16.5 90t46 73.5t68.5 49.5t84 18q24 0 52 -4.5t56 -23.5q-21 84 -92 142t-179 79zM281 106
q48 0 79 33t31 90q0 47 -27 77.5t-80 30.5q-46 0 -76 -31.5t-30 -85.5q0 -50 29 -82t74 -32z" />
    <glyph glyph-name="Delta" unicode="&#x2206;" horiz-adv-x="752" 
d="M3 0l283 709h167l296 -709h-746zM221 141h302l-112 291q-11 27 -21.5 59t-19.5 64q-9 -33 -19 -64.5t-21 -59.5z" />
    <glyph glyph-name="product" unicode="&#x220f;" horiz-adv-x="867" 
d="M104 572h-96v137h851v-137h-97v-773h-154v773h-350v-773h-154v773z" />
    <glyph glyph-name="summation" unicode="&#x2211;" horiz-adv-x="718" 
d="M41 -81l234 353l-234 315v122h614v-137h-434l221 -298l-225 -338h447v-137h-623v120z" />
    <glyph glyph-name="minus" unicode="&#x2212;" horiz-adv-x="670" 
d="M42 356h586v-128h-586v128z" />
    <glyph glyph-name="radical" unicode="&#x221a;" horiz-adv-x="670" 
d="M35 438h160l84 -215q20 -50 32 -98q5 26 13.5 52t18.5 52l208 571h146l-312 -800h-157z" />
    <glyph glyph-name="infinity" unicode="&#x221e;" horiz-adv-x="750" 
d="M375 209q-83 -86 -174 -86q-36 0 -68 12.5t-56 34t-38 51.5t-14 66q0 35 14 64.5t38 51t56 33.5t68 12q42 0 86 -22t87 -64q39 42 84 64t90 22q36 0 68.5 -12t56.5 -33.5t38 -51t14 -64.5q0 -36 -14 -66t-38 -51.5t-56 -34t-68 -12.5q-88 0 -174 86zM444 288
q26 -26 47 -41t49 -15q23 0 39 16t16 39q0 22 -16 37.5t-39 15.5q-29 0 -49.5 -14t-46.5 -38zM304 284q-26 26 -46 40.5t-48 14.5q-23 0 -39 -15t-16 -38q0 -22 16 -37.5t39 -15.5q15 0 26.5 3.5t22.5 10t21.5 16z" />
    <glyph glyph-name="integral" unicode="&#x222b;" horiz-adv-x="352" 
d="M242 -12q0 -104 -45 -155.5t-151 -51.5h-46v100q35 0 56.5 6t33 19.5t15.5 34.5t4 51v632q0 52 10.5 91t34 64.5t61 38.5t90.5 13h47v-100q-35 0 -56.5 -6t-33.5 -19t-16 -34t-4 -50v-634z" />
    <glyph glyph-name="approxequal" unicode="&#x2248;" horiz-adv-x="670" 
d="M10 403q16 13 39 27.5t49.5 26.5t54 19.5t51.5 7.5q34 0 70.5 -10.5t71.5 -22.5l67 -22.5t58 -10.5q16 0 33 4.5t34 12t32 16t27 17.5l63 -95q-16 -13 -39.5 -27.5t-49.5 -26.5t-53.5 -19.5t-51.5 -7.5q-35 0 -71 10.5t-71 22.5l-67 22.5t-58 10.5q-16 0 -33 -4.5
t-34 -12t-32 -16t-27 -17.5zM10 193q16 13 39 27.5t49.5 26.5t54 19.5t51.5 7.5q34 0 70.5 -10.5t71.5 -22.5l67 -22.5t58 -10.5q16 0 33 4.5t34 12t32 16t27 17.5l63 -95q-16 -13 -39.5 -27.5t-49.5 -26.5t-53.5 -19.5t-51.5 -7.5q-35 0 -71 10.5t-71 22.5l-67 22.5
t-58 10.5q-16 0 -33 -4.5t-34 -12t-32 -16t-27 -17.5z" />
    <glyph glyph-name="notequal" unicode="&#x2260;" horiz-adv-x="670" 
d="M20 461h331l49 111h115l-49 -111h184v-127h-239l-36 -82h275v-128h-331l-50 -116h-114l51 116h-186v128h241l35 82h-276v127z" />
    <glyph glyph-name="lessequal" unicode="&#x2264;" horiz-adv-x="670" 
d="M55 496l560 204v-143l-406 -126l406 -121v-149l-560 202v133zM55 128h560v-128h-560v128z" />
    <glyph glyph-name="greaterequal" unicode="&#x2265;" horiz-adv-x="670" 
d="M55 128h560v-128h-560v128zM615 365l-560 -204v143l406 127l-406 120v149l560 -202v-133z" />
    <glyph glyph-name="lozenge" unicode="&#x25ca;" horiz-adv-x="670" 
d="M40 354l295 377l295 -377l-295 -378zM467 354l-132 168l-132 -168l132 -170z" />
    <glyph glyph-name="circle" unicode="&#x25cb;" horiz-adv-x="1000" 
d="M500 -240q-69 0 -133 18t-119.5 50.5t-101 78t-78 101t-50.5 119.5t-18 133t18 133t50.5 119.5t78 101t101 78t119.5 50.5t133 18q103 0 194.5 -39.5t159 -107t107 -159t39.5 -194.5q0 -69 -18 -133t-50.5 -119.5t-78 -101t-101 -78t-119.5 -50.5t-133 -18zM500 -93
q73 0 137.5 27.5t112.5 75.5t75.5 112.5t27.5 137.5t-27.5 137.5t-75.5 112.5t-112.5 75.5t-137.5 27.5t-137.5 -27.5t-112.5 -75.5t-75.5 -112.5t-27.5 -137.5t27.5 -137.5t75.5 -112.5t112.5 -75.5t137.5 -27.5z" />
    <glyph glyph-name="H18533" unicode="&#x25cf;" horiz-adv-x="1000" 
d="M500 -240q-69 0 -133 18t-119.5 50.5t-101 78t-78 101t-50.5 119.5t-18 133t18 133t50.5 119.5t78 101t101 78t119.5 50.5t133 18q103 0 194.5 -39.5t159 -107t107 -159t39.5 -194.5q0 -69 -18 -133t-50.5 -119.5t-78 -101t-101 -78t-119.5 -50.5t-133 -18z" />
    <glyph glyph-name="uni25DC" unicode="&#x25dc;" 
d="M0 271q0 100 37 186t103 149t156 99t196 36h8v-126h-9q-74 0 -135 -27t-105 -74t-68.5 -110t-24.5 -136v-8h-158v11z" />
    <glyph glyph-name="uni25DD" unicode="&#x25dd;" 
d="M342 268q0 73 -24.5 136t-68.5 110t-105 74t-135 27h-9v126h8q106 0 196 -36t156 -99t103 -149t37 -186v-11h-158v8z" />
    <glyph glyph-name="uni25DE" unicode="&#x25de;" 
d="M0 -95h9q74 0 135 27t105 74t68.5 110t24.5 136v8h158v-11q0 -101 -37 -187t-103 -149t-156 -98.5t-196 -35.5h-8v126z" />
    <glyph glyph-name="uni25DF" unicode="&#x25df;" 
d="M0 260h158v-8q0 -73 24.5 -136t68.5 -110t105 -74t135 -27h9v-126h-8q-106 0 -196 35.5t-156 98.5t-103 149t-37 187v11z" />
    <glyph glyph-name="Caron.alt" horiz-adv-x="600" 
d="M215 511q22 17 35 34t13 36q0 14 -4.5 24t-9.5 19t-9.5 18t-4.5 21q0 27 20.5 45t53.5 18q32 0 54 -21.5t22 -56.5q0 -50 -35 -94.5t-94 -82.5z" />
    <glyph glyph-name="Commaaccent" horiz-adv-x="600" 
d="M215 -242q22 17 35 34t13 36q0 14 -4.5 24t-9.5 19t-9.5 18t-4.5 21q0 27 20.5 45t53.5 18q32 0 54 -21.5t22 -56.5q0 -50 -35 -94.5t-94 -82.5z" />
    <glyph glyph-name="Dotaccent" horiz-adv-x="600" 
d="M300 758q-36 0 -61.5 25.5t-25.5 61.5t25.5 61.5t61.5 25.5t61.5 -25.5t25.5 -61.5t-25.5 -61.5t-61.5 -25.5z" />
    <glyph glyph-name="Macron" horiz-adv-x="600" 
d="M153 762v116h294v-116h-294z" />
    <glyph glyph-name="Breve" horiz-adv-x="600" 
d="M238 959q0 -45 13.5 -66.5t45.5 -21.5t48 23t16 65h116q0 -57 -14 -96.5t-38 -65t-57 -37t-72 -11.5q-86 0 -130 52.5t-44 157.5h116z" />
    <glyph glyph-name="Dieresis" horiz-adv-x="600" 
d="M411 743q-33 0 -56.5 23.5t-23.5 56.5t23.5 56.5t56.5 23.5t56.5 -23.5t23.5 -56.5t-23.5 -56.5t-56.5 -23.5zM189 743q-33 0 -56.5 23.5t-23.5 56.5t23.5 56.5t56.5 23.5t56.5 -23.5t23.5 -56.5t-23.5 -56.5t-56.5 -23.5z" />
    <glyph glyph-name="Ring" horiz-adv-x="600" 
d="M300 737q-26 0 -48 9t-39 25.5t-26.5 38t-9.5 47.5q0 25 9.5 47t26.5 38.5t39 25.5t48 9q25 0 47.5 -9t39.5 -25.5t26.5 -38.5t9.5 -47q0 -26 -9.5 -47.5t-26.5 -38t-39.5 -25.5t-47.5 -9zM300 809q20 0 34 14t14 34t-14 34t-34 14t-34 -14t-14 -34t14 -34t34 -14z" />
    <glyph glyph-name="Tilde" horiz-adv-x="600" 
d="M91 756q0 30 9 56.5t25.5 46t39 30.5t49.5 11t47 -7t37 -16t33.5 -16t36.5 -7q17 0 27.5 11.5t10.5 29.5h102q0 -33 -10 -60t-27.5 -45.5t-41.5 -29t-51 -10.5q-24 0 -44 7.5t-38.5 16.5t-36 16.5t-35.5 7.5q-14 0 -24 -13.5t-10 -28.5h-99z" />
    <glyph glyph-name="Circumflex" horiz-adv-x="600" 
d="M111 828l189 75l188 -71l-42 -90l-145 55l-149 -55z" />
    <glyph glyph-name="Acute" horiz-adv-x="600" 
d="M302 928l126 -75l-184 -111l-72 55z" />
    <glyph glyph-name="caron.alt" 
d="M165 597q22 17 35 34t13 36q0 14 -4.5 24t-9.5 19t-9.5 18t-4.5 21q0 27 20.5 45t53.5 18q32 0 54 -21.5t22 -56.5q0 -50 -35 -94.5t-94 -82.5z" />
    <glyph glyph-name="Grave" horiz-adv-x="600" 
d="M297 931l131 -132l-72 -54l-184 111z" />
    <glyph glyph-name="Hungarumlaut" horiz-adv-x="600" 
d="M368 739l-81 55l127 178l112 -83zM155 742l-81 55l105 178l112 -83z" />
    <glyph glyph-name="zero.numerator" horiz-adv-x="396" 
d="M191 305q-73 0 -113.5 53.5t-40.5 150.5t43.5 152t120.5 55q40 0 69.5 -15.5t49 -43t29.5 -65t10 -82.5q0 -43 -11 -80.5t-32 -65t-52.5 -43.5t-72.5 -16zM198 392q22 0 37 26.5t15 90.5q0 52 -12.5 87t-40.5 35q-26 0 -38.5 -34t-12.5 -86q0 -54 13 -86.5t39 -32.5z" />
    <glyph glyph-name="zero.lf" horiz-adv-x="626" 
d="M301 -15q-59 0 -106 24t-80.5 71t-51.5 115t-18 157t20 158.5t56 117t86.5 72.5t112.5 25t110.5 -27t82 -76.5t51 -118.5t17.5 -152q0 -65 -15.5 -130t-49 -117.5t-87 -85.5t-128.5 -33zM313 118q21 0 41.5 10t36.5 36t26 71t10 116q0 52 -6.5 96.5t-21 77t-36 51
t-51.5 18.5q-57 0 -85 -63.5t-28 -178.5q0 -54 7.5 -97t22.5 -73.5t36 -47t48 -16.5z" />
    <glyph glyph-name="zero.denominator" horiz-adv-x="396" 
d="M191 -9q-73 0 -113.5 53.5t-40.5 150.5t43.5 152t120.5 55q40 0 69.5 -15.5t49 -43t29.5 -65t10 -82.5q0 -43 -11 -80.5t-32 -65t-52.5 -43.5t-72.5 -16zM198 78q22 0 37 26.5t15 90.5q0 52 -12.5 87t-40.5 35q-26 0 -38.5 -34t-12.5 -86q0 -54 13 -86.5t39 -32.5z" />
    <glyph glyph-name="yen.lf" horiz-adv-x="631" 
d="M72 164h169v69h-169v95h164l-233 381h179l136 -262l138 262h173l-239 -381h155v-95h-156v-69h156v-96h-156v-68h-148v68h-169v96z" />
    <glyph glyph-name="two.numerator" horiz-adv-x="377" 
d="M40 358l69 69t59 62t41.5 53t15.5 41q0 20 -11.5 31t-32.5 11q-45 0 -45 -59v-9h-104q0 75 40 117t112 42q37 0 65 -11t46.5 -29t27.5 -41t9 -48q0 -27 -10 -51t-26.5 -46.5t-38.5 -43.5t-47 -42q5 1 14 1.5t19 0.5h95v-92h-298v44z" />
    <glyph glyph-name="two.lf" horiz-adv-x="588" 
d="M55 44l200 240q34 41 57 72t36 55.5t18.5 46t5.5 44.5q0 36 -25 61t-66 25q-27 0 -46 -10.5t-30 -29t-15.5 -43t-2.5 -52.5h-147q-2 66 15 117t50 85t79.5 51.5t103.5 17.5q60 0 105 -18t75 -48.5t45 -69.5t15 -81q0 -30 -6.5 -59t-21.5 -61t-40 -68t-62 -79l-51 -57.5
l-47 -51.5q48 3 98 3h139v-134h-482v44z" />
    <glyph glyph-name="two.denominator" horiz-adv-x="377" 
d="M40 44l69 69t59 62t41.5 53t15.5 41q0 20 -11.5 31t-32.5 11q-45 0 -45 -59v-9h-104q0 75 40 117t112 42q37 0 65 -11t46.5 -29t27.5 -41t9 -48q0 -27 -10 -51t-26.5 -46.5t-38.5 -43.5t-47 -42q5 1 14 1.5t19 0.5h95v-92h-298v44z" />
    <glyph glyph-name="three.numerator" horiz-adv-x="371" 
d="M135 443q0 -29 11.5 -41.5t35.5 -12.5q23 0 34 12.5t11 29.5q0 22 -15.5 34.5t-61.5 12.5v73q40 0 54 11.5t14 30.5q0 17 -10 27t-27 10q-38 0 -38 -48h-101q2 60 38.5 97t103.5 37q62 0 100.5 -33t38.5 -87q0 -49 -46 -77q26 -9 42 -34.5t16 -51.5t-10.5 -49t-30 -40.5
t-48 -28t-64.5 -10.5q-61 0 -103.5 34.5t-44.5 103.5h101z" />
    <glyph glyph-name="three.lf" horiz-adv-x="591" 
d="M188 227q-6 -116 101 -116q26 0 44 8t29.5 21.5t17 30t5.5 34.5q0 45 -27.5 69t-92.5 24h-32v125h28q51 0 80.5 21.5t29.5 67.5q0 38 -23 62t-61 24q-45 0 -65 -28t-19 -73h-146q-1 48 14.5 89.5t46 73t75 49.5t101.5 18q51 0 93 -15.5t72.5 -43.5t47.5 -66t17 -84
q0 -49 -23.5 -88t-67.5 -62q24 -8 44.5 -24t35.5 -37.5t23 -46.5t8 -52q0 -41 -16.5 -80.5t-48.5 -71t-79 -51t-107 -19.5q-50 0 -95 14t-79.5 43t-54.5 75t-20 109h144z" />
    <glyph glyph-name="Caron" horiz-adv-x="600" 
d="M152 913l149 -55l145 55l42 -90l-189 -71l-188 75z" />
    <glyph glyph-name="Cedilla" horiz-adv-x="600" 
d="M298 -37l111 -51l-137 -149l-80 62z" />
    <glyph glyph-name="six.numerator" horiz-adv-x="378" 
d="M315 709l-29.5 -31l-34 -36.5t-34 -40l-30.5 -39.5q5 2 12.5 3t18.5 1q51 0 85 -32t34 -89q0 -30 -11.5 -55.5t-32 -44t-49.5 -29.5t-63 -11q-69 0 -108 37.5t-39 100.5q0 33 12.5 68.5t41.5 77.5q22 31 48.5 63.5t48.5 56.5h130zM185 391q23 0 35 14.5t12 34.5t-12 34
t-35 14t-35.5 -14.5t-12.5 -34.5t12.5 -34t35.5 -14z" />
    <glyph glyph-name="six.lf" horiz-adv-x="600" 
d="M487 709l-34.5 -40.5l-39.5 -48.5l-38.5 -48.5t-31.5 -41.5q-22 -29 -40.5 -56t-40.5 -56q26 15 45.5 19.5t47.5 4.5q43 0 80.5 -15t66 -42.5t45 -66t16.5 -85.5q0 -51 -20 -96t-55.5 -78.5t-83.5 -53t-105 -19.5q-54 0 -100 16.5t-80 48t-53 76.5t-19 102q0 60 22 120
t72 135q38 58 81.5 116l83.5 109h181zM306 116q22 0 42 8.5t34 23.5t22.5 35t8.5 42t-8.5 41t-22.5 33.5t-34 23t-42 8.5t-41.5 -8.5t-34 -23t-23 -34t-8.5 -41.5q0 -46 30.5 -77t76.5 -31z" />
    <glyph glyph-name="six.denominator" horiz-adv-x="378" 
d="M315 395l-29.5 -31l-34 -36.5t-34 -40l-30.5 -39.5q5 2 12.5 3t18.5 1q51 0 85 -32t34 -89q0 -30 -11.5 -55.5t-32 -44t-49.5 -29.5t-63 -11q-69 0 -108 37.5t-39 100.5q0 33 12.5 68.5t41.5 77.5q22 31 48.5 63.5t48.5 56.5h130zM185 77q23 0 35 14.5t12 34.5t-12 34
t-35 14t-35.5 -14.5t-12.5 -34.5t12.5 -34t35.5 -14z" />
    <glyph glyph-name="seven.numerator" horiz-adv-x="342" 
d="M189 618h-165v91h297v-43l-165 -352h-117z" />
    <glyph glyph-name="seven.lf" horiz-adv-x="545" 
d="M327 575h-301v134h502v-45l-294 -664h-172z" />
    <glyph glyph-name="seven.denominator" horiz-adv-x="342" 
d="M189 304h-165v91h297v-43l-165 -352h-117z" />
    <glyph glyph-name="periodsuperior" horiz-adv-x="196" 
d="M98 301q-25 0 -42 17.5t-17 42.5q0 26 17 43.5t42 17.5t42 -17.5t17 -43.5q0 -25 -17 -42.5t-42 -17.5z" />
    <glyph glyph-name="periodinferior" horiz-adv-x="196" 
d="M98 -214q-25 0 -42 17.5t-17 42.5q0 26 17 43.5t42 17.5t42 -17.5t17 -43.5q0 -25 -17 -42.5t-42 -17.5z" />
    <glyph glyph-name="periodcentered.case" horiz-adv-x="251" 
d="M123 268q-38 0 -64.5 26.5t-26.5 64.5t26.5 64.5t64.5 26.5t64.5 -26.5t26.5 -64.5t-26.5 -64.5t-64.5 -26.5z" />
    <glyph glyph-name="period.numerator" horiz-adv-x="196" 
d="M98 301q-25 0 -42 17.5t-17 42.5q0 26 17 43.5t42 17.5t42 -17.5t17 -43.5q0 -25 -17 -42.5t-42 -17.5z" />
    <glyph glyph-name="period.denominator" horiz-adv-x="196" 
d="M98 -13q-25 0 -42 17.5t-17 42.5q0 26 17 43.5t42 17.5t42 -17.5t17 -43.5q0 -25 -17 -42.5t-42 -17.5z" />
    <glyph glyph-name="parenright.numerator" horiz-adv-x="221" 
d="M25 269q31 58 48 117t17 126q0 63 -17.5 124.5t-47.5 109.5l79 29q35 -57 54 -119.5t19 -141.5q0 -75 -18 -139.5t-56 -130.5z" />
    <glyph glyph-name="parenright.denominator" horiz-adv-x="221" 
d="M25 -45q31 58 48 117t17 126q0 63 -17.5 124.5t-47.5 109.5l79 29q35 -57 54 -119.5t19 -141.5q0 -75 -18 -139.5t-56 -130.5z" />
    <glyph glyph-name="parenright.case" horiz-adv-x="300" 
d="M21 -88q27 54 47.5 106t35 106.5t22 113t7.5 124.5q0 126 -30 235.5t-80 190.5l108 41q26 -47 48 -96.5t38 -105t25 -120t9 -140.5q0 -74 -7.5 -137t-22.5 -122t-38.5 -116t-54.5 -118z" />
    <glyph glyph-name="parenleft.numerator" horiz-adv-x="221" 
d="M118 244q-41 69 -57.5 133t-16.5 134q0 78 19 141t54 123l79 -28q-31 -52 -48 -112.5t-17 -123.5q0 -66 16.5 -125t47.5 -116z" />
    <glyph glyph-name="parenleft.denominator" horiz-adv-x="221" 
d="M118 -70q-41 69 -57.5 133t-16.5 134q0 78 19 141t54 123l79 -28q-31 -52 -48 -112.5t-17 -123.5q0 -66 16.5 -125t47.5 -116z" />
    <glyph glyph-name="parenleft.case" horiz-adv-x="300" 
d="M171 -126q-33 59 -56 116t-37.5 114t-20.5 114.5t-6 118.5q0 65 7 126.5t22 121.5t38 120.5t56 123.5l107 -38q-28 -56 -48.5 -109.5t-34.5 -108.5t-21 -112t-7 -119q0 -129 29 -233.5t80 -193.5z" />
    <glyph glyph-name="one.numerator" horiz-adv-x="264" 
d="M98 616h-72v93h179v-395h-107v302z" />
    <glyph glyph-name="sterling.lf" horiz-adv-x="600" 
d="M31 111q65 32 89.5 70t24.5 76q0 16 -3.5 31.5t-8.5 29.5h-84v85h49q-14 35 -20 66.5t-6 61.5q0 36 15 71t45.5 62.5t77 45t109.5 17.5q90 0 148.5 -36.5t92.5 -109.5l-139 -62q-16 45 -40 67t-69 22q-35 0 -57.5 -20t-22.5 -55q0 -16 2.5 -30t7.5 -29t12.5 -32.5
l16.5 -39.5h132v-84h-106q3 -20 3 -38q0 -35 -12 -65.5t-38 -56.5q24 -1 42 -7.5t34.5 -14t34.5 -13.5t42 -6q32 0 54.5 12.5t44.5 27.5l69 -117q-29 -18 -71.5 -37t-101.5 -19q-39 0 -66.5 7.5t-51 16t-46.5 16t-51 7.5t-53.5 -8t-49.5 -28z" />
    <glyph glyph-name="three.denominator" horiz-adv-x="371" 
d="M135 129q0 -29 11.5 -41.5t35.5 -12.5q23 0 34 12.5t11 29.5q0 22 -15.5 34.5t-61.5 12.5v73q40 0 54 11.5t14 30.5q0 17 -10 27t-27 10q-38 0 -38 -48h-101q2 60 38.5 97t103.5 37q62 0 100.5 -33t38.5 -87q0 -49 -46 -77q26 -9 42 -34.5t16 -51.5t-10.5 -49t-30 -40.5
t-48 -28t-64.5 -10.5q-61 0 -103.5 34.5t-44.5 103.5h101z" />
    <glyph glyph-name="commaaccent" 
d="M165 -242q22 17 35 34t13 36q0 14 -4.5 24t-9.5 19t-9.5 18t-4.5 21q0 27 20.5 45t53.5 18q32 0 54 -21.5t22 -56.5q0 -50 -35 -94.5t-94 -82.5z" />
    <glyph glyph-name="nine.lf" horiz-adv-x="592" 
d="M112 0l67.5 83.5l61.5 79.5l97 130q-16 -11 -37.5 -18t-48.5 -7q-45 0 -84 15t-68 43t-45.5 66.5t-16.5 86.5q0 54 21 99t57 77.5t83 50.5t98 18q58 0 105.5 -17.5t80.5 -49.5t51 -77t18 -100q0 -39 -8.5 -75.5t-25 -74t-41.5 -76.5t-57 -83l-126 -171h-182zM294 379
q22 0 41.5 8.5t34 23.5t22.5 35t8 43q0 22 -8.5 41t-23 33.5t-34 22.5t-41.5 8t-41.5 -8.5t-34 -23t-23 -34t-8.5 -41.5q0 -45 30 -76.5t78 -31.5z" />
    <glyph glyph-name="nine.denominator" horiz-adv-x="353" 
d="M46 0l29 30l33.5 36l34.5 39t31 39q-9 -3 -31 -3q-51 0 -85 31.5t-34 88.5q0 30 11.5 55.5t32 44.5t49 30t63.5 11q69 0 108 -38t39 -101q0 -32 -12.5 -67.5t-41.5 -77.5q-22 -31 -48.5 -63t-49.5 -55h-129zM175 218q23 0 35.5 15t12.5 35t-12 34t-36 14q-22 0 -34 -14.5
t-12 -34.5t11.5 -34.5t34.5 -14.5z" />
    <glyph glyph-name="minusinferior" horiz-adv-x="384" 
d="M35 35h314v-87h-314v87z" />
    <glyph glyph-name="minus.numerator" horiz-adv-x="384" 
d="M35 550h314v-87h-314v87z" />
    <glyph glyph-name="minus.denominator" horiz-adv-x="384" 
d="M35 236h314v-87h-314v87z" />
    <glyph glyph-name="minus.case" horiz-adv-x="670" 
d="M42 426h586v-128h-586v128z" />
    <glyph glyph-name="hyphensuperior" horiz-adv-x="258" 
d="M35 553h188v-82h-188v82z" />
    <glyph glyph-name="hypheninferior" horiz-adv-x="258" 
d="M35 38h188v-82h-188v82z" />
    <glyph glyph-name="hyphen.numerator" horiz-adv-x="258" 
d="M35 553h188v-82h-188v82z" />
    <glyph glyph-name="hyphen.denominator" horiz-adv-x="258" 
d="M35 239h188v-82h-188v82z" />
    <glyph glyph-name="hyphen.case" horiz-adv-x="377" 
d="M40 421h296v-118h-296v118z" />
    <glyph glyph-name="four.numerator" horiz-adv-x="367" 
d="M29 473l143 236h123v-235h49v-88h-49v-72h-99v72h-167v87zM196 473v84v19t1 19l-73 -122h72z" />
    <glyph glyph-name="four.lf" horiz-adv-x="590" 
d="M28 275l291 434h161v-435h88v-128h-88v-146h-153v146h-299v129zM329 272v122q0 42 1 77t5 69l-27.5 -51.5t-27.5 -47.5l-111 -169h160z" />
    <glyph glyph-name="four.denominator" horiz-adv-x="367" 
d="M29 159l143 236h123v-235h49v-88h-49v-72h-99v72h-167v87zM196 159v84v19t1 19l-73 -122h72z" />
    <glyph glyph-name="florin.lf" horiz-adv-x="464" 
d="M-7 -89q21 -3 40 -3t31 5t19 17.5t11.5 34t9.5 53.5l45 300h-85l13 85h85l18 111q8 48 18.5 86.5t31 66.5t54 43t86.5 15q22 0 49 -2t43 -5l-18 -118q-21 3 -42 3q-19 0 -30.5 -4.5t-19 -15t-11.5 -28t-8 -44.5l-16 -107h92l-13 -84h-91l-51 -323q-8 -48 -18.5 -86.5
t-30.5 -66.5t-53.5 -43t-86.5 -15q-22 0 -48 2t-43 5z" />
    <glyph glyph-name="nine.numerator" horiz-adv-x="353" 
d="M46 314l29 30l33.5 36l34.5 39t31 39q-9 -3 -31 -3q-51 0 -85 31.5t-34 88.5q0 30 11.5 55.5t32 44.5t49 30t63.5 11q69 0 108 -38t39 -101q0 -32 -12.5 -67.5t-41.5 -77.5q-22 -31 -48.5 -63t-49.5 -55h-129zM175 532q23 0 35.5 15t12.5 35t-12 34t-36 14
q-22 0 -34 -14.5t-12 -34.5t11.5 -34.5t34.5 -14.5z" />
    <glyph glyph-name="five.numerator" horiz-adv-x="353" 
d="M54 426q18 -13 46.5 -22t52.5 -9q23 0 39.5 11t16.5 35t-15 40.5t-57 16.5q-16 0 -39.5 -2.5t-45.5 -10.5l32 224h214v-92h-133l-5 -40h8q3 0 7 0.5t8 0.5q25 0 49 -7.5t43 -23t30.5 -40.5t11.5 -60q0 -62 -42.5 -102t-121.5 -40q-36 0 -71 9.5t-57 23.5z" />
    <glyph glyph-name="five.lf" horiz-adv-x="559" 
d="M68 184q37 -30 80 -48t90 -18q23 0 44.5 7.5t38.5 22t27 36t10 50.5q0 23 -9.5 45t-29 39t-49 27.5t-69.5 10.5q-30 0 -63.5 -5.5t-61.5 -14.5l58 373h345v-136h-228l-13 -101q6 1 12.5 1h12.5q49 0 94 -15t80 -44t56 -71.5t21 -98.5q0 -52 -19 -98.5t-55 -82t-89 -56.5
t-122 -21q-53 0 -105 18t-90 45z" />
    <glyph glyph-name="five.denominator" horiz-adv-x="353" 
d="M54 112q18 -13 46.5 -22t52.5 -9q23 0 39.5 11t16.5 35t-15 40.5t-57 16.5q-16 0 -39.5 -2.5t-45.5 -10.5l32 224h214v-92h-133l-5 -40h8q3 0 7 0.5t8 0.5q25 0 49 -7.5t43 -23t30.5 -40.5t11.5 -60q0 -62 -42.5 -102t-121.5 -40q-36 0 -71 9.5t-57 23.5z" />
    <glyph glyph-name="one.denominator" horiz-adv-x="264" 
d="M98 302h-72v93h179v-395h-107v302z" />
    <glyph glyph-name="one.lf" horiz-adv-x="419" 
d="M170 571h-132v138h286v-709h-154v571z" />
    <glyph glyph-name="endash.case" horiz-adv-x="585" 
d="M37 420h512v-118h-512v118z" />
    <glyph glyph-name="emdash.case" horiz-adv-x="1000" 
d="M0 418h1000v-115h-1000v115z" />
    <glyph glyph-name="eight.numerator" horiz-adv-x="371" 
d="M185 305q-31 0 -58 7.5t-47.5 23t-32 38.5t-11.5 54q0 35 17.5 57.5t39.5 33.5q-17 12 -29 33.5t-12 47.5q0 51 35 83.5t102 32.5q28 0 52 -7.5t42 -21.5t28 -35t10 -48q0 -31 -10.5 -50t-28.5 -31q20 -11 36.5 -33t16.5 -58q0 -56 -41 -91.5t-109 -35.5zM185 558
q20 0 29.5 10.5t9.5 26.5q0 15 -10 26t-29 11t-28 -11t-9 -27q0 -14 9 -25t28 -11zM185 389q21 0 33.5 12.5t12.5 30.5q0 17 -12.5 30.5t-33.5 13.5q-20 0 -32.5 -13.5t-12.5 -30.5t12 -30t33 -13z" />
    <glyph glyph-name="eight.lf" horiz-adv-x="611" 
d="M306 -12q-49 0 -94 15t-79 43.5t-54.5 68.5t-20.5 91q0 28 8.5 55t24.5 50t39 40.5t52 26.5q-46 20 -71.5 61t-25.5 88q0 41 15 77.5t43.5 64t71 43.5t98.5 16q46 0 87 -13.5t71.5 -38t48 -60t17.5 -79.5q0 -49 -26.5 -88.5t-74.5 -62.5q28 -9 51 -27t39 -40.5
t24.5 -48.5t8.5 -52q0 -45 -17.5 -87t-50.5 -73.5t-80 -50.5t-105 -19zM310 438q36 0 61.5 23.5t25.5 60.5q0 35 -25 59.5t-63 24.5t-61.5 -25t-23.5 -60q0 -34 24 -58.5t62 -24.5zM309 117q41 0 68.5 27.5t27.5 69.5q0 20 -7.5 37.5t-21 30.5t-31 20.5t-37.5 7.5
q-40 0 -68 -28t-28 -68q0 -39 26 -68t71 -29z" />
    <glyph glyph-name="eight.denominator" horiz-adv-x="371" 
d="M185 -9q-31 0 -58 7.5t-47.5 23t-32 38.5t-11.5 54q0 35 17.5 57.5t39.5 33.5q-17 12 -29 33.5t-12 47.5q0 51 35 83.5t102 32.5q28 0 52 -7.5t42 -21.5t28 -35t10 -48q0 -31 -10.5 -50t-28.5 -31q20 -11 36.5 -33t16.5 -58q0 -56 -41 -91.5t-109 -35.5zM185 244
q20 0 29.5 10.5t9.5 26.5q0 15 -10 26t-29 11t-28 -11t-9 -27q0 -14 9 -25t28 -11zM185 75q21 0 33.5 12.5t12.5 30.5q0 17 -12.5 30.5t-33.5 13.5q-20 0 -32.5 -13.5t-12.5 -30.5t12 -30t33 -13z" />
    <glyph glyph-name="dollar.lf" horiz-adv-x="523" 
d="M228 -12q-66 5 -117.5 33.5t-89.5 66.5l79 100q25 -25 59 -46.5t69 -30.5v175q-40 16 -74 35.5t-59 46t-39 61.5t-14 83q0 34 13 67.5t37.5 61t59 47.5t77.5 26v91h66v-89q60 -5 102 -25t77 -53l-77 -97q-26 26 -50.5 38.5t-51.5 16.5v-183q40 -17 75 -34.5t60.5 -42
t40 -57.5t14.5 -80q0 -40 -14 -75t-39 -63t-60 -46.5t-77 -24.5v-110h-67v108zM233 593q-28 -8 -41.5 -28t-13.5 -46q0 -28 14 -46t41 -32v152zM291 111q27 7 41.5 26t14.5 45q0 27 -14 44.5t-42 32.5v-148z" />
    <glyph glyph-name="commasuperior" horiz-adv-x="201" 
d="M21 257q21 17 30 29.5t9 21.5q0 12 -7 23t-7 31q0 25 15 42.5t43 17.5q26 0 42 -17.5t16 -48.5q0 -40 -27.5 -76.5t-72.5 -67.5z" />
    <glyph glyph-name="commainferior" horiz-adv-x="201" 
d="M21 -258q21 17 30 29.5t9 21.5q0 12 -7 23t-7 31q0 25 15 42.5t43 17.5q26 0 42 -17.5t16 -48.5q0 -40 -27.5 -76.5t-72.5 -67.5z" />
    <glyph glyph-name="comma.numerator" horiz-adv-x="201" 
d="M21 257q21 17 30 29.5t9 21.5q0 12 -7 23t-7 31q0 25 15 42.5t43 17.5q26 0 42 -17.5t16 -48.5q0 -40 -27.5 -76.5t-72.5 -67.5z" />
    <glyph glyph-name="comma.denominator" horiz-adv-x="201" 
d="M21 -57q21 17 30 29.5t9 21.5q0 12 -7 23t-7 31q0 25 15 42.5t43 17.5q26 0 42 -17.5t16 -48.5q0 -40 -27.5 -76.5t-72.5 -67.5z" />
    <glyph glyph-name="cent.lf" horiz-adv-x="510" 
d="M290 94q-53 2 -97.5 20.5t-77 51.5t-51 79t-18.5 102q0 46 15 90.5t45 80.5t76 60t108 28v103h71v-106q26 -3 47 -9.5t41 -13.5v-127q-15 7 -37.5 15t-50.5 11v-265q30 5 52 16.5l38 20.5v-126q-20 -10 -41 -17t-49 -11v-97h-71v94zM290 474q-41 -12 -66.5 -43.5
t-25.5 -80.5q0 -48 25.5 -82.5t66.5 -48.5v255z" />
    <glyph glyph-name="bracketright.case" horiz-adv-x="377" 
d="M31 -1h130v712h-129v106h258v-928h-259v110z" />
    <glyph glyph-name="bracketleft.case" horiz-adv-x="377" 
d="M85 817h258v-107h-127v-711h128v-111h-259v929z" />
    <glyph glyph-name="braceright.case" horiz-adv-x="390" 
d="M30 -22q60 0 85 28t25 76v65q0 46 4 78t15.5 54t32 35t53.5 22q-32 9 -52.5 23t-32.5 34t-16.5 46t-4.5 59v101q0 30 -4 51t-15.5 34t-33 19t-56.5 6v107h56q55 0 91.5 -12.5t58 -37t30 -62t8.5 -87.5v-95q0 -70 16 -102.5t66 -32.5v-103q-24 0 -39.5 -6t-25 -21
t-13.5 -39.5t-4 -60.5v-63q0 -104 -45 -155.5t-151 -51.5h-48v91z" />
    <glyph glyph-name="braceleft.case" horiz-adv-x="390" 
d="M112 182q0 70 -16 102.5t-66 32.5v103q24 0 39.5 6t25 21t13.5 39.5t4 60.5v63q0 52 10.5 91t34 64.5t61 38.5t90.5 13h48v-91q-60 0 -85 -28t-25 -76v-65q0 -47 -4 -78.5t-15.5 -53.5t-32 -35t-53.5 -22q32 -9 52.5 -23t32.5 -34t16.5 -46t4.5 -59v-101q0 -30 4 -51
t15.5 -34t33 -19t56.5 -6v-107h-56q-55 0 -91.5 12t-58 37t-30 62.5t-8.5 87.5v95z" />
    <glyph glyph-name="Euro.lf" horiz-adv-x="640" 
d="M24 318h90q-1 8 -1 15v15v19t1 18h-90v105h107q16 57 45.5 100t69.5 72.5t90 44t107 14.5q31 0 67 -4t67 -12v-147q-30 10 -66 16.5t-63 6.5q-109 0 -147 -91h167v-105h-188q-1 -8 -1 -16v-17v-17.5t1 -16.5h188v-106h-164q40 -85 149 -85q29 0 62 5t62 15v-143
q-35 -9 -72 -14t-69 -5q-125 0 -202.5 57t-105.5 170h-104v106z" />
    <glyph glyph-name="cyrbreve" 
d="M189 707q0 -45 13.5 -66.5t45.5 -21.5t48 23t16 65h116q0 -57 -14 -96.5t-38 -65t-57 -37t-72 -11.5q-86 0 -130 52.5t-44 157.5h116z" />
    <glyph glyph-name="cyrBreve" horiz-adv-x="600" 
d="M239 959q0 -45 13.5 -66.5t45.5 -21.5t48 23t16 65h116q0 -57 -14 -96.5t-38 -65t-57 -37t-72 -11.5q-86 0 -130 52.5t-44 157.5h116z" />
    <glyph glyph-name="Tonos" horiz-adv-x="166" 
d="M18 709h130l-20 -229h-90z" />
    </font>
</defs>
</svg>
