<?xml version="1.0" standalone="no"?>
<!DOCTYPE svg PUBLIC "-//W3C//DTD SVG 1.1//EN" "http://www.w3.org/Graphics/SVG/1.1/DTD/svg11.dtd" >
<svg>
<metadata>
Created by FontForge 20090622 at Tue Feb  6 16:09:47 2018
 By deploy user
Copyright 2006 Volkswagen AG.
</metadata>
<defs>
<font id="VWHeadlineOT-Book" horiz-adv-x="500" >
  <font-face 
    font-family="VW Headline OT-Book"
    font-weight="400"
    font-stretch="normal"
    units-per-em="1000"
    panose-1="2 11 5 3 0 0 0 2 0 3"
    ascent="800"
    descent="-200"
    x-height="438"
    cap-height="709"
    bbox="-150 -301 1102 951"
    underline-thickness="50"
    underline-position="-150"
    unicode-range="U+0020-U+FB04"
  />
<missing-glyph horiz-adv-x="308" 
 />
    <glyph glyph-name="ff" unicode="ff" horiz-adv-x="598" 
d="M86 368h-65v70h65v160q0 73 31 113t107 40q17 0 36.5 -2t32.5 -5l-8 -74q-26 6 -52 6q-36 0 -50 -20t-14 -64v-154h211v163q0 73 31 113t107 40q17 0 34.5 -2t28.5 -4v-75q-12 2 -27 4t-27 2q-36 0 -50 -20t-14 -64v-157h114v-70h-114v-368h-83v368h-211v-368h-83v368z
" />
    <glyph glyph-name="fi" unicode="fi" horiz-adv-x="522" 
d="M405 565q-25 0 -42.5 17.5t-17.5 42.5t17.5 42.5t42.5 17.5t42.5 -17.5t17.5 -42.5t-17.5 -42.5t-42.5 -17.5zM86 368h-65v70h65v163q0 73 31 113t107 40q17 0 38 -2.5t35 -6.5l-12 -74q-11 3 -25.5 5.5t-26.5 2.5q-36 0 -50 -20t-14 -64v-157h278v-438h-83v368h-195
v-368h-83v368z" />
    <glyph glyph-name="fl" unicode="fl" horiz-adv-x="523" 
d="M86 368h-65v70h65v105q0 116 53 164t150 48q14 0 37.5 -2t39.5 -4h82v-749h-83v674q-17 3 -40 5.5t-45 2.5q-30 0 -51 -7t-34.5 -24t-19.5 -46t-6 -72v-95h114v-70h-114v-368h-83v368z" />
    <glyph glyph-name="ffi" unicode="ffi" horiz-adv-x="832" 
d="M715 559q-25 0 -42.5 17.5t-17.5 42.5t17.5 42.5t42.5 17.5t42.5 -17.5t17.5 -42.5t-17.5 -42.5t-42.5 -17.5zM86 368h-65v70h65v160q0 73 31 113t107 40q17 0 36.5 -2t32.5 -5l-8 -74q-26 6 -52 6q-36 0 -50 -20t-14 -64v-154h211v163q0 73 31 113t107 40q17 0 38 -2.5
t35 -6.5l-12 -74q-11 3 -25.5 5.5t-26.5 2.5q-36 0 -50 -20t-14 -64v-157h294v-438h-83v368h-211v-368h-83v368h-211v-368h-83v368z" />
    <glyph glyph-name="ffl" unicode="ffl" horiz-adv-x="817" 
d="M86 368h-65v70h65v160q0 73 31 113t107 40q17 0 36.5 -2t32.5 -5l-8 -74q-26 6 -52 6q-36 0 -50 -20t-14 -64v-154h211v105q0 116 53 164t150 48q14 0 37.5 -2t39.5 -4h82v-749h-83v674q-17 3 -40 5.5t-45 2.5q-30 0 -51 -7t-34.5 -24t-19.5 -46t-6 -72v-95h114v-70h-114
v-368h-83v368h-211v-368h-83v368z" />
    <glyph glyph-name=".notdef" horiz-adv-x="308" 
 />
    <glyph glyph-name=".null" horiz-adv-x="271" 
 />
    <glyph glyph-name="nonmarkingreturn" horiz-adv-x="271" 
 />
    <glyph glyph-name="space" unicode=" " horiz-adv-x="271" 
 />
    <glyph glyph-name="exclam" unicode="!" horiz-adv-x="261" 
d="M115 709h80v-524h-80v524zM155 -9q-27 0 -46.5 19.5t-19.5 46.5t19.5 46.5t46.5 19.5t46.5 -19.5t19.5 -46.5t-19.5 -46.5t-46.5 -19.5z" />
    <glyph glyph-name="quotedbl" unicode="&#x22;" horiz-adv-x="420" 
d="M252 727h102l-21 -291h-60zM66 727h102l-21 -291h-60z" />
    <glyph glyph-name="numbersign" unicode="#" horiz-adv-x="681" 
d="M173 209h-128v73h138l23 155h-130v74h140l27 198h80l-27 -198h155l28 198h78l-25 -198h106v-74h-116l-23 -155h107v-73h-119l-30 -209h-80l31 209h-155l-32 -209h-82zM419 282l22 155h-155l-23 -155h156z" />
    <glyph glyph-name="dollar" unicode="$" horiz-adv-x="580" 
d="M272 -10q-63 4 -114 40t-76 102l78 40q15 -44 43.5 -70.5t68.5 -32.5v257q-30 15 -59.5 32t-53.5 40.5t-39 55.5t-15 78q0 35 12.5 66.5t34.5 56.5t53 41.5t67 21.5v88h52v-89q114 -9 166 -115l-72 -41q-14 31 -38.5 51.5t-55.5 27.5v-241q31 -15 62 -32.5t56 -41
t41 -56.5t16 -79q0 -38 -12.5 -72t-35 -60t-55 -43.5t-72.5 -22.5v-112h-52v110zM272 639q-37 -10 -56.5 -39.5t-19.5 -62.5q0 -38 21.5 -64t54.5 -46v212zM324 72q40 10 61 40.5t21 69.5q0 43 -23.5 70t-58.5 47v-227z" />
    <glyph glyph-name="percent" unicode="%" horiz-adv-x="806" 
d="M613 -9q-29 0 -55 9.5t-45.5 33.5t-31 63.5t-11.5 99.5q0 108 41 158t110 50q72 0 107 -50t35 -154q0 -108 -39 -159t-111 -51zM556 740l61 -29l-376 -744l-61 28zM182 304q-29 0 -55 9.5t-45.5 33.5t-31 63.5t-11.5 99.5q0 108 41 158t110 50q72 0 107 -50t35 -154
q0 -108 -39 -159t-111 -51zM617 58q34 0 50 30.5t16 108.5q0 76 -15 109t-51 33q-35 0 -51 -30t-16 -108q0 -42 4.5 -70t13 -44t21 -22.5t28.5 -6.5zM186 371q34 0 50 30.5t16 108.5q0 76 -15 109t-51 33q-35 0 -51 -30t-16 -108q0 -42 4.5 -70t13 -44t21 -22.5t28.5 -6.5z
" />
    <glyph glyph-name="ampersand" unicode="&#x26;" horiz-adv-x="653" 
d="M460 82q-51 -44 -102 -67.5t-111 -23.5q-40 0 -76.5 13t-65 38.5t-45.5 63t-17 85.5q0 42 13.5 74t35.5 56.5t50 43.5t58 37q-39 48 -58 84t-19 78q0 34 13 62t35.5 48t53 31.5t65.5 11.5q42 0 72 -13t49 -34t28 -46.5t9 -50.5q0 -34 -11 -61t-29.5 -48.5t-42.5 -39.5
t-51 -34l154 -189q22 23 44 51l46 57l55 -60l-47 -58t-46 -52l93 -114v-25h-87zM270 443q17 10 33.5 23t29.5 28t21 33.5t8 41.5q0 31 -21 52.5t-54 21.5q-37 0 -57.5 -21.5t-20.5 -53.5q0 -35 16 -62.5t45 -62.5zM244 348q-23 -14 -43.5 -29t-36.5 -33t-25 -40t-9 -49
t8.5 -50.5t25 -41t39.5 -27.5t53 -10q39 0 76 18.5t79 55.5z" />
    <glyph glyph-name="quotesingle" unicode="'" horiz-adv-x="234" 
d="M65 727h104l-23 -291h-58z" />
    <glyph glyph-name="parenleft" unicode="(" horiz-adv-x="275" 
d="M185 -175q-60 120 -87 242.5t-27 231.5q0 125 32 244.5t83 221.5l66 -24q-23 -50 -42.5 -105.5t-33 -112.5t-21 -113.5t-7.5 -107.5t6.5 -107.5t19.5 -114t32 -115.5t45 -113l-66 -27v0z" />
    <glyph glyph-name="parenright" unicode=")" horiz-adv-x="275" 
d="M23 -151q23 49 42.5 105t33 113t21 113.5t7.5 107.5t-6.5 107t-19.5 114t-32.5 116t-44.5 113l66 27q60 -120 87 -242.5t27 -231.5q0 -125 -32 -244.5t-83 -221.5l-66 24v0z" />
    <glyph glyph-name="asterisk" unicode="*" horiz-adv-x="390" 
d="M20 486l110 61l-109 61l28 49l109 -65l-2 128h57l-2 -126l107 64l29 -49l-111 -62l112 -62l-29 -50l-108 65l2 -125h-57l2 127l-110 -66z" />
    <glyph glyph-name="plus" unicode="+" horiz-adv-x="680" 
d="M298 244h-243v80h243v240h84v-240h243v-80h-243v-244h-84v244z" />
    <glyph glyph-name="comma" unicode="," horiz-adv-x="240" 
d="M18 -132q31 27 50.5 55t19.5 54q0 15 -3.5 26t-7.5 21t-7.5 20.5t-3.5 22.5q0 22 15.5 38.5t41.5 16.5q25 0 44.5 -20.5t19.5 -66.5q0 -55 -35 -108.5t-98 -100.5z" />
    <glyph glyph-name="hyphen" unicode="-" horiz-adv-x="344" 
d="M46 312h253v-71h-253v71z" />
    <glyph glyph-name="period" unicode="." horiz-adv-x="236" 
d="M118 -9q-27 0 -46.5 19.5t-19.5 46.5t19.5 46.5t46.5 19.5t46.5 -19.5t19.5 -46.5t-19.5 -46.5t-46.5 -19.5z" />
    <glyph glyph-name="slash" unicode="/" horiz-adv-x="440" 
d="M366 709h80l-310 -709h-80z" />
    <glyph glyph-name="zero" unicode="0" horiz-adv-x="580" 
d="M286 -12q-64 0 -110 27t-76 75.5t-44 114.5t-14 144q0 79 15.5 147t47 117.5t78 77.5t109.5 28q65 0 111.5 -27t76.5 -74.5t44 -113t14 -143.5q0 -80 -16 -148t-47.5 -118t-78.5 -78.5t-110 -28.5zM291 66q41 0 70 23t48 61.5t27.5 89.5t8.5 107q0 66 -8 120.5
t-26.5 93.5t-49 60t-74.5 21q-39 0 -68 -22t-47.5 -60.5t-27.5 -90t-9 -110.5q0 -65 8 -119t26.5 -92.5t48 -60t73.5 -21.5z" />
    <glyph glyph-name="one" unicode="1" horiz-adv-x="580" 
d="M92 84h160v541h-140v84h226v-625h150v-84h-396v84z" />
    <glyph glyph-name="two" unicode="2" horiz-adv-x="580" 
d="M61 57l184 178q43 42 74.5 77t51.5 66.5t30 61.5t10 62q0 60 -33 100t-104 40q-41 0 -67 -16t-41 -41.5t-19.5 -56t-1.5 -60.5h-92q-3 118 55 185.5t170 67.5q60 0 103 -18t71 -48t41 -68t13 -78q0 -49 -15.5 -91.5t-41.5 -81t-59 -73.5t-69 -68l-124 -114h330v-81h-466
v57z" />
    <glyph glyph-name="three" unicode="3" horiz-adv-x="580" 
d="M152 194q2 -26 12 -49.5t27 -40.5t40.5 -27t51.5 -10q34 0 60 10.5t44 28.5t27 42t9 51t-10 51.5t-29 43t-46 29.5t-61 11h-36v78h33q61 0 92 34.5t31 82.5q0 24 -8.5 45t-24 36.5t-36.5 24.5t-46 9q-27 0 -49 -9t-37.5 -25t-23.5 -38t-6 -47h-85q-1 40 12 75.5
t39.5 62.5t65 42.5t87.5 15.5q48 0 86 -15.5t64.5 -41t40.5 -59t14 -68.5q0 -66 -30 -105t-75 -55q24 -4 47.5 -19t42.5 -38t30.5 -51.5t11.5 -59.5q0 -44 -15 -83.5t-45 -70.5t-74.5 -49t-104.5 -18q-47 0 -86 15.5t-67.5 43t-44.5 65t-17 82.5h89z" />
    <glyph glyph-name="four" unicode="4" horiz-adv-x="580" 
d="M33 237l300 472h105v-460h108v-79h-108v-170h-86v170h-319v67zM352 249v355l-37 -60l-186 -295h223z" />
    <glyph glyph-name="five" unicode="5" horiz-adv-x="580" 
d="M115 131q28 -31 69.5 -48t82.5 -17q39 0 68.5 12.5t49.5 34t30.5 50.5t10.5 62q0 32 -10 61t-31 50.5t-54 34t-79 12.5q-35 0 -75 -8.5t-71 -19.5l25 354h327v-80h-254l-13 -182l34.5 5.5t38.5 3.5q63 0 110 -17.5t78.5 -48t47.5 -71t16 -86.5q0 -49 -16.5 -93t-49 -77.5
t-80 -53.5t-108.5 -20q-60 0 -111 19.5t-88 56.5z" />
    <glyph glyph-name="six" unicode="6" horiz-adv-x="580" 
d="M431 709q-30 -32 -63 -72l-64 -79q-32 -41 -61 -84.5l-47 -72.5q25 14 54.5 22t58.5 8q43 0 81.5 -16t67 -44t45.5 -67.5t17 -85.5q0 -50 -17.5 -91.5t-48.5 -72.5t-73.5 -48t-92.5 -17q-56 0 -98.5 19t-71.5 50.5t-44 72t-15 82.5q0 68 30 145t96 174q34 51 70 98t63 79
h113zM293 66q28 0 53 11t43.5 31t29.5 48t11 61q0 29 -11 54.5t-29.5 45t-44.5 30.5t-56 11t-55.5 -11t-44 -30.5t-29.5 -46t-11 -58.5q0 -30 11 -57t30.5 -46.5t45.5 -31t57 -11.5z" />
    <glyph glyph-name="seven" unicode="7" horiz-adv-x="580" 
d="M417 629h-355v80h455v-63l-314 -646h-100z" />
    <glyph glyph-name="eight" unicode="8" horiz-adv-x="580" 
d="M288 -11q-47 0 -88 15t-72 42t-49 65.5t-18 85.5q0 66 32.5 109t91.5 66q-49 19 -77.5 60t-28.5 95q0 37 14 72t41 62t67 43.5t91 16.5q43 0 81.5 -14t67.5 -39.5t45.5 -60t16.5 -76.5q0 -59 -29 -97t-79 -61q54 -17 89 -60t35 -113q0 -44 -18 -82.5t-49 -67t-73 -45
t-91 -16.5zM290 408q29 0 53 9.5t41 25.5t26 38t9 46t-8.5 45.5t-25 38t-40.5 26.5t-55 10q-60 0 -93.5 -34t-33.5 -82q0 -24 8.5 -46t25 -39.5t40 -27.5t53.5 -10zM290 64q32 0 58.5 10.5t45 28.5t29 42.5t10.5 53.5q0 28 -11 52.5t-30 42.5t-45 28.5t-55 10.5
q-30 0 -56 -10.5t-45.5 -28.5t-31 -42.5t-11.5 -52.5q0 -29 11.5 -53.5t31 -42.5t45 -28.5t54.5 -10.5z" />
    <glyph glyph-name="nine" unicode="9" horiz-adv-x="580" 
d="M144 -1l62 72l64 79q33 41 63.5 84.5t48.5 72.5q-25 -14 -54.5 -22t-58.5 -8q-43 0 -81.5 16t-67 44t-45.5 67t-17 86q0 49 17.5 91t48.5 73t73.5 48t92.5 17q55 0 98.5 -19t72.5 -50t44.5 -71.5t15.5 -82.5q0 -39 -8 -75.5t-24.5 -75t-40.5 -80t-57 -89.5
q-34 -51 -69 -98t-62 -79h-116zM289 350q30 0 55.5 11t44 30.5t29.5 46t11 58.5q0 30 -11 57t-30 46.5t-45.5 31t-56.5 11.5q-28 0 -53 -11t-44 -31t-30 -48t-11 -61q0 -29 11 -54.5t30 -45t44.5 -30.5t55.5 -11z" />
    <glyph glyph-name="colon" unicode=":" horiz-adv-x="350" 
d="M175 249q-27 0 -46.5 19.5t-19.5 46.5t19.5 46.5t46.5 19.5t46.5 -19.5t19.5 -46.5t-19.5 -46.5t-46.5 -19.5zM175 -9q-27 0 -46.5 19.5t-19.5 46.5t19.5 46.5t46.5 19.5t46.5 -19.5t19.5 -46.5t-19.5 -46.5t-46.5 -19.5z" />
    <glyph glyph-name="semicolon" unicode=";" horiz-adv-x="350" 
d="M175 249q-27 0 -46.5 19.5t-19.5 46.5t19.5 46.5t46.5 19.5t46.5 -19.5t19.5 -46.5t-19.5 -46.5t-46.5 -19.5zM68 -132q31 27 50.5 55t19.5 54q0 15 -3.5 26t-7.5 21t-7.5 20.5t-3.5 22.5q0 22 15.5 38.5t41.5 16.5q25 0 44.5 -20.5t19.5 -66.5q0 -55 -35 -108.5
t-98 -100.5z" />
    <glyph glyph-name="less" unicode="&#x3c;" horiz-adv-x="680" 
d="M55 325l560 239v-86l-462 -193l462 -196v-89l-560 239v86z" />
    <glyph glyph-name="equal" unicode="=" horiz-adv-x="680" 
d="M65 424h550v-80h-550v80zM65 227h550v-80h-550v80z" />
    <glyph glyph-name="greater" unicode="&#x3e;" horiz-adv-x="680" 
d="M615 239l-560 -239v89l462 196l-462 193v86l560 -239v-86z" />
    <glyph glyph-name="question" unicode="?" horiz-adv-x="509" 
d="M205 396h46q57 0 91.5 34.5t34.5 88.5q0 26 -9.5 48.5t-26 39.5t-39 27t-47.5 10t-47.5 -10.5t-39.5 -28.5t-26 -43t-7 -55h-83q-3 43 12 80.5t43 66t67 45t84 16.5q44 0 81 -14.5t64 -40.5t42 -61.5t15 -76.5t-15 -75t-39 -59t-55 -40t-63 -18v-146h-83v212zM248 -13
q-27 0 -46.5 19.5t-19.5 46.5t19.5 46.5t46.5 19.5t46.5 -19.5t19.5 -46.5t-19.5 -46.5t-46.5 -19.5z" />
    <glyph glyph-name="at" unicode="@" horiz-adv-x="1054" 
d="M635 123q-20 -33 -58 -52.5t-86 -19.5q-46 0 -84.5 17t-66.5 47t-43.5 71t-15.5 89q0 49 16 91.5t44 73.5t66.5 49t83.5 18t82.5 -18t61.5 -52v61h83v-363q88 0 135 57.5t47 168.5q0 53 -21 109.5t-64.5 103.5t-111 77t-159.5 30q-83 0 -155 -32t-125.5 -87.5t-84.5 -130
t-31 -158.5t31 -158.5t84.5 -130t125.5 -87.5t155 -32q69 0 136.5 22t127.5 62l38 -74q-63 -42 -144 -65.5t-159 -23.5q-101 0 -189 38.5t-154 104.5t-104 154.5t-38 189.5t38 189.5t104 154.5t154 104.5t189 38.5q109 0 192 -36t139 -93.5t85 -128.5t29 -141
q0 -64 -18.5 -119t-54.5 -95.5t-90 -63.5t-126 -23h-64v63zM502 124q32 0 57.5 11.5t43.5 32t27.5 49t9.5 62.5q0 71 -38 113t-100 42q-30 0 -55 -12t-43 -33t-28 -49.5t-10 -60.5t10 -60.5t28 -49.5t43 -33t55 -12z" />
    <glyph glyph-name="A" unicode="A" horiz-adv-x="658" 
d="M293 709h75l275 -709h-98l-71 190h-293l-71 -190h-95zM444 266l-65 172l-14 36.5t-17 46.5l-21 58q-10 -31 -20 -57q-8 -23 -17 -46t-14 -37l-66 -173h234z" />
    <glyph glyph-name="B" unicode="B" horiz-adv-x="553" 
d="M85 709h176q46 0 83.5 -12t64.5 -34.5t41.5 -54.5t14.5 -73q0 -57 -27.5 -97t-72.5 -64q25 -7 48.5 -22t41.5 -36.5t28.5 -50.5t10.5 -64q0 -42 -14.5 -78.5t-44.5 -64t-77 -43t-113 -15.5h-160v709zM240 403q25 0 49 7.5t42.5 22.5t29.5 37t11 52q0 48 -29 78.5
t-92 30.5h-76v-228h65zM257 79q76 0 111.5 30.5t35.5 88.5t-37.5 93t-123.5 35h-68v-247h82z" />
    <glyph glyph-name="C" unicode="C" horiz-adv-x="650" 
d="M599 35q-42 -20 -91.5 -31t-104.5 -11q-78 0 -143 27.5t-112.5 75.5t-73.5 113.5t-26 142.5q0 83 27.5 150.5t76 115t114 73.5t141.5 26q52 0 97.5 -10t85.5 -29v-97q-35 22 -84 37.5t-105 15.5q-54 0 -100.5 -21t-81 -58t-54 -88t-19.5 -112q0 -60 20 -111t55.5 -88
t84 -58t104.5 -21q52 0 101.5 12.5t87.5 38.5v-93v0z" />
    <glyph glyph-name="D" unicode="D" horiz-adv-x="668" 
d="M85 709h170q82 0 149.5 -23.5t114.5 -69t73 -111.5t26 -150q0 -64 -18 -127.5t-62 -114t-120 -82t-191 -31.5h-142v709zM236 81q83 0 138 20.5t88 57t47 85.5t14 106q0 60 -15.5 111.5t-49.5 88.5t-86.5 58t-125.5 21h-71v-548h61z" />
    <glyph glyph-name="E" unicode="E" horiz-adv-x="531" 
d="M85 709h370v-84h-280v-217h269v-80h-269v-245h283v-83h-373v709z" />
    <glyph glyph-name="F" unicode="F" horiz-adv-x="488" 
d="M85 709h351v-85h-261v-222h253v-81h-253v-321h-90v709z" />
    <glyph glyph-name="G" unicode="G" horiz-adv-x="778" 
d="M460 369h291v-30q0 -71 -23 -135t-67 -112t-107.5 -76t-144.5 -28q-79 0 -145 29t-113.5 78.5t-74 116.5t-26.5 143q0 73 29 139.5t79 117t117.5 80t145.5 29.5q93 0 165.5 -35.5t129.5 -103.5l-70 -61q-45 61 -101.5 89t-128.5 28q-60 0 -110 -22.5t-86 -61t-56 -89.5
t-20 -108q0 -60 20 -111.5t55.5 -90t84.5 -60.5t107 -22q54 0 97.5 17t75 46t49.5 67.5t21 80.5h-194v85z" />
    <glyph glyph-name="H" unicode="H" horiz-adv-x="698" 
d="M85 709h90v-286h348v286h90v-709h-90v340h-348v-340h-90v709z" />
    <glyph glyph-name="I" unicode="I" horiz-adv-x="260" 
d="M85 709h90v-709h-90v709z" />
    <glyph glyph-name="J" unicode="J" horiz-adv-x="386" 
d="M64 126q14 -23 36 -38.5t48 -15.5q29 0 46 25t17 66v546h90v-539q0 -38 -8.5 -71.5t-27 -58t-49.5 -38.5t-76 -14q-19 0 -38 5.5t-37 15.5t-33.5 23.5t-27.5 29.5z" />
    <glyph glyph-name="K" unicode="K" horiz-adv-x="593" 
d="M85 709h90v-313l261 313h108l-274 -325l293 -384h-118l-270 362v-362h-90v709z" />
    <glyph glyph-name="L" unicode="L" horiz-adv-x="450" 
d="M85 709h90v-626h232v-83h-322v709z" />
    <glyph glyph-name="M" unicode="M" horiz-adv-x="889" 
d="M145 709h94l155 -435q7 -19 16 -47l17 -54q10 -31 19 -64l19 60l16 50t14 42l162 448h87l98 -709h-90l-49 376q-6 46 -11 98.5l-9 97.5q-13 -46 -27.5 -90.5l-28.5 -83.5l-147 -398h-78l-144 400q-14 38 -28 82l-28 90q-4 -45 -9.5 -96.5t-12.5 -99.5l-50 -376h-89z" />
    <glyph glyph-name="N" unicode="N" horiz-adv-x="785" 
d="M85 709h85l449 -572v572h81v-709h-85l-448 572v-572h-82v709z" />
    <glyph glyph-name="O" unicode="O" horiz-adv-x="841" 
d="M419 -12q-76 0 -143 28.5t-117.5 77.5t-79.5 115.5t-29 143.5q0 74 29.5 141t80.5 117.5t118.5 80t143.5 29.5q78 0 145.5 -28.5t117 -78t78 -116t28.5 -142.5q0 -77 -29.5 -144t-80.5 -116.5t-118.5 -78.5t-143.5 -29zM421 73q60 0 110 21.5t87 59t57.5 89t20.5 110.5
q0 60 -20 112t-56.5 90.5t-87.5 60.5t-112 22q-59 0 -109.5 -23t-87.5 -61.5t-58 -89.5t-21 -108t22 -108.5t59.5 -90.5t88 -61.5t107.5 -22.5z" />
    <glyph glyph-name="P" unicode="P" horiz-adv-x="488" 
d="M85 709h155q105 0 164.5 -50t59.5 -150q0 -44 -16.5 -82t-48 -66t-76.5 -44t-102 -16h-46v-301h-90v709zM225 379q69 0 107.5 34.5t38.5 89.5q0 60 -32.5 94t-110.5 34h-53v-252h50z" />
    <glyph glyph-name="Q" unicode="Q" horiz-adv-x="841" 
d="M592 31q-35 -19 -77.5 -31t-95.5 -12q-76 0 -143 28.5t-117.5 77.5t-79.5 115.5t-29 143.5q0 74 29.5 141t80.5 117.5t118.5 80t143.5 29.5q78 0 145.5 -28.5t117 -78t78 -116t28.5 -142.5q0 -46 -10.5 -86.5t-28 -75.5t-41 -64.5t-49.5 -51.5l94 -117l-85 -30zM424 241
l85 30l100 -125q36 35 61.5 86t25.5 121q0 60 -20 112t-56.5 90.5t-87.5 60.5t-112 22q-59 0 -109.5 -23t-87.5 -61.5t-58 -89.5t-21 -108t21.5 -108.5t58.5 -90.5t87 -61.5t107 -22.5q30 0 60.5 6t59.5 19z" />
    <glyph glyph-name="R" unicode="R" horiz-adv-x="531" 
d="M85 709h176q57 0 98.5 -14t69.5 -39t41.5 -59.5t13.5 -75.5q0 -78 -48.5 -130.5t-143.5 -64.5l231 -326h-111l-214 318h-23v-318h-90v709zM229 396q88 0 125 31t37 86q0 25 -6.5 47t-22.5 37.5t-43.5 24.5t-69.5 9h-74v-235h54z" />
    <glyph glyph-name="S" unicode="S" horiz-adv-x="501" 
d="M114 172q14 -44 47.5 -74t84.5 -30q27 0 48.5 9t36 24.5t22 36.5t7.5 44q0 42 -22.5 68t-55.5 46t-72.5 38t-72.5 43t-55.5 61.5t-22.5 93.5q0 38 14.5 72.5t41 60t62.5 40.5t78 15q66 0 113 -29.5t76 -86.5l-72 -41q-17 36 -48 57.5t-70 21.5q-45 0 -74.5 -29t-29.5 -76
q0 -40 22.5 -66t56 -46t73 -38.5t73 -43.5t56 -61t22.5 -92q0 -42 -15.5 -79t-43 -64t-66.5 -42.5t-86 -15.5q-75 0 -129 40t-77 103z" />
    <glyph glyph-name="T" unicode="T" horiz-adv-x="457" 
d="M184 627h-175v82h440v-82h-175v-627h-90v627z" />
    <glyph glyph-name="U" unicode="U" horiz-adv-x="698" 
d="M85 709h90v-432q0 -62 14.5 -102t39 -63.5t55.5 -32.5t64 -9q27 0 58.5 6.5t57.5 27.5t43.5 59.5t17.5 102.5v443h88v-433q0 -83 -22.5 -138t-59.5 -87.5t-85 -46t-99 -13.5q-59 0 -107 16t-82.5 50t-53.5 85.5t-19 123.5v443z" />
    <glyph glyph-name="V" unicode="V" horiz-adv-x="659" 
d="M15 709h98l166 -438l13.5 -37.5l16.5 -46.5l21 -57l20 56q8 23 17 46.5l14 37.5l167 439h95l-278 -709h-75z" />
    <glyph glyph-name="W" unicode="W" horiz-adv-x="1042" 
d="M21 709h97l153 -449q9 -26 17.5 -57.5l16.5 -63.5l16 62t18 59l144 449h79l144 -449l17.5 -59l16.5 -61l16.5 62t17.5 58l153 449h94l-247 -709h-75l-144 445q-10 29 -18 61l-16 64q-8 -34 -17 -67t-17 -59l-144 -444h-75z" />
    <glyph glyph-name="X" unicode="X" horiz-adv-x="593" 
d="M244 366l-199 343h98l152 -272l148 272h101l-202 -343l218 -366h-102l-165 294l-162 -294h-98z" />
    <glyph glyph-name="Y" unicode="Y" horiz-adv-x="574" 
d="M241 318l-226 391h102l173 -307l172 307h97l-228 -391v-318h-90v318z" />
    <glyph glyph-name="Z" unicode="Z" horiz-adv-x="533" 
d="M368 630h-308v79h450l-359 -626h364v-83h-510z" />
    <glyph glyph-name="bracketleft" unicode="[" horiz-adv-x="310" 
d="M100 759h172v-65h-95v-798h95v-66h-172v929z" />
    <glyph glyph-name="backslash" unicode="\" horiz-adv-x="366" 
d="M31 709h80l223 -709h-80z" />
    <glyph glyph-name="bracketright" unicode="]" horiz-adv-x="310" 
d="M38 -104h96v798h-96v65h173v-929h-173v66z" />
    <glyph glyph-name="asciicircum" unicode="^" horiz-adv-x="742" 
d="M336 709h78l181 -372h-97l-125 262l-129 -262h-97z" />
    <glyph glyph-name="underscore" unicode="_" horiz-adv-x="510" 
d="M-5 -137h520v-80h-520v80z" />
    <glyph glyph-name="grave" unicode="`" horiz-adv-x="340" 
d="M130 700l126 -134l-46 -37l-146 118z" />
    <glyph glyph-name="a" unicode="a" horiz-adv-x="568" 
d="M410 63q-22 -33 -61 -52.5t-87 -19.5q-46 0 -85.5 17t-69 47t-46 71t-16.5 89q0 49 17 91.5t46.5 73.5t69 49t84.5 18t83.5 -18t64.5 -52v61h83v-438h-83v63zM273 64q32 0 58 11.5t45 32t29 49t10 62.5q0 71 -40 113t-102 42q-30 0 -56 -12t-45.5 -33t-30.5 -49.5
t-11 -60.5t11 -60.5t30.5 -49.5t45.5 -33t56 -12z" />
    <glyph glyph-name="b" unicode="b" horiz-adv-x="568" 
d="M75 749h83v-374q22 33 61 52.5t87 19.5q46 0 85.5 -17t68.5 -47t46 -71t17 -89q0 -49 -17 -91.5t-46.5 -73.5t-69 -49t-84.5 -18t-83.5 18t-64.5 52v-61h-83v749zM295 64q30 0 56 12t45.5 33t30.5 49.5t11 60.5t-11 60.5t-30.5 49.5t-45.5 33t-56 12q-32 0 -58 -11.5
t-45 -32t-29 -49t-10 -62.5q0 -71 40 -113t102 -42z" />
    <glyph glyph-name="c" unicode="c" horiz-adv-x="444" 
d="M399 16q-26 -12 -58.5 -18.5t-64.5 -6.5q-57 0 -100.5 20t-72.5 51.5t-43.5 71.5t-14.5 81q0 48 18 90t49.5 73.5t75 49.5t94.5 18q31 0 60.5 -6.5t55.5 -17.5v-84q-26 14 -55 22.5t-61 8.5q-33 0 -60 -12t-46.5 -32t-30 -47.5t-10.5 -57.5t10.5 -57t30 -47.5t46.5 -32.5
t60 -12q28 0 59 7t58 23v-85v0z" />
    <glyph glyph-name="d" unicode="d" horiz-adv-x="568" 
d="M410 63q-22 -33 -61 -52.5t-87 -19.5q-46 0 -85.5 17t-69 47t-46 71t-16.5 89q0 49 17 91.5t46.5 73.5t69 49t84.5 18t84 -18.5t64 -51.5v372h83v-749h-83v63zM273 64q32 0 58 11.5t44.5 32t28.5 49t10 62.5q0 71 -39.5 113t-101.5 42q-30 0 -56 -12t-45.5 -33
t-30.5 -49.5t-11 -60.5t11 -60.5t30.5 -49.5t45.5 -33t56 -12z" />
    <glyph glyph-name="e" unicode="e" horiz-adv-x="512" 
d="M460 85q-39 -48 -87 -71t-111 -23q-48 0 -88 16t-68.5 45.5t-44.5 71.5t-16 94q0 53 17.5 95.5t46.5 72t68 45.5t82 16q46 0 84 -15.5t65.5 -44.5t43 -69.5t15.5 -89.5q0 -13 -0.5 -20t-0.5 -14h-334q1 -28 12 -52t29.5 -41.5t43 -27.5t53.5 -10q42 0 76 18.5t57 48.5z
M380 261q0 24 -8.5 45.5t-24.5 37.5t-39 25.5t-52 9.5q-27 0 -48.5 -10t-37.5 -26.5t-25.5 -38t-11.5 -43.5h247z" />
    <glyph glyph-name="f" unicode="f" horiz-adv-x="304" 
d="M86 368h-65v70h65v163q0 73 31 113t107 40q17 0 34.5 -2t28.5 -4v-75q-12 2 -27 4t-27 2q-36 0 -50 -20t-14 -64v-157h114v-70h-114v-368h-83v368z" />
    <glyph glyph-name="g" unicode="g" horiz-adv-x="561" 
d="M143 -44q4 -42 34.5 -72.5t91.5 -30.5q34 0 59.5 7.5t42 25t24.5 46.5t8 72v66q-21 -32 -59.5 -51t-85.5 -19q-45 0 -84 17t-67.5 46t-45 69t-16.5 87q0 48 16.5 90t45.5 72.5t68 48t83 17.5q45 0 82.5 -18t62.5 -51v60h83v-419q0 -55 -11 -98t-37 -73t-68 -45.5
t-104 -15.5q-94 0 -144.5 45.5t-56.5 123.5h78zM269 71q31 0 56.5 11.5t44 31.5t28.5 48t10 61q0 35 -10.5 63t-29 48t-44 30.5t-55.5 10.5q-29 0 -54.5 -12t-44.5 -32.5t-30 -48t-11 -59.5t11 -59.5t30 -48t44.5 -32.5t54.5 -12z" />
    <glyph glyph-name="h" unicode="h" horiz-adv-x="527" 
d="M75 749h83v-369q20 28 57.5 47t82.5 19q72 0 113 -41t41 -130v-275h-83v263q0 57 -23 84t-70 27q-24 0 -45.5 -9t-37.5 -25.5t-25.5 -39t-9.5 -49.5v-251h-83v749z" />
    <glyph glyph-name="i" unicode="i" horiz-adv-x="233" 
d="M116 559q-25 0 -42.5 17.5t-17.5 42.5t17.5 42.5t42.5 17.5t42.5 -17.5t17.5 -42.5t-17.5 -42.5t-42.5 -17.5zM75 438h83v-438h-83v438z" />
    <glyph glyph-name="j" unicode="j" horiz-adv-x="233" 
d="M116 559q-25 0 -42.5 17.5t-17.5 42.5t17.5 42.5t42.5 17.5t42.5 -17.5t17.5 -42.5t-17.5 -42.5t-42.5 -17.5zM75 438h83v-639h-83v639z" />
    <glyph glyph-name="k" unicode="k" horiz-adv-x="446" 
d="M75 749h83v-496l163 185h109l-191 -199l202 -239h-110l-173 213v-213h-83v749z" />
    <glyph glyph-name="l" unicode="l" horiz-adv-x="233" 
d="M75 749h83v-749h-83v749z" />
    <glyph glyph-name="m" unicode="m" horiz-adv-x="767" 
d="M75 438h77v-59q18 29 52.5 48t76.5 19q48 0 77.5 -18.5t46.5 -49.5q23 29 59 48.5t84 19.5q66 0 105 -41t39 -130v-275h-82v263q0 57 -19.5 84t-62.5 27q-45 0 -74 -33.5t-29 -86.5v-254h-83v264q0 57 -19 83.5t-62 26.5q-23 0 -41.5 -9t-32.5 -25.5t-21.5 -39
t-7.5 -49.5v-251h-83v438z" />
    <glyph glyph-name="n" unicode="n" horiz-adv-x="527" 
d="M75 438h80v-58q20 27 54.5 46.5t82.5 19.5q76 0 118 -41t42 -130v-275h-83v263q0 57 -23 84t-70 27q-24 0 -45.5 -9t-37.5 -25.5t-25.5 -39t-9.5 -49.5v-251h-83v438z" />
    <glyph glyph-name="o" unicode="o" horiz-adv-x="548" 
d="M272 -10q-48 0 -89.5 17t-72 47.5t-48 72t-17.5 89.5q0 47 18.5 89t50 73.5t73.5 49.5t89 18q48 0 89.5 -17t72 -47.5t48 -72t17.5 -89.5t-18 -90t-49.5 -73t-73.5 -49t-90 -18zM276 68q30 0 56 11.5t45 32t30 47.5t11 58q0 32 -11.5 60t-31 48.5t-46 32.5t-57.5 12
q-30 0 -56 -11.5t-45 -32t-30 -47.5t-11 -58q0 -32 11.5 -60t31 -48.5t46 -32.5t57.5 -12z" />
    <glyph glyph-name="p" unicode="p" horiz-adv-x="566" 
d="M75 438h83v-63q22 33 61 52.5t87 19.5q46 0 85.5 -17t68.5 -47t45 -71t16 -89q0 -50 -16.5 -92.5t-45.5 -73.5t-68 -48.5t-85 -17.5q-45 0 -84 18.5t-64 51.5v-262h-83v639zM295 64q30 0 56 12t44.5 32.5t29 49t10.5 61.5q0 32 -11 60.5t-29.5 49.5t-44 33t-55.5 12
q-32 0 -58 -11.5t-44.5 -32t-28.5 -49t-10 -62.5q0 -35 10.5 -63.5t29.5 -49t45 -31.5t56 -11z" />
    <glyph glyph-name="q" unicode="q" horiz-adv-x="567" 
d="M409 63q-22 -33 -61 -52.5t-87 -19.5q-47 0 -86.5 17t-68 47t-45 71t-16.5 89q0 49 17 91.5t46 73.5t68.5 49t84.5 18t83.5 -18t64.5 -52v61h83v-639h-83v264zM272 64q32 0 58 11.5t45 32t29 49t10 62.5q0 71 -40 113t-102 42q-30 0 -55.5 -12t-44.5 -33t-30 -49.5
t-11 -60.5q0 -33 11 -61t29.5 -49t44.5 -33t56 -12z" />
    <glyph glyph-name="r" unicode="r" horiz-adv-x="353" 
d="M75 438h80v-68q20 36 51.5 56.5t76.5 20.5q14 0 29 -2t26 -5l-9 -87q-30 15 -69 15q-43 0 -72.5 -35.5t-29.5 -98.5v-234h-83v438z" />
    <glyph glyph-name="s" unicode="s" horiz-adv-x="384" 
d="M103 111q14 -21 35 -34t48 -13q26 0 45.5 13t19.5 42q0 22 -14.5 35t-36 22.5t-47 19t-47 24t-36 38t-14.5 61.5q0 25 10 48.5t28 41t43.5 28t57.5 10.5q48 0 79 -17.5t53 -52.5l-64 -38q-11 18 -29 28.5t-41 10.5q-25 0 -40.5 -15t-15.5 -37q0 -23 14.5 -36.5
t36.5 -23.5t48 -19.5t48 -24t36.5 -38t14.5 -60.5q0 -27 -10 -51t-29.5 -42t-47.5 -29t-63 -11q-49 0 -84 18t-60 53z" />
    <glyph glyph-name="t" unicode="t" horiz-adv-x="261" 
d="M79 367h-69v71h69v162h83v-162h89v-71h-89v-367h-83v367z" />
    <glyph glyph-name="u" unicode="u" horiz-adv-x="530" 
d="M75 438h83v-233q0 -29 4 -54.5t15.5 -44.5t33 -30.5t56.5 -11.5q34 0 55 12.5t32 32.5t14.5 44.5t3.5 48.5v236h83v-230q0 -42 -8 -81t-29.5 -69.5t-59 -48.5t-95.5 -18q-57 0 -93.5 18t-57.5 46.5t-29 65t-8 74.5v243z" />
    <glyph glyph-name="v" unicode="v" horiz-adv-x="473" 
d="M7 438h95l90 -216q12 -29 24 -62l22 -62l23.5 62t22.5 56l92 222h90l-191 -438h-74z" />
    <glyph glyph-name="w" unicode="w" horiz-adv-x="695" 
d="M12 438h92l83 -236q8 -23 15.5 -49.5t12.5 -49.5q4 23 10.5 49t12.5 46l73 240h75l73 -236q8 -26 15 -51.5t12 -47.5q2 11 7 27l10 31q5 18 11 37l81 240h88l-162 -438h-75l-75 240q-5 17 -12 43.5t-13 52.5q-6 -26 -13 -52.5t-12 -43.5l-72 -240h-75z" />
    <glyph glyph-name="x" unicode="x" horiz-adv-x="450" 
d="M178 224l-162 214h103l57 -78l50 -71l53.5 73.5l56.5 75.5h98l-161 -214l172 -224h-105l-28.5 39.5l-30.5 43.5l-29.5 43l-26.5 38q-23 -35 -56 -79l-64 -85h-100z" />
    <glyph glyph-name="y" unicode="y" horiz-adv-x="471" 
d="M202 54l-196 384h98l77 -157l33 -67.5l33 -69.5l27 61l27 61l78 172h87l-303 -639h-84z" />
    <glyph glyph-name="z" unicode="z" horiz-adv-x="449" 
d="M273 365h-223v73h377l-253 -364h239v-74h-391z" />
    <glyph glyph-name="braceleft" unicode="{" horiz-adv-x="366" 
d="M294 -170q-37 0 -65 7.5t-46.5 29t-28 59.5t-9.5 99v100q0 38 -3.5 65t-14 44.5t-29 26t-47.5 8.5v65q30 0 48 8t28.5 24.5t14 41t3.5 58.5v133q0 88 42 124t121 36h23v-65q-27 0 -47 -4.5t-32.5 -16.5t-19 -33t-6.5 -53v-99q0 -48 -3.5 -79.5t-12.5 -52.5t-25 -34
t-41 -22q25 -9 41.5 -22.5t25.5 -37.5t12.5 -60t3.5 -90v-78q0 -35 5.5 -57t17.5 -35.5t32 -18.5t49 -5v-66h-37z" />
    <glyph glyph-name="bar" unicode="|" horiz-adv-x="240" 
d="M80 801h81v-1002h-81v1002z" />
    <glyph glyph-name="braceright" unicode="}" horiz-adv-x="366" 
d="M35 -104q29 0 49 5t32 18.5t17.5 35.5t5.5 57v78q0 54 3.5 90t12.5 60t25 37.5t42 22.5q-25 9 -41 22t-25 34t-12.5 52.5t-3.5 79.5v99q0 32 -6.5 53t-19 33t-32.5 16.5t-47 4.5v65h23q79 0 121 -36t42 -124v-133q0 -34 3.5 -58.5t14 -41t28.5 -24.5t48 -8v-65
q-29 0 -47.5 -8.5t-29 -26t-14 -44.5t-3.5 -65v-100q0 -61 -9.5 -99t-28.5 -59.5t-46.5 -29t-64.5 -7.5h-37v66z" />
    <glyph glyph-name="asciitilde" unicode="~" horiz-adv-x="742" 
d="M126 298q24 34 59.5 56t80.5 22q28 0 55.5 -11t54.5 -24.5t53 -24.5t50 -11q28 0 55.5 15.5t46.5 39.5l38 -72q-29 -32 -65 -52t-78 -20q-29 0 -56.5 11t-53.5 24.5t-51 24.5t-50 11q-32 0 -56.5 -18t-41.5 -44z" />
    <glyph glyph-name="nonbreakingspace" unicode="&#xa0;" horiz-adv-x="271" 
 />
    <glyph glyph-name="exclamdown" unicode="&#xa1;" horiz-adv-x="261" 
d="M155 385q-27 0 -46.5 19.5t-19.5 46.5t19.5 46.5t46.5 19.5t46.5 -19.5t19.5 -46.5t-19.5 -46.5t-46.5 -19.5zM115 323h80v-524h-80v524z" />
    <glyph glyph-name="cent" unicode="&#xa2;" horiz-adv-x="580" 
d="M308 128q-51 4 -90 24.5t-65.5 52t-39.5 69.5t-13 77q0 44 15.5 83.5t43 70.5t65.5 50.5t84 24.5v129h52v-128q50 -5 93 -23v-84q-42 24 -93 30v-296q23 2 47.5 9t46.5 20v-85q-20 -9 -44 -15.5t-50 -8.5v-128h-52v128zM308 502q-54 -10 -86 -51t-32 -95t32 -95t86 -51
v292z" />
    <glyph glyph-name="sterling" unicode="&#xa3;" horiz-adv-x="580" 
d="M74 55q22 14 42.5 29.5t36 33.5t24.5 40t9 51q0 28 -8.5 56t-21.5 57h-92v71h60q-14 31 -24 61.5t-10 59.5q0 41 14 78t41 65.5t65.5 45t87.5 16.5q88 0 139 -43t69 -113l-75 -28q-14 56 -51 84t-85 28q-54 0 -86 -34.5t-32 -94.5q0 -34 10.5 -64.5t24.5 -60.5h185v-71
h-152q11 -26 17.5 -52.5t6.5 -56.5q0 -26 -12.5 -56t-35.5 -52q25 0 44 -5.5t37 -12t38 -12t49 -5.5q35 0 60.5 9t46.5 27l34 -68q-58 -47 -144 -47q-25 0 -47 6t-43.5 13.5t-42.5 13.5t-44 6q-28 0 -55.5 -11.5t-41.5 -25.5z" />
    <glyph glyph-name="currency" unicode="&#xa4;" horiz-adv-x="680" 
d="M144 207q-19 28 -29.5 61t-10.5 71q0 37 11.5 71t32.5 62l-104 103l57 57l104 -104q28 20 61 30.5t69 10.5q74 0 131 -40l103 103l57 -57l-102 -102q17 -26 27.5 -59t10.5 -71q0 -36 -10.5 -69.5t-30.5 -61.5l106 -106l-57 -57l-106 106q-28 -20 -61.5 -31t-71.5 -11
q-36 0 -69 10t-60 28l-102 -102l-57 57zM335 191q30 0 56 11.5t45 32t30 47.5t11 58q0 32 -11.5 60t-31 48.5t-46 32.5t-57.5 12q-30 0 -56 -11.5t-45 -32t-30 -47.5t-11 -58q0 -32 11.5 -60t31 -48.5t46 -32.5t57.5 -12z" />
    <glyph glyph-name="yen" unicode="&#xa5;" horiz-adv-x="580" 
d="M81 165h163v88h-163v71h163v1l-222 384h102l169 -300l168 300h97l-224 -384v-1h163v-71h-163v-88h163v-71h-163v-94h-90v94h-163v71z" />
    <glyph glyph-name="brokenbar" unicode="&#xa6;" horiz-adv-x="251" 
d="M85 693h81v-384h-81v384zM85 191h81v-383h-81v383z" />
    <glyph glyph-name="section" unicode="&#xa7;" horiz-adv-x="529" 
d="M169 -4q0 -42 24.5 -66t66.5 -24q45 0 65 24.5t20 56.5t-18.5 56t-63.5 43l-60 25q-63 26 -102 71t-39 118q0 27 8 54.5t25.5 51t43.5 40t62 22.5q-59 28 -82 61.5t-23 84.5q0 31 12.5 58t35 47t54 32t69.5 12q81 0 127 -42.5t41 -125.5h-85q3 42 -17.5 68.5t-69.5 26.5
q-32 0 -58 -19t-26 -58q0 -28 20.5 -53t65.5 -46l77 -36q57 -26 87.5 -73.5t30.5 -104.5q0 -63 -34.5 -106.5t-95.5 -62.5q56 -24 77.5 -60t21.5 -81q0 -38 -13 -67.5t-36 -49.5t-54.5 -30.5t-68.5 -10.5q-49 0 -82 14t-53.5 36.5t-29.5 52t-9 61.5h86zM261 187q23 0 43.5 9
t36 24.5t24.5 36t9 43.5t-9 43.5t-24.5 36t-36 24.5t-43.5 9t-43.5 -9t-36 -24.5t-24.5 -36t-9 -43.5t9 -43.5t24.5 -36t36 -24.5t43.5 -9z" />
    <glyph glyph-name="dieresis" unicode="&#xa8;" horiz-adv-x="340" 
d="M258 561q-24 0 -41 17t-17 41t17 41t41 17t41 -17t17 -41t-17 -41t-41 -17zM82 561q-24 0 -41 17t-17 41t17 41t41 17t41 -17t17 -41t-17 -41t-41 -17z" />
    <glyph glyph-name="copyright" unicode="&#xa9;" horiz-adv-x="847" 
d="M424 -17q-77 0 -144.5 29.5t-118 80t-80 118t-29.5 144.5t29.5 144.5t80 118t118 80t144.5 29.5t144.5 -29.5t118 -80t80 -118t29.5 -144.5t-29.5 -144.5t-80 -118t-118 -80t-144.5 -29.5zM424 31q67 0 126 25.5t103 69.5t69.5 103t25.5 126t-25.5 126t-69.5 103
t-103 69.5t-126 25.5t-126 -25.5t-103 -69.5t-69.5 -103t-25.5 -126t25.5 -126t69.5 -103t103 -69.5t126 -25.5zM621 210q-32 -39 -80 -65t-110 -26q-52 0 -96 17.5t-76 49t-50 75t-18 95.5t18.5 95.5t50.5 75t76 49t94 17.5q65 0 109 -22.5t82 -66.5l-56 -53
q-23 30 -57 49.5t-79 19.5q-27 0 -54.5 -9.5t-50 -30t-36.5 -51.5t-14 -73q0 -35 12.5 -65t34 -52t50.5 -34.5t62 -12.5q38 0 70.5 18t61.5 50z" />
    <glyph glyph-name="ordfeminine" unicode="&#xaa;" horiz-adv-x="574" 
d="M382 395q-22 -29 -53 -40t-66 -11q-42 0 -75.5 15t-57 41t-36 59.5t-12.5 71.5q0 45 14.5 80.5t39 60.5t57.5 38.5t70 13.5q44 0 71.5 -14.5t47.5 -39.5v47h76v-366h-76v44zM93 279h381v-73h-381v73zM272 414q54 0 82 34.5t28 85.5q0 31 -9.5 53.5t-24.5 37.5t-35 22
t-41 7q-24 0 -44 -10t-35 -27t-23 -38.5t-8 -44.5q0 -28 9.5 -50.5t25 -38t35 -23.5t40.5 -8z" />
    <glyph glyph-name="guillemotleft" unicode="&#xab;" horiz-adv-x="395" 
d="M184 229l129 185l55 -37l-109 -148l109 -147l-55 -38zM22 229l131 193l54 -38l-110 -155l110 -154l-54 -38z" />
    <glyph glyph-name="logicalnot" unicode="&#xac;" horiz-adv-x="680" 
d="M55 329h548v-254h-81v174h-467v80z" />
    <glyph glyph-name="uni00AD" unicode="&#xad;" horiz-adv-x="344" 
d="M46 312h253v-71h-253v71z" />
    <glyph glyph-name="registered" unicode="&#xae;" horiz-adv-x="847" 
d="M415 131q-67 0 -126 25.5t-103 69.5t-69.5 103t-25.5 126t25.5 126t69.5 103t103 69.5t126 25.5t126 -25.5t103 -69.5t69.5 -103t25.5 -126t-25.5 -126t-69.5 -103t-103 -69.5t-126 -25.5zM415 187q55 0 104 21t85.5 57.5t57.5 85t21 104.5q0 55 -21 104t-57.5 85.5
t-85.5 57.5t-104 21q-56 0 -104.5 -21t-85 -57.5t-57.5 -85.5t-21 -104q0 -56 21 -104.5t57.5 -85t85 -57.5t104.5 -21zM303 651h107q36 0 61 -8.5t40.5 -22.5t23 -32t7.5 -36q0 -45 -28.5 -74.5t-81.5 -35.5l124 -174h-71l-116 169h-5v-169h-61v383zM389 484q18 0 34.5 2
t28.5 8.5t19.5 19t7.5 33.5q0 32 -21 44t-54 12h-40v-119h25z" />
    <glyph glyph-name="macron" unicode="&#xaf;" horiz-adv-x="298" 
d="M22 653h253v-71h-253v71z" />
    <glyph glyph-name="degree" unicode="&#xb0;" horiz-adv-x="366" 
d="M183 434q-34 0 -63.5 13t-51.5 35t-34.5 51.5t-12.5 63.5t13 63.5t35 51.5t51.5 34.5t62.5 12.5q34 0 63.5 -12.5t51 -34.5t34 -51.5t12.5 -63.5q0 -10 -2 -28.5t-13 -41.5q-20 -42 -59.5 -67.5t-86.5 -25.5zM183 519q33 0 56.5 23.5t23.5 56.5q0 16 -6.5 30.5t-17 25.5
t-25.5 17.5t-31 6.5q-34 0 -56.5 -24t-22.5 -56q0 -33 23 -56.5t56 -23.5z" />
    <glyph glyph-name="plusminus" unicode="&#xb1;" horiz-adv-x="680" 
d="M60 444h239v207h82v-207h239v-80h-239v-209h-82v209h-239v80zM60 80h560v-80h-560v80z" />
    <glyph glyph-name="twosuperior" unicode="&#xb2;" horiz-adv-x="389" 
d="M51 363l100 77q27 21 46.5 38.5t31.5 33.5t17.5 31t5.5 32q0 34 -15 56t-51 22q-21 0 -34.5 -8.5t-21 -22t-9.5 -30.5t-1 -33h-74q-2 72 35 114.5t107 42.5q37 0 64 -11.5t43.5 -30.5t24.5 -43t8 -49q0 -27 -9.5 -50t-25.5 -43.5t-37 -39.5t-45 -38l-36 -29h163v-68h-287
v49z" />
    <glyph glyph-name="threesuperior" unicode="&#xb3;" horiz-adv-x="373" 
d="M121 431q1 -29 16.5 -47.5t44.5 -18.5t46 18t17 44q0 28 -17.5 46.5t-52.5 18.5h-31v55h26q32 0 48 16.5t16 41.5t-15.5 39t-38.5 14q-26 0 -40 -17t-12 -43h-70q0 55 33.5 86.5t91.5 31.5q31 0 54.5 -9t39.5 -24t23.5 -34.5t7.5 -40.5q0 -58 -51 -83q28 -8 46 -35.5
t18 -57.5q0 -24 -8.5 -47t-26.5 -40t-44.5 -27.5t-62.5 -10.5q-33 0 -58 10.5t-41.5 28t-25 39.5t-8.5 46h75z" />
    <glyph glyph-name="acute" unicode="&#xb4;" horiz-adv-x="340" 
d="M210 700l65 -51l-145 -119l-46 38z" />
    <glyph glyph-name="mu" unicode="&#xb5;" horiz-adv-x="536" 
d="M75 438h83v-241q0 -56 29 -92.5t81 -36.5q26 0 46.5 10.5t34.5 28t21.5 40.5t7.5 49v242h83v-438h-80v61q-12 -29 -41.5 -50t-73.5 -21q-42 0 -69 20t-39 45v-256h-83v639z" />
    <glyph glyph-name="paragraph" unicode="&#xb6;" horiz-adv-x="658" 
d="M251 319q-35 6 -64.5 22.5t-51.5 42t-34.5 58t-12.5 70.5q0 41 15.5 77t42.5 62.5t64 42t79 15.5h278v-63h-63v-814h-78v814h-97v-814h-78v487z" />
    <glyph glyph-name="periodcentered" unicode="&#xb7;" horiz-adv-x="219" 
d="M110 225q-29 0 -48.5 19.5t-19.5 48.5t19.5 48.5t48.5 19.5t48.5 -19.5t19.5 -48.5t-19.5 -48.5t-48.5 -19.5z" />
    <glyph glyph-name="cedilla" unicode="&#xb8;" horiz-adv-x="340" 
d="M178 -33l63 -52l-106 -120l-54 43z" />
    <glyph glyph-name="onesuperior" unicode="&#xb9;" horiz-adv-x="258" 
d="M106 640h-76v69h150v-395h-74v326z" />
    <glyph glyph-name="ordmasculine" unicode="&#xba;" horiz-adv-x="574" 
d="M280 343q-41 0 -75.5 14.5t-60 39.5t-40 59.5t-14.5 75.5q0 40 15.5 75t42 61t61.5 41.5t75 15.5t75 -14.5t60.5 -39.5t40 -60t14.5 -75q0 -41 -15 -76t-41.5 -61t-62 -41t-75.5 -15zM93 279h381v-73h-381v73zM284 414q24 0 44.5 9.5t36 25.5t24 37.5t8.5 46.5t-9 47.5
t-25 39.5t-37 26.5t-46 9.5q-24 0 -44.5 -9.5t-36 -25.5t-24 -38t-8.5 -47q0 -26 9 -48t24.5 -38.5t37 -26t46.5 -9.5z" />
    <glyph glyph-name="guillemotright" unicode="&#xbb;" horiz-adv-x="395" 
d="M298 209l-110 154l54 38l131 -192l-131 -193l-54 38zM136 209l-109 147l55 38l129 -185l-129 -185l-55 37z" />
    <glyph glyph-name="onequarter" unicode="&#xbc;" horiz-adv-x="778" 
d="M548 730l56 -29l-433 -727l-55 32zM398 117l166 278h97v-267h65v-62h-65v-66h-72v66h-191v51zM589 128v193l-112 -193h112zM134 640h-76v69h150v-395h-74v326z" />
    <glyph glyph-name="onehalf" unicode="&#xbd;" horiz-adv-x="842" 
d="M548 730l56 -29l-433 -727l-55 32zM134 640h-76v69h150v-395h-74v326zM478 49l100 77q27 21 46.5 38.5t31.5 33.5t17.5 31t5.5 32q0 34 -15 56t-51 22q-21 0 -34.5 -8.5t-21 -22t-9.5 -30.5t-1 -33h-74q-2 72 35 114.5t107 42.5q37 0 64 -11.5t43.5 -30.5t24.5 -43t8 -49
q0 -27 -9.5 -50t-25.5 -43.5t-37 -39.5t-45 -38l-36 -29h163v-68h-287v49z" />
    <glyph glyph-name="threequarters" unicode="&#xbe;" horiz-adv-x="851" 
d="M621 730l56 -29l-433 -727l-55 32zM120 431q1 -29 16.5 -47.5t44.5 -18.5t46 18t17 44q0 28 -17.5 46.5t-52.5 18.5h-31v55h26q32 0 48 16.5t16 41.5t-15.5 39t-38.5 14q-26 0 -40 -17t-12 -43h-70q0 55 33.5 86.5t91.5 31.5q31 0 54.5 -9t39.5 -24t23.5 -34.5t7.5 -40.5
q0 -58 -51 -83q28 -8 46 -35.5t18 -57.5q0 -24 -8.5 -47t-26.5 -40t-44.5 -27.5t-62.5 -10.5q-33 0 -58 10.5t-41.5 28t-25 39.5t-8.5 46h75zM471 117l166 278h97v-267h65v-62h-65v-66h-72v66h-191v51zM662 128v193l-112 -193h112z" />
    <glyph glyph-name="questiondown" unicode="&#xbf;" horiz-adv-x="509" 
d="M265 386q-27 0 -46.5 19.5t-19.5 46.5t19.5 46.5t46.5 19.5t46.5 -19.5t19.5 -46.5t-19.5 -46.5t-46.5 -19.5zM225 321h83v-212h-46q-57 0 -91.5 -34.5t-34.5 -88.5q0 -26 9.5 -48.5t26 -39.5t38.5 -27t48 -10q25 0 47.5 10.5t39.5 28.5t26 43t7 55h83q3 -43 -12 -80.5
t-43 -66t-67 -45t-84 -16.5q-44 0 -81 14.5t-64 40.5t-42 61.5t-15 76.5t15 75t39 59t55 40t63 18v146z" />
    <glyph glyph-name="Agrave" unicode="&#xc0;" horiz-adv-x="658" 
d="M293 709h75l275 -709h-98l-71 190h-293l-71 -190h-95zM444 266l-65 172l-14 36.5t-17 46.5l-21 58q-10 -31 -20 -57q-8 -23 -17 -46t-14 -37l-66 -173h234zM241 911l157 -108l-38 -59l-166 93z" />
    <glyph glyph-name="Aacute" unicode="&#xc1;" horiz-adv-x="658" 
d="M293 709h75l275 -709h-98l-71 190h-293l-71 -190h-95zM444 266l-65 172l-14 36.5t-17 46.5l-21 58q-10 -31 -20 -57q-8 -23 -17 -46t-14 -37l-66 -173h234zM271 803l155 108l47 -73l-165 -93z" />
    <glyph glyph-name="Acircumflex" unicode="&#xc2;" horiz-adv-x="658" 
d="M293 709h75l275 -709h-98l-71 190h-293l-71 -190h-95zM444 266l-65 172l-14 36.5t-17 46.5l-21 58q-10 -31 -20 -57q-8 -23 -17 -46t-14 -37l-66 -173h234zM174 799l153 108l156 -109l-44 -48l-112 69l-110 -69z" />
    <glyph glyph-name="Atilde" unicode="&#xc3;" horiz-adv-x="658" 
d="M293 709h75l275 -709h-98l-71 190h-293l-71 -190h-95zM444 266l-65 172l-14 36.5t-17 46.5l-21 58q-10 -31 -20 -57q-8 -23 -17 -46t-14 -37l-66 -173h234zM139 774q0 52 27.5 86t81.5 34q22 0 41.5 -9t37.5 -20.5t34.5 -20.5t34.5 -9q20 0 32 14t12 40h64
q0 -52 -27.5 -86t-81.5 -34q-24 0 -45 9t-39 20.5t-34 20.5t-30 9q-20 0 -32 -14t-12 -40h-64z" />
    <glyph glyph-name="Adieresis" unicode="&#xc4;" horiz-adv-x="658" 
d="M293 709h75l275 -709h-98l-71 190h-293l-71 -190h-95zM444 266l-65 172l-14 36.5t-17 46.5l-21 58q-10 -31 -20 -57q-8 -23 -17 -46t-14 -37l-66 -173h234zM419 771q-24 0 -41 17t-17 41t17 41t41 17t41 -17t17 -41t-17 -41t-41 -17zM243 771q-24 0 -41 17t-17 41t17 41
t41 17t41 -17t17 -41t-17 -41t-41 -17z" />
    <glyph glyph-name="Aring" unicode="&#xc5;" horiz-adv-x="658" 
d="M281 678q-21 12 -33.5 33t-12.5 47q0 19 7.5 36.5t21 30t30.5 20t37 7.5q40 0 68 -27t28 -67q0 -26 -13 -47t-34 -34l263 -677h-98l-71 190h-293l-71 -190h-95zM331 711q20 0 33 13.5t13 33.5q0 19 -13.5 33t-32.5 14q-20 0 -33 -13.5t-13 -33.5q0 -19 13.5 -33t32.5 -14
zM444 266l-65 172l-14 36.5t-17 46.5l-21 58q-10 -31 -20 -57q-8 -23 -17 -46t-14 -37l-66 -173h234z" />
    <glyph glyph-name="AE" unicode="&#xc6;" horiz-adv-x="932" 
d="M319 709h353l30 -84h-280l74 -217h269l29 -80h-269l83 -245h283l30 -83h-383l-62 190h-293l-80 -190h-95zM450 266l-57 172q-5 13 -12 36.5t-15 46.5q-9 27 -18 58l-23 -57l-20 -46t-15 -37l-74 -173h234z" />
    <glyph glyph-name="Ccedilla" unicode="&#xc7;" horiz-adv-x="650" 
d="M599 35q-42 -20 -91.5 -31t-104.5 -11q-78 0 -143 27.5t-112.5 75.5t-73.5 113.5t-26 142.5q0 83 27.5 150.5t76 115t114 73.5t141.5 26q52 0 97.5 -10t85.5 -29v-97q-35 22 -84 37.5t-105 15.5q-54 0 -100.5 -21t-81 -58t-54 -88t-19.5 -112q0 -60 20 -111t55.5 -88
t84 -58t104.5 -21q52 0 101.5 12.5t87.5 38.5v-93v0zM345 -33l63 -52l-106 -120l-54 43z" />
    <glyph glyph-name="Egrave" unicode="&#xc8;" horiz-adv-x="531" 
d="M85 709h370v-84h-280v-217h269v-80h-269v-245h283v-83h-373v709zM156 911l157 -108l-38 -59l-166 93z" />
    <glyph glyph-name="Eacute" unicode="&#xc9;" horiz-adv-x="531" 
d="M85 709h370v-84h-280v-217h269v-80h-269v-245h283v-83h-373v709zM198 803l155 108l47 -73l-165 -93z" />
    <glyph glyph-name="Ecircumflex" unicode="&#xca;" horiz-adv-x="531" 
d="M85 709h370v-84h-280v-217h269v-80h-269v-245h283v-83h-373v709zM120 799l153 108l156 -109l-44 -48l-112 69l-110 -69z" />
    <glyph glyph-name="Edieresis" unicode="&#xcb;" horiz-adv-x="531" 
d="M85 709h370v-84h-280v-217h269v-80h-269v-245h283v-83h-373v709zM357 771q-24 0 -41 17t-17 41t17 41t41 17t41 -17t17 -41t-17 -41t-41 -17zM181 771q-24 0 -41 17t-17 41t17 41t41 17t41 -17t17 -41t-17 -41t-41 -17z" />
    <glyph glyph-name="Igrave" unicode="&#xcc;" horiz-adv-x="260" 
d="M85 709h90v-709h-90v709zM29 911l157 -108l-38 -59l-166 93z" />
    <glyph glyph-name="Iacute" unicode="&#xcd;" horiz-adv-x="260" 
d="M85 709h90v-709h-90v709zM67 803l155 108l47 -73l-165 -93z" />
    <glyph glyph-name="Icircumflex" unicode="&#xce;" horiz-adv-x="260" 
d="M85 709h90v-709h-90v709zM-20 799l153 108l156 -109l-44 -48l-112 69l-110 -69z" />
    <glyph glyph-name="Idieresis" unicode="&#xcf;" horiz-adv-x="260" 
d="M85 709h90v-709h-90v709zM220 771q-24 0 -41 17t-17 41t17 41t41 17t41 -17t17 -41t-17 -41t-41 -17zM44 771q-24 0 -41 17t-17 41t17 41t41 17t41 -17t17 -41t-17 -41t-41 -17z" />
    <glyph glyph-name="Eth" unicode="&#xd0;" horiz-adv-x="684" 
d="M101 325h-69v81h69v303h170q82 0 149.5 -23.5t114.5 -69t73 -111.5t26 -150q0 -64 -19 -127.5t-64 -114t-120 -82t-188 -31.5h-142v325zM252 81q83 0 138 20.5t88 57t47 85.5t14 106q0 60 -15.5 111.5t-49.5 88.5t-86.5 58t-125.5 21h-71v-223h78v-81h-78v-244h61z" />
    <glyph glyph-name="Ntilde" unicode="&#xd1;" horiz-adv-x="785" 
d="M85 709h85l449 -572v572h81v-709h-85l-448 572v-572h-82v709zM202 774q0 52 27.5 86t81.5 34q22 0 41.5 -9t37.5 -20.5t34.5 -20.5t34.5 -9q20 0 32 14t12 40h64q0 -52 -27.5 -86t-81.5 -34q-24 0 -45 9t-39 20.5t-34 20.5t-30 9q-20 0 -32 -14t-12 -40h-64z" />
    <glyph glyph-name="Ograve" unicode="&#xd2;" horiz-adv-x="841" 
d="M419 -12q-76 0 -143 28.5t-117.5 77.5t-79.5 115.5t-29 143.5q0 74 29.5 141t80.5 117.5t118.5 80t143.5 29.5q78 0 145.5 -28.5t117 -78t78 -116t28.5 -142.5q0 -77 -29.5 -144t-80.5 -116.5t-118.5 -78.5t-143.5 -29zM421 73q60 0 110 21.5t87 59t57.5 89t20.5 110.5
q0 60 -20 112t-56.5 90.5t-87.5 60.5t-112 22q-59 0 -109.5 -23t-87.5 -61.5t-58 -89.5t-21 -108t22 -108.5t59.5 -90.5t88 -61.5t107.5 -22.5zM348 911l157 -108l-38 -59l-166 93z" />
    <glyph glyph-name="Oacute" unicode="&#xd3;" horiz-adv-x="841" 
d="M419 -12q-76 0 -143 28.5t-117.5 77.5t-79.5 115.5t-29 143.5q0 74 29.5 141t80.5 117.5t118.5 80t143.5 29.5q78 0 145.5 -28.5t117 -78t78 -116t28.5 -142.5q0 -77 -29.5 -144t-80.5 -116.5t-118.5 -78.5t-143.5 -29zM421 73q60 0 110 21.5t87 59t57.5 89t20.5 110.5
q0 60 -20 112t-56.5 90.5t-87.5 60.5t-112 22q-59 0 -109.5 -23t-87.5 -61.5t-58 -89.5t-21 -108t22 -108.5t59.5 -90.5t88 -61.5t107.5 -22.5zM332 803l155 108l47 -73l-165 -93z" />
    <glyph glyph-name="Ocircumflex" unicode="&#xd4;" horiz-adv-x="841" 
d="M419 -12q-76 0 -143 28.5t-117.5 77.5t-79.5 115.5t-29 143.5q0 74 29.5 141t80.5 117.5t118.5 80t143.5 29.5q78 0 145.5 -28.5t117 -78t78 -116t28.5 -142.5q0 -77 -29.5 -144t-80.5 -116.5t-118.5 -78.5t-143.5 -29zM421 73q60 0 110 21.5t87 59t57.5 89t20.5 110.5
q0 60 -20 112t-56.5 90.5t-87.5 60.5t-112 22q-59 0 -109.5 -23t-87.5 -61.5t-58 -89.5t-21 -108t22 -108.5t59.5 -90.5t88 -61.5t107.5 -22.5zM271 799l153 108l156 -109l-44 -48l-112 69l-110 -69z" />
    <glyph glyph-name="Otilde" unicode="&#xd5;" horiz-adv-x="841" 
d="M419 -12q-76 0 -143 28.5t-117.5 77.5t-79.5 115.5t-29 143.5q0 74 29.5 141t80.5 117.5t118.5 80t143.5 29.5q78 0 145.5 -28.5t117 -78t78 -116t28.5 -142.5q0 -77 -29.5 -144t-80.5 -116.5t-118.5 -78.5t-143.5 -29zM421 73q60 0 110 21.5t87 59t57.5 89t20.5 110.5
q0 60 -20 112t-56.5 90.5t-87.5 60.5t-112 22q-59 0 -109.5 -23t-87.5 -61.5t-58 -89.5t-21 -108t22 -108.5t59.5 -90.5t88 -61.5t107.5 -22.5zM232 774q0 52 27.5 86t81.5 34q22 0 41.5 -9t37.5 -20.5t34.5 -20.5t34.5 -9q20 0 32 14t12 40h64q0 -52 -27.5 -86t-81.5 -34
q-24 0 -45 9t-39 20.5t-34 20.5t-30 9q-20 0 -32 -14t-12 -40h-64z" />
    <glyph glyph-name="Odieresis" unicode="&#xd6;" horiz-adv-x="841" 
d="M419 -12q-76 0 -143 28.5t-117.5 77.5t-79.5 115.5t-29 143.5q0 74 29.5 141t80.5 117.5t118.5 80t143.5 29.5q78 0 145.5 -28.5t117 -78t78 -116t28.5 -142.5q0 -77 -29.5 -144t-80.5 -116.5t-118.5 -78.5t-143.5 -29zM421 73q60 0 110 21.5t87 59t57.5 89t20.5 110.5
q0 60 -20 112t-56.5 90.5t-87.5 60.5t-112 22q-59 0 -109.5 -23t-87.5 -61.5t-58 -89.5t-21 -108t22 -108.5t59.5 -90.5t88 -61.5t107.5 -22.5zM509 771q-24 0 -41 17t-17 41t17 41t41 17t41 -17t17 -41t-17 -41t-41 -17zM333 771q-24 0 -41 17t-17 41t17 41t41 17t41 -17
t17 -41t-17 -41t-41 -17z" />
    <glyph glyph-name="multiply" unicode="&#xd7;" horiz-adv-x="680" 
d="M75 88l202 201l-202 202l54 55l203 -202l201 202l57 -55l-201 -202l201 -201l-57 -57l-201 201l-203 -201z" />
    <glyph glyph-name="Oslash" unicode="&#xd8;" horiz-adv-x="841" 
d="M138 116q-42 48 -65 108t-23 129q0 74 29.5 141t80.5 117.5t118.5 80t143.5 29.5q69 0 130 -22.5t109 -62.5l86 86l45 -45l-86 -86q40 -48 62.5 -107.5t22.5 -127.5q0 -77 -29.5 -144t-80.5 -116.5t-118.5 -78.5t-143.5 -29q-67 0 -127 22t-109 61l-87 -86l-45 45z
M599 575q-35 29 -80 46t-99 17q-59 0 -109.5 -23t-87.5 -61.5t-58 -89.5t-21 -108q0 -48 15.5 -93t44.5 -81zM248 136q35 -29 79 -46t94 -17q60 0 110 21.5t87 59t57.5 89t20.5 110.5q0 101 -54 175z" />
    <glyph glyph-name="Ugrave" unicode="&#xd9;" horiz-adv-x="698" 
d="M85 709h90v-432q0 -62 14.5 -102t39 -63.5t55.5 -32.5t64 -9q27 0 58.5 6.5t57.5 27.5t43.5 59.5t17.5 102.5v443h88v-433q0 -83 -22.5 -138t-59.5 -87.5t-85 -46t-99 -13.5q-59 0 -107 16t-82.5 50t-53.5 85.5t-19 123.5v443zM245 911l157 -108l-38 -59l-166 93z" />
    <glyph glyph-name="Uacute" unicode="&#xda;" horiz-adv-x="698" 
d="M85 709h90v-432q0 -62 14.5 -102t39 -63.5t55.5 -32.5t64 -9q27 0 58.5 6.5t57.5 27.5t43.5 59.5t17.5 102.5v443h88v-433q0 -83 -22.5 -138t-59.5 -87.5t-85 -46t-99 -13.5q-59 0 -107 16t-82.5 50t-53.5 85.5t-19 123.5v443zM253 803l155 108l47 -73l-165 -93z" />
    <glyph glyph-name="Ucircumflex" unicode="&#xdb;" horiz-adv-x="698" 
d="M85 709h90v-432q0 -62 14.5 -102t39 -63.5t55.5 -32.5t64 -9q27 0 58.5 6.5t57.5 27.5t43.5 59.5t17.5 102.5v443h88v-433q0 -83 -22.5 -138t-59.5 -87.5t-85 -46t-99 -13.5q-59 0 -107 16t-82.5 50t-53.5 85.5t-19 123.5v443zM197 799l153 108l156 -109l-44 -48l-112 69
l-110 -69z" />
    <glyph glyph-name="Udieresis" unicode="&#xdc;" horiz-adv-x="698" 
d="M85 709h90v-432q0 -62 14.5 -102t39 -63.5t55.5 -32.5t64 -9q27 0 58.5 6.5t57.5 27.5t43.5 59.5t17.5 102.5v443h88v-433q0 -83 -22.5 -138t-59.5 -87.5t-85 -46t-99 -13.5q-59 0 -107 16t-82.5 50t-53.5 85.5t-19 123.5v443zM438 771q-24 0 -41 17t-17 41t17 41t41 17
t41 -17t17 -41t-17 -41t-41 -17zM262 771q-24 0 -41 17t-17 41t17 41t41 17t41 -17t17 -41t-17 -41t-41 -17z" />
    <glyph glyph-name="Yacute" unicode="&#xdd;" horiz-adv-x="574" 
d="M241 318l-226 391h102l173 -307l172 307h97l-228 -391v-318h-90v318zM240 803l155 108l47 -73l-165 -93z" />
    <glyph glyph-name="Thorn" unicode="&#xde;" horiz-adv-x="488" 
d="M85 709h90v-145h65q105 0 164.5 -50t59.5 -150q0 -44 -16.5 -82t-48 -66t-76.5 -44t-102 -16h-46v-156h-90v709zM225 234q69 0 107.5 34.5t38.5 89.5q0 60 -32.5 94t-110.5 34h-53v-252h50z" />
    <glyph glyph-name="germandbls" unicode="&#xdf;" horiz-adv-x="548" 
d="M70 551q0 41 9.5 77t30.5 62.5t54.5 41.5t80.5 15q39 0 69.5 -12t51.5 -32.5t32.5 -48t11.5 -58.5q0 -38 -12 -63t-27 -46t-27 -42t-12 -51q0 -20 12.5 -34.5t31 -28t40 -27.5t40 -33t31 -45t12.5 -64q0 -36 -12.5 -67t-35.5 -53t-55 -34.5t-71 -12.5q-52 0 -96 23l25 73
q33 -23 75 -23q15 0 29.5 6t26 17t19 28t7.5 38q0 27 -12 44.5t-29.5 31.5t-38.5 26.5t-38.5 29t-29.5 39.5t-12 58q0 36 12 60t26 45t26 43.5t12 55.5q0 36 -23 61t-62 25q-49 0 -69 -31.5t-20 -76.5v-568h-83v551z" />
    <glyph glyph-name="agrave" unicode="&#xe0;" horiz-adv-x="568" 
d="M410 63q-22 -33 -61 -52.5t-87 -19.5q-46 0 -85.5 17t-69 47t-46 71t-16.5 89q0 49 17 91.5t46.5 73.5t69 49t84.5 18t83.5 -18t64.5 -52v61h83v-438h-83v63zM273 64q32 0 58 11.5t45 32t29 49t10 62.5q0 71 -40 113t-102 42q-30 0 -56 -12t-45.5 -33t-30.5 -49.5
t-11 -60.5t11 -60.5t30.5 -49.5t45.5 -33t56 -12zM220 700l126 -134l-46 -37l-146 118z" />
    <glyph glyph-name="aacute" unicode="&#xe1;" horiz-adv-x="568" 
d="M410 63q-22 -33 -61 -52.5t-87 -19.5q-46 0 -85.5 17t-69 47t-46 71t-16.5 89q0 49 17 91.5t46.5 73.5t69 49t84.5 18t83.5 -18t64.5 -52v61h83v-438h-83v63zM273 64q32 0 58 11.5t45 32t29 49t10 62.5q0 71 -40 113t-102 42q-30 0 -56 -12t-45.5 -33t-30.5 -49.5
t-11 -60.5t11 -60.5t30.5 -49.5t45.5 -33t56 -12zM351 700l65 -51l-145 -119l-46 38z" />
    <glyph glyph-name="acircumflex" unicode="&#xe2;" horiz-adv-x="568" 
d="M410 63q-22 -33 -61 -52.5t-87 -19.5q-46 0 -85.5 17t-69 47t-46 71t-16.5 89q0 49 17 91.5t46.5 73.5t69 49t84.5 18t83.5 -18t64.5 -52v61h83v-438h-83v63zM273 64q32 0 58 11.5t45 32t29 49t10 62.5q0 71 -40 113t-102 42q-30 0 -56 -12t-45.5 -33t-30.5 -49.5
t-11 -60.5t11 -60.5t30.5 -49.5t45.5 -33t56 -12zM284 705l134 -130l-45 -44l-90 85l-95 -86l-44 42z" />
    <glyph glyph-name="atilde" unicode="&#xe3;" horiz-adv-x="568" 
d="M410 63q-22 -33 -61 -52.5t-87 -19.5q-46 0 -85.5 17t-69 47t-46 71t-16.5 89q0 49 17 91.5t46.5 73.5t69 49t84.5 18t83.5 -18t64.5 -52v61h83v-438h-83v63zM273 64q32 0 58 11.5t45 32t29 49t10 62.5q0 71 -40 113t-102 42q-30 0 -56 -12t-45.5 -33t-30.5 -49.5
t-11 -60.5t11 -60.5t30.5 -49.5t45.5 -33t56 -12zM103 556q0 52 27.5 86t81.5 34q22 0 41.5 -9t37.5 -20.5t34.5 -20.5t34.5 -9q20 0 32 14t12 40h64q0 -52 -27.5 -86t-81.5 -34q-24 0 -45 9t-39 20.5t-34 20.5t-30 9q-20 0 -32 -14t-12 -40h-64v0z" />
    <glyph glyph-name="adieresis" unicode="&#xe4;" horiz-adv-x="568" 
d="M410 63q-22 -33 -61 -52.5t-87 -19.5q-46 0 -85.5 17t-69 47t-46 71t-16.5 89q0 49 17 91.5t46.5 73.5t69 49t84.5 18t83.5 -18t64.5 -52v61h83v-438h-83v63zM273 64q32 0 58 11.5t45 32t29 49t10 62.5q0 71 -40 113t-102 42q-30 0 -56 -12t-45.5 -33t-30.5 -49.5
t-11 -60.5t11 -60.5t30.5 -49.5t45.5 -33t56 -12zM376 561q-24 0 -41 17t-17 41t17 41t41 17t41 -17t17 -41t-17 -41t-41 -17zM200 561q-24 0 -41 17t-17 41t17 41t41 17t41 -17t17 -41t-17 -41t-41 -17z" />
    <glyph glyph-name="aring" unicode="&#xe5;" horiz-adv-x="568" 
d="M410 63q-22 -33 -61 -52.5t-87 -19.5q-46 0 -85.5 17t-69 47t-46 71t-16.5 89q0 49 17 91.5t46.5 73.5t69 49t84.5 18t83.5 -18t64.5 -52v61h83v-438h-83v63zM273 64q32 0 58 11.5t45 32t29 49t10 62.5q0 71 -40 113t-102 42q-30 0 -56 -12t-45.5 -33t-30.5 -49.5
t-11 -60.5t11 -60.5t30.5 -49.5t45.5 -33t56 -12zM287 517q-40 0 -68 27t-28 67q0 19 7.5 36.5t21 30t30.5 20t37 7.5q40 0 68 -27t28 -67q0 -20 -7.5 -37t-21 -29.5t-31 -20t-36.5 -7.5zM287 564q20 0 33 13.5t13 33.5q0 19 -13.5 33t-32.5 14q-20 0 -33 -13.5t-13 -33.5
q0 -19 13.5 -33t32.5 -14z" />
    <glyph glyph-name="ae" unicode="&#xe6;" horiz-adv-x="807" 
d="M45 365q31 34 78 58t104 24q64 0 105 -23.5t61 -50.5q28 35 70 54.5t91 19.5q46 0 84 -15.5t65.5 -44.5t43 -69.5t15.5 -89.5q0 -11 -0.5 -19t-0.5 -15h-334q1 -28 12 -52t29.5 -41.5t43 -27.5t53.5 -10q42 0 76 18.5t57 48.5l57 -45q-39 -48 -87 -71t-111 -23
q-57 0 -102 22.5t-74 62.5q-23 -34 -65.5 -59.5t-99.5 -25.5q-46 0 -79.5 12t-55.5 31.5t-32.5 44.5t-10.5 51q0 57 43 93t135 36h135q0 22 -7.5 43.5t-23.5 38.5t-39.5 27.5t-55.5 10.5q-41 0 -73 -18t-52 -44zM675 261q0 24 -8.5 45.5t-24.5 37.5t-39 25.5t-52 9.5
q-27 0 -48.5 -10t-37.5 -26.5t-25.5 -38t-11.5 -43.5h247zM215 192q-49 0 -69.5 -18t-20.5 -45q0 -29 25 -47.5t70 -18.5q28 0 51.5 10t41 27.5t27.5 41t10 50.5h-135z" />
    <glyph glyph-name="ccedilla" unicode="&#xe7;" horiz-adv-x="444" 
d="M399 16q-26 -12 -58.5 -18.5t-64.5 -6.5q-57 0 -100.5 20t-72.5 51.5t-43.5 71.5t-14.5 81q0 48 18 90t49.5 73.5t75 49.5t94.5 18q31 0 60.5 -6.5t55.5 -17.5v-84q-26 14 -55 22.5t-61 8.5q-33 0 -60 -12t-46.5 -32t-30 -47.5t-10.5 -57.5t10.5 -57t30 -47.5t46.5 -32.5
t60 -12q28 0 59 7t58 23v-85v0zM233 -33l63 -52l-106 -120l-54 43z" />
    <glyph glyph-name="egrave" unicode="&#xe8;" horiz-adv-x="512" 
d="M460 85q-39 -48 -87 -71t-111 -23q-48 0 -88 16t-68.5 45.5t-44.5 71.5t-16 94q0 53 17.5 95.5t46.5 72t68 45.5t82 16q46 0 84 -15.5t65.5 -44.5t43 -69.5t15.5 -89.5q0 -13 -0.5 -20t-0.5 -14h-334q1 -28 12 -52t29.5 -41.5t43 -27.5t53.5 -10q42 0 76 18.5t57 48.5z
M380 261q0 24 -8.5 45.5t-24.5 37.5t-39 25.5t-52 9.5q-27 0 -48.5 -10t-37.5 -26.5t-25.5 -38t-11.5 -43.5h247zM188 700l126 -134l-46 -37l-146 118z" />
    <glyph glyph-name="eacute" unicode="&#xe9;" horiz-adv-x="512" 
d="M460 85q-39 -48 -87 -71t-111 -23q-48 0 -88 16t-68.5 45.5t-44.5 71.5t-16 94q0 53 17.5 95.5t46.5 72t68 45.5t82 16q46 0 84 -15.5t65.5 -44.5t43 -69.5t15.5 -89.5q0 -13 -0.5 -20t-0.5 -14h-334q1 -28 12 -52t29.5 -41.5t43 -27.5t53.5 -10q42 0 76 18.5t57 48.5z
M380 261q0 24 -8.5 45.5t-24.5 37.5t-39 25.5t-52 9.5q-27 0 -48.5 -10t-37.5 -26.5t-25.5 -38t-11.5 -43.5h247zM325 700l65 -51l-145 -119l-46 38z" />
    <glyph glyph-name="ecircumflex" unicode="&#xea;" horiz-adv-x="512" 
d="M460 85q-39 -48 -87 -71t-111 -23q-48 0 -88 16t-68.5 45.5t-44.5 71.5t-16 94q0 53 17.5 95.5t46.5 72t68 45.5t82 16q46 0 84 -15.5t65.5 -44.5t43 -69.5t15.5 -89.5q0 -13 -0.5 -20t-0.5 -14h-334q1 -28 12 -52t29.5 -41.5t43 -27.5t53.5 -10q42 0 76 18.5t57 48.5z
M380 261q0 24 -8.5 45.5t-24.5 37.5t-39 25.5t-52 9.5q-27 0 -48.5 -10t-37.5 -26.5t-25.5 -38t-11.5 -43.5h247zM260 705l134 -130l-45 -44l-90 85l-95 -86l-44 42z" />
    <glyph glyph-name="edieresis" unicode="&#xeb;" horiz-adv-x="512" 
d="M460 85q-39 -48 -87 -71t-111 -23q-48 0 -88 16t-68.5 45.5t-44.5 71.5t-16 94q0 53 17.5 95.5t46.5 72t68 45.5t82 16q46 0 84 -15.5t65.5 -44.5t43 -69.5t15.5 -89.5q0 -13 -0.5 -20t-0.5 -14h-334q1 -28 12 -52t29.5 -41.5t43 -27.5t53.5 -10q42 0 76 18.5t57 48.5z
M380 261q0 24 -8.5 45.5t-24.5 37.5t-39 25.5t-52 9.5q-27 0 -48.5 -10t-37.5 -26.5t-25.5 -38t-11.5 -43.5h247zM344 561q-24 0 -41 17t-17 41t17 41t41 17t41 -17t17 -41t-17 -41t-41 -17zM168 561q-24 0 -41 17t-17 41t17 41t41 17t41 -17t17 -41t-17 -41t-41 -17z" />
    <glyph glyph-name="igrave" unicode="&#xec;" horiz-adv-x="233" 
d="M75 438h83v-438h-83v438zM64 700l126 -134l-46 -37l-146 118z" />
    <glyph glyph-name="iacute" unicode="&#xed;" horiz-adv-x="233" 
d="M75 438h83v-438h-83v438zM176 700l65 -51l-145 -119l-46 38z" />
    <glyph glyph-name="icircumflex" unicode="&#xee;" horiz-adv-x="233" 
d="M75 438h83v-438h-83v438zM121 705l134 -130l-45 -44l-90 85l-95 -86l-44 42z" />
    <glyph glyph-name="idieresis" unicode="&#xef;" horiz-adv-x="233" 
d="M75 438h83v-438h-83v438zM206 561q-24 0 -41 17t-17 41t17 41t41 17t41 -17t17 -41t-17 -41t-41 -17zM30 561q-24 0 -41 17t-17 41t17 41t41 17t41 -17t17 -41t-17 -41t-41 -17z" />
    <glyph glyph-name="eth" unicode="&#xf0;" horiz-adv-x="568" 
d="M151 570l93 57q-29 18 -64.5 31t-77.5 21l12 76q119 -22 206 -83l107 65l38 -64l-86 -52q62 -63 95 -152t33 -197q0 -64 -17.5 -116t-49.5 -88.5t-77 -56.5t-101 -20q-46 0 -85.5 17t-69 47t-46 71t-16.5 89q0 49 17 91.5t46.5 73.5t69 49t84.5 18t84 -18.5t64 -51.5
q-5 25 -13 52.5t-20.5 54t-29.5 50.5t-40 43l-118 -71zM273 64q32 0 58 11.5t44.5 32t28.5 49t10 62.5q0 71 -39.5 113t-101.5 42q-30 0 -56 -12t-45.5 -33t-30.5 -49.5t-11 -60.5t11 -60.5t30.5 -49.5t45.5 -33t56 -12z" />
    <glyph glyph-name="ntilde" unicode="&#xf1;" horiz-adv-x="527" 
d="M75 438h80v-58q20 27 54.5 46.5t82.5 19.5q76 0 118 -41t42 -130v-275h-83v263q0 57 -23 84t-70 27q-24 0 -45.5 -9t-37.5 -25.5t-25.5 -39t-9.5 -49.5v-251h-83v438zM75 556q0 52 27.5 86t81.5 34q22 0 41.5 -9t37.5 -20.5t34.5 -20.5t34.5 -9q20 0 32 14t12 40h64
q0 -52 -27.5 -86t-81.5 -34q-24 0 -45 9t-39 20.5t-34 20.5t-30 9q-20 0 -32 -14t-12 -40h-64v0z" />
    <glyph glyph-name="ograve" unicode="&#xf2;" horiz-adv-x="548" 
d="M272 -10q-48 0 -89.5 17t-72 47.5t-48 72t-17.5 89.5q0 47 18.5 89t50 73.5t73.5 49.5t89 18q48 0 89.5 -17t72 -47.5t48 -72t17.5 -89.5t-18 -90t-49.5 -73t-73.5 -49t-90 -18zM276 68q30 0 56 11.5t45 32t30 47.5t11 58q0 32 -11.5 60t-31 48.5t-46 32.5t-57.5 12
q-30 0 -56 -11.5t-45 -32t-30 -47.5t-11 -58q0 -32 11.5 -60t31 -48.5t46 -32.5t57.5 -12zM221 700l126 -134l-46 -37l-146 118z" />
    <glyph glyph-name="oacute" unicode="&#xf3;" horiz-adv-x="548" 
d="M272 -10q-48 0 -89.5 17t-72 47.5t-48 72t-17.5 89.5q0 47 18.5 89t50 73.5t73.5 49.5t89 18q48 0 89.5 -17t72 -47.5t48 -72t17.5 -89.5t-18 -90t-49.5 -73t-73.5 -49t-90 -18zM276 68q30 0 56 11.5t45 32t30 47.5t11 58q0 32 -11.5 60t-31 48.5t-46 32.5t-57.5 12
q-30 0 -56 -11.5t-45 -32t-30 -47.5t-11 -58q0 -32 11.5 -60t31 -48.5t46 -32.5t57.5 -12zM347 700l65 -51l-145 -119l-46 38z" />
    <glyph glyph-name="ocircumflex" unicode="&#xf4;" horiz-adv-x="548" 
d="M272 -10q-48 0 -89.5 17t-72 47.5t-48 72t-17.5 89.5q0 47 18.5 89t50 73.5t73.5 49.5t89 18q48 0 89.5 -17t72 -47.5t48 -72t17.5 -89.5t-18 -90t-49.5 -73t-73.5 -49t-90 -18zM276 68q30 0 56 11.5t45 32t30 47.5t11 58q0 32 -11.5 60t-31 48.5t-46 32.5t-57.5 12
q-30 0 -56 -11.5t-45 -32t-30 -47.5t-11 -58q0 -32 11.5 -60t31 -48.5t46 -32.5t57.5 -12zM272 705l134 -130l-45 -44l-90 85l-95 -86l-44 42z" />
    <glyph glyph-name="otilde" unicode="&#xf5;" horiz-adv-x="548" 
d="M272 -10q-48 0 -89.5 17t-72 47.5t-48 72t-17.5 89.5q0 47 18.5 89t50 73.5t73.5 49.5t89 18q48 0 89.5 -17t72 -47.5t48 -72t17.5 -89.5t-18 -90t-49.5 -73t-73.5 -49t-90 -18zM276 68q30 0 56 11.5t45 32t30 47.5t11 58q0 32 -11.5 60t-31 48.5t-46 32.5t-57.5 12
q-30 0 -56 -11.5t-45 -32t-30 -47.5t-11 -58q0 -32 11.5 -60t31 -48.5t46 -32.5t57.5 -12zM84 556q0 52 27.5 86t81.5 34q22 0 41.5 -9t37.5 -20.5t34.5 -20.5t34.5 -9q20 0 32 14t12 40h64q0 -52 -27.5 -86t-81.5 -34q-24 0 -45 9t-39 20.5t-34 20.5t-30 9q-20 0 -32 -14
t-12 -40h-64v0z" />
    <glyph glyph-name="odieresis" unicode="&#xf6;" horiz-adv-x="548" 
d="M272 -10q-48 0 -89.5 17t-72 47.5t-48 72t-17.5 89.5q0 47 18.5 89t50 73.5t73.5 49.5t89 18q48 0 89.5 -17t72 -47.5t48 -72t17.5 -89.5t-18 -90t-49.5 -73t-73.5 -49t-90 -18zM276 68q30 0 56 11.5t45 32t30 47.5t11 58q0 32 -11.5 60t-31 48.5t-46 32.5t-57.5 12
q-30 0 -56 -11.5t-45 -32t-30 -47.5t-11 -58q0 -32 11.5 -60t31 -48.5t46 -32.5t57.5 -12zM362 561q-24 0 -41 17t-17 41t17 41t41 17t41 -17t17 -41t-17 -41t-41 -17zM186 561q-24 0 -41 17t-17 41t17 41t41 17t41 -17t17 -41t-17 -41t-41 -17z" />
    <glyph glyph-name="divide" unicode="&#xf7;" horiz-adv-x="680" 
d="M340 438q-27 0 -46.5 19.5t-19.5 46.5t19.5 46.5t46.5 19.5t46.5 -19.5t19.5 -46.5t-19.5 -46.5t-46.5 -19.5zM55 323h570v-80h-570v80zM340 -5q-27 0 -46.5 19.5t-19.5 46.5t19.5 46.5t46.5 19.5t46.5 -19.5t19.5 -46.5t-19.5 -46.5t-46.5 -19.5z" />
    <glyph glyph-name="oslash" unicode="&#xf8;" horiz-adv-x="548" 
d="M97 69q-25 29 -38.5 66.5t-13.5 80.5q0 47 18.5 89t50 73.5t73.5 49.5t89 18q74 0 130 -39l59 65l45 -44l-57 -63q23 -29 36.5 -65.5t13.5 -79.5q0 -48 -18 -90t-49.5 -73t-73.5 -49t-90 -18q-73 0 -128 37l-62 -67l-45 44zM198 86q35 -23 78 -23q31 0 57.5 12t46 33
t31 49t11.5 60q0 49 -25 88zM353 350q-36 25 -81 25q-31 0 -57.5 -12t-46 -33t-31 -49t-11.5 -60q0 -50 27 -91z" />
    <glyph glyph-name="ugrave" unicode="&#xf9;" horiz-adv-x="530" 
d="M75 438h83v-233q0 -29 4 -54.5t15.5 -44.5t33 -30.5t56.5 -11.5q34 0 55 12.5t32 32.5t14.5 44.5t3.5 48.5v236h83v-230q0 -42 -8 -81t-29.5 -69.5t-59 -48.5t-95.5 -18q-57 0 -93.5 18t-57.5 46.5t-29 65t-8 74.5v243zM203 700l126 -134l-46 -37l-146 118z" />
    <glyph glyph-name="uacute" unicode="&#xfa;" horiz-adv-x="530" 
d="M75 438h83v-233q0 -29 4 -54.5t15.5 -44.5t33 -30.5t56.5 -11.5q34 0 55 12.5t32 32.5t14.5 44.5t3.5 48.5v236h83v-230q0 -42 -8 -81t-29.5 -69.5t-59 -48.5t-95.5 -18q-57 0 -93.5 18t-57.5 46.5t-29 65t-8 74.5v243zM315 700l65 -51l-145 -119l-46 38z" />
    <glyph glyph-name="ucircumflex" unicode="&#xfb;" horiz-adv-x="530" 
d="M75 438h83v-233q0 -29 4 -54.5t15.5 -44.5t33 -30.5t56.5 -11.5q34 0 55 12.5t32 32.5t14.5 44.5t3.5 48.5v236h83v-230q0 -42 -8 -81t-29.5 -69.5t-59 -48.5t-95.5 -18q-57 0 -93.5 18t-57.5 46.5t-29 65t-8 74.5v243zM275 705l134 -130l-45 -44l-90 85l-95 -86l-44 42z
" />
    <glyph glyph-name="udieresis" unicode="&#xfc;" horiz-adv-x="530" 
d="M75 438h83v-233q0 -29 4 -54.5t15.5 -44.5t33 -30.5t56.5 -11.5q34 0 55 12.5t32 32.5t14.5 44.5t3.5 48.5v236h83v-230q0 -42 -8 -81t-29.5 -69.5t-59 -48.5t-95.5 -18q-57 0 -93.5 18t-57.5 46.5t-29 65t-8 74.5v243zM353 561q-24 0 -41 17t-17 41t17 41t41 17t41 -17
t17 -41t-17 -41t-41 -17zM177 561q-24 0 -41 17t-17 41t17 41t41 17t41 -17t17 -41t-17 -41t-41 -17z" />
    <glyph glyph-name="yacute" unicode="&#xfd;" horiz-adv-x="471" 
d="M202 54l-196 384h98l77 -157l33 -67.5l33 -69.5l27 61l27 61l78 172h87l-303 -639h-84zM312 700l65 -51l-145 -119l-46 38z" />
    <glyph glyph-name="thorn" unicode="&#xfe;" horiz-adv-x="566" 
d="M75 749h83v-374q22 33 61 52.5t87 19.5q46 0 85.5 -17t68.5 -47t46 -71t17 -89q0 -49 -17 -91.5t-46.5 -73.5t-69 -49t-84.5 -18t-83.5 18t-64.5 52v-262h-83v950zM295 64q30 0 56 12t45.5 33t30.5 49.5t11 60.5t-11 60.5t-30.5 49.5t-45.5 33t-56 12q-32 0 -58 -11.5
t-45 -32t-29 -49t-10 -62.5q0 -71 40 -113t102 -42z" />
    <glyph glyph-name="ydieresis" unicode="&#xff;" horiz-adv-x="471" 
d="M202 54l-196 384h98l77 -157l33 -67.5l33 -69.5l27 61l27 61l78 172h87l-303 -639h-84zM324 561q-24 0 -41 17t-17 41t17 41t41 17t41 -17t17 -41t-17 -41t-41 -17zM148 561q-24 0 -41 17t-17 41t17 41t41 17t41 -17t17 -41t-17 -41t-41 -17z" />
    <glyph glyph-name="Amacron" unicode="&#x100;" horiz-adv-x="658" 
d="M293 709h75l275 -709h-98l-71 190h-293l-71 -190h-95zM444 266l-65 172l-14 36.5t-17 46.5l-21 58q-10 -31 -20 -57q-8 -23 -17 -46t-14 -37l-66 -173h234zM205 790v71h253v-71h-253z" />
    <glyph glyph-name="amacron" unicode="&#x101;" horiz-adv-x="568" 
d="M410 63q-22 -33 -61 -52.5t-87 -19.5q-46 0 -85.5 17t-69 47t-46 71t-16.5 89q0 49 17 91.5t46.5 73.5t69 49t84.5 18t83.5 -18t64.5 -52v61h83v-438h-83v63zM273 64q32 0 58 11.5t45 32t29 49t10 62.5q0 71 -40 113t-102 42q-30 0 -56 -12t-45.5 -33t-30.5 -49.5
t-11 -60.5t11 -60.5t30.5 -49.5t45.5 -33t56 -12zM163 653h253v-71h-253v71z" />
    <glyph glyph-name="Abreve" unicode="&#x102;" horiz-adv-x="658" 
d="M293 709h75l275 -709h-98l-71 190h-293l-71 -190h-95zM444 266l-65 172l-14 36.5t-17 46.5l-21 58q-10 -31 -20 -57q-8 -23 -17 -46t-14 -37l-66 -173h234zM255 898q0 -16 4 -31t12.5 -26.5t22 -18.5t31.5 -7q39 0 59 25t20 58h65q0 -74 -40 -111.5t-102 -37.5
q-69 0 -103 41t-34 108h65z" />
    <glyph glyph-name="abreve" unicode="&#x103;" horiz-adv-x="568" 
d="M410 63q-22 -33 -61 -52.5t-87 -19.5q-46 0 -85.5 17t-69 47t-46 71t-16.5 89q0 49 17 91.5t46.5 73.5t69 49t84.5 18t83.5 -18t64.5 -52v61h83v-438h-83v63zM273 64q32 0 58 11.5t45 32t29 49t10 62.5q0 71 -40 113t-102 42q-30 0 -56 -12t-45.5 -33t-30.5 -49.5
t-11 -60.5t11 -60.5t30.5 -49.5t45.5 -33t56 -12zM210 683q0 -16 4 -31t12.5 -26.5t22 -18.5t31.5 -7q39 0 59 25t20 58h65q0 -74 -40 -111.5t-102 -37.5q-69 0 -103 41t-34 108h65z" />
    <glyph glyph-name="Aogonek" unicode="&#x104;" horiz-adv-x="658" 
d="M693 -197q-48 -14 -87 -14q-54 0 -89 24.5t-35 73.5q0 35 18.5 62.5t44.5 50.5l-71 190h-293l-71 -190h-95l278 709h75l275 -709h-29q-17 -16 -34 -38t-17 -42q0 -61 68 -61q11 0 25 1.5t29 6.5zM379 438l-14 36.5t-17 46.5l-21 58q-10 -31 -20 -57q-8 -23 -17 -46
t-14 -37l-66 -173h234z" />
    <glyph glyph-name="aogonek" unicode="&#x105;" horiz-adv-x="568" 
d="M557 -197q-48 -14 -87 -14q-54 0 -89 24.5t-35 73.5q0 35 19 62.5t45 50.5v63q-22 -33 -61 -52.5t-87 -19.5q-46 0 -85.5 17t-69 47t-46 71t-16.5 89q0 49 17 91.5t46.5 73.5t69 49t84.5 18t83.5 -18t64.5 -52v61h83v-438h-15q-16 -16 -33.5 -38t-17.5 -42q0 -61 68 -61
q11 0 25 1.5t29 6.5zM415 219q0 71 -40 113t-102 42q-30 0 -56 -12t-45.5 -33t-30.5 -49.5t-11 -60.5t11 -60.5t30.5 -49.5t45.5 -33t56 -12q32 0 58 11.5t45 32t29 49t10 62.5z" />
    <glyph glyph-name="Cacute" unicode="&#x106;" horiz-adv-x="650" 
d="M599 35q-42 -20 -91.5 -31t-104.5 -11q-78 0 -143 27.5t-112.5 75.5t-73.5 113.5t-26 142.5q0 83 27.5 150.5t76 115t114 73.5t141.5 26q52 0 97.5 -10t85.5 -29v-97q-35 22 -84 37.5t-105 15.5q-54 0 -100.5 -21t-81 -58t-54 -88t-19.5 -112q0 -60 20 -111t55.5 -88
t84 -58t104.5 -21q52 0 101.5 12.5t87.5 38.5v-93v0zM282 803l155 108l47 -73l-165 -93z" />
    <glyph glyph-name="cacute" unicode="&#x107;" horiz-adv-x="444" 
d="M399 16q-26 -12 -58.5 -18.5t-64.5 -6.5q-57 0 -100.5 20t-72.5 51.5t-43.5 71.5t-14.5 81q0 48 18 90t49.5 73.5t75 49.5t94.5 18q31 0 60.5 -6.5t55.5 -17.5v-84q-26 14 -55 22.5t-61 8.5q-33 0 -60 -12t-46.5 -32t-30 -47.5t-10.5 -57.5t10.5 -57t30 -47.5t46.5 -32.5
t60 -12q28 0 59 7t58 23v-85v0zM300 700l65 -51l-145 -119l-46 38z" />
    <glyph glyph-name="Cdotaccent" unicode="&#x10a;" horiz-adv-x="650" 
d="M599 35q-42 -20 -91.5 -31t-104.5 -11q-78 0 -143 27.5t-112.5 75.5t-73.5 113.5t-26 142.5q0 83 27.5 150.5t76 115t114 73.5t141.5 26q52 0 97.5 -10t85.5 -29v-97q-35 22 -84 37.5t-105 15.5q-54 0 -100.5 -21t-81 -58t-54 -88t-19.5 -112q0 -60 20 -111t55.5 -88
t84 -58t104.5 -21q52 0 101.5 12.5t87.5 38.5v-93v0zM433 833q0 -29 -19.5 -48.5t-48.5 -19.5t-48.5 19.5t-19.5 48.5t19.5 48.5t48.5 19.5t48.5 -19.5t19.5 -48.5z" />
    <glyph glyph-name="cdotaccent" unicode="&#x10b;" horiz-adv-x="444" 
d="M399 16q-26 -12 -58.5 -18.5t-64.5 -6.5q-57 0 -100.5 20t-72.5 51.5t-43.5 71.5t-14.5 81q0 48 18 90t49.5 73.5t75 49.5t94.5 18q31 0 60.5 -6.5t55.5 -17.5v-84q-26 14 -55 22.5t-61 8.5q-33 0 -60 -12t-46.5 -32t-30 -47.5t-10.5 -57.5t10.5 -57t30 -47.5t46.5 -32.5
t60 -12q28 0 59 7t58 23v-85v0zM254 548q-29 0 -48.5 19.5t-19.5 48.5t19.5 48.5t48.5 19.5t48.5 -19.5t19.5 -48.5t-19.5 -48.5t-48.5 -19.5z" />
    <glyph glyph-name="Ccaron" unicode="&#x10c;" horiz-adv-x="650" 
d="M599 35q-42 -20 -91.5 -31t-104.5 -11q-78 0 -143 27.5t-112.5 75.5t-73.5 113.5t-26 142.5q0 83 27.5 150.5t76 115t114 73.5t141.5 26q52 0 97.5 -10t85.5 -29v-97q-35 22 -84 37.5t-105 15.5q-54 0 -100.5 -21t-81 -58t-54 -88t-19.5 -112q0 -60 20 -111t55.5 -88
t84 -58t104.5 -21q52 0 101.5 12.5t87.5 38.5v-93v0zM263 907l114 -68l108 68l44 -47l-152 -110l-157 112z" />
    <glyph glyph-name="ccaron" unicode="&#x10d;" horiz-adv-x="444" 
d="M399 16q-26 -12 -58.5 -18.5t-64.5 -6.5q-57 0 -100.5 20t-72.5 51.5t-43.5 71.5t-14.5 81q0 48 18 90t49.5 73.5t75 49.5t94.5 18q31 0 60.5 -6.5t55.5 -17.5v-84q-26 14 -55 22.5t-61 8.5q-33 0 -60 -12t-46.5 -32t-30 -47.5t-10.5 -57.5t10.5 -57t30 -47.5t46.5 -32.5
t60 -12q28 0 59 7t58 23v-85v0zM152 695l91 -81l95 82l43 -43l-138 -126l-136 123z" />
    <glyph glyph-name="Dcaron" unicode="&#x10e;" horiz-adv-x="668" 
d="M85 709h170q82 0 149.5 -23.5t114.5 -69t73 -111.5t26 -150q0 -64 -18 -127.5t-62 -114t-120 -82t-191 -31.5h-142v709zM236 81q83 0 138 20.5t88 57t47 85.5t14 106q0 60 -15.5 111.5t-49.5 88.5t-86.5 58t-125.5 21h-71v-548h61zM212 907l114 -68l108 68l44 -47
l-152 -110l-157 112z" />
    <glyph glyph-name="dcaron" unicode="&#x10f;" horiz-adv-x="568" 
d="M410 63q-22 -33 -61 -52.5t-87 -19.5q-46 0 -85.5 17t-69 47t-46 71t-16.5 89q0 49 17 91.5t46.5 73.5t69 49t84.5 18t84 -18.5t64 -51.5v372h83v-749h-83v63zM273 64q32 0 58 11.5t44.5 32t28.5 49t10 62.5q0 71 -39.5 113t-101.5 42q-30 0 -56 -12t-45.5 -33
t-30.5 -49.5t-11 -60.5t11 -60.5t30.5 -49.5t45.5 -33t56 -12zM685 748q0 -36 -26 -72t-72 -67l-28 29q20 18 32.5 34t12.5 31q0 7 -4 13.5l-8.5 13.5t-8 15t-3.5 19q0 20 13.5 33.5t37.5 13.5q26 0 40 -19t14 -44z" />
    <glyph glyph-name="Dcroat" unicode="&#x110;" horiz-adv-x="684" 
d="M101 325h-69v81h69v303h170q82 0 149.5 -23.5t114.5 -69t73 -111.5t26 -150q0 -64 -19 -127.5t-64 -114t-120 -82t-188 -31.5h-142v325zM252 81q83 0 138 20.5t88 57t47 85.5t14 106q0 60 -15.5 111.5t-49.5 88.5t-86.5 58t-125.5 21h-71v-223h78v-81h-78v-244h61z" />
    <glyph glyph-name="dcroat" unicode="&#x111;" horiz-adv-x="571" 
d="M493 510v-510h-83v63q-22 -33 -61 -52.5t-87 -19.5q-46 0 -85.5 17t-69 47t-46 71t-16.5 89q0 49 17 91.5t46.5 73.5t69 49t84.5 18t84 -18.5t64 -51.5v133h-78v71h78v168h83v-168h63v-71h-63zM414 219q0 71 -39.5 113t-101.5 42q-30 0 -56 -12t-45.5 -33t-30.5 -49.5
t-11 -60.5t11 -60.5t30.5 -49.5t45.5 -33t56 -12q32 0 58 11.5t44.5 32t28.5 49t10 62.5z" />
    <glyph glyph-name="Emacron" unicode="&#x112;" horiz-adv-x="531" 
d="M85 709h370v-84h-280v-217h269v-80h-269v-245h283v-83h-373v709zM143 790v71h253v-71h-253z" />
    <glyph glyph-name="emacron" unicode="&#x113;" horiz-adv-x="512" 
d="M460 85q-39 -48 -87 -71t-111 -23q-48 0 -88 16t-68.5 45.5t-44.5 71.5t-16 94q0 53 17.5 95.5t46.5 72t68 45.5t82 16q46 0 84 -15.5t65.5 -44.5t43 -69.5t15.5 -89.5q0 -13 -0.5 -20t-0.5 -14h-334q1 -28 12 -52t29.5 -41.5t43 -27.5t53.5 -10q42 0 76 18.5t57 48.5z
M380 261q0 24 -8.5 45.5t-24.5 37.5t-39 25.5t-52 9.5q-27 0 -48.5 -10t-37.5 -26.5t-25.5 -38t-11.5 -43.5h247zM133 653h253v-71h-253v71z" />
    <glyph glyph-name="Edotaccent" unicode="&#x116;" horiz-adv-x="531" 
d="M85 709h370v-84h-280v-217h269v-80h-269v-245h283v-83h-373v709zM340 836q0 -29 -19.5 -48.5t-48.5 -19.5t-48.5 19.5t-19.5 48.5t19.5 48.5t48.5 19.5t48.5 -19.5t19.5 -48.5z" />
    <glyph glyph-name="edotaccent" unicode="&#x117;" horiz-adv-x="512" 
d="M460 85q-39 -48 -87 -71t-111 -23q-48 0 -88 16t-68.5 45.5t-44.5 71.5t-16 94q0 53 17.5 95.5t46.5 72t68 45.5t82 16q46 0 84 -15.5t65.5 -44.5t43 -69.5t15.5 -89.5q0 -13 -0.5 -20t-0.5 -14h-334q1 -28 12 -52t29.5 -41.5t43 -27.5t53.5 -10q42 0 76 18.5t57 48.5z
M380 261q0 24 -8.5 45.5t-24.5 37.5t-39 25.5t-52 9.5q-27 0 -48.5 -10t-37.5 -26.5t-25.5 -38t-11.5 -43.5h247zM258 548q-29 0 -48.5 19.5t-19.5 48.5t19.5 48.5t48.5 19.5t48.5 -19.5t19.5 -48.5t-19.5 -48.5t-48.5 -19.5z" />
    <glyph glyph-name="Eogonek" unicode="&#x118;" horiz-adv-x="531" 
d="M467 -197q-48 -14 -87 -14q-54 0 -89 24.5t-35 73.5q0 35 18.5 62.5t44.5 50.5h-234v709h370v-84h-280v-217h269v-80h-269v-245h283v-83h-70q-17 -16 -34 -38t-17 -42q0 -61 68 -61q11 0 25 1.5t29 6.5l8 -64v0z" />
    <glyph glyph-name="eogonek" unicode="&#x119;" horiz-adv-x="512" 
d="M467 228q0 -13 -0.5 -20t-0.5 -14h-334q1 -28 12 -52t29.5 -41.5t43 -27.5t53.5 -10q42 0 76 18.5t57 48.5l57 -45l-48 -47t-42.5 -44t-30 -40t-11.5 -34q0 -61 68 -61q11 0 25 1.5t29 6.5l8 -64q-48 -14 -87 -14q-54 0 -89 24.5t-35 73.5q0 32 18 60.5t56 62.5
q-29 -18 -65 -18q-46 0 -84.5 16t-66.5 45.5t-44 71t-16 93.5q0 53 17.5 95.5t46.5 72t68 45.5t82 16q46 0 84 -15.5t65.5 -44.5t43 -69.5t15.5 -89.5zM380 261q0 24 -8.5 45.5t-24.5 37.5t-39 25.5t-52 9.5q-27 0 -48.5 -10t-37.5 -26.5t-25.5 -38t-11.5 -43.5h247z" />
    <glyph glyph-name="Ecaron" unicode="&#x11a;" horiz-adv-x="531" 
d="M85 709h370v-84h-280v-217h269v-80h-269v-245h283v-83h-373v709zM157 907l114 -68l108 68l44 -47l-152 -110l-157 112z" />
    <glyph glyph-name="ecaron" unicode="&#x11b;" horiz-adv-x="512" 
d="M460 85q-39 -48 -87 -71t-111 -23q-48 0 -88 16t-68.5 45.5t-44.5 71.5t-16 94q0 53 17.5 95.5t46.5 72t68 45.5t82 16q46 0 84 -15.5t65.5 -44.5t43 -69.5t15.5 -89.5q0 -13 -0.5 -20t-0.5 -14h-334q1 -28 12 -52t29.5 -41.5t43 -27.5t53.5 -10q42 0 76 18.5t57 48.5z
M380 261q0 24 -8.5 45.5t-24.5 37.5t-39 25.5t-52 9.5q-27 0 -48.5 -10t-37.5 -26.5t-25.5 -38t-11.5 -43.5h247zM164 695l91 -81l95 82l43 -43l-138 -126l-136 123z" />
    <glyph glyph-name="Gbreve" unicode="&#x11e;" horiz-adv-x="778" 
d="M460 369h291v-30q0 -71 -23 -135t-67 -112t-107.5 -76t-144.5 -28q-79 0 -145 29t-113.5 78.5t-74 116.5t-26.5 143q0 73 29 139.5t79 117t117.5 80t145.5 29.5q93 0 165.5 -35.5t129.5 -103.5l-70 -61q-45 61 -101.5 89t-128.5 28q-60 0 -110 -22.5t-86 -61t-56 -89.5
t-20 -108q0 -60 20 -111.5t55.5 -90t84.5 -60.5t107 -22q54 0 97.5 17t75 46t49.5 67.5t21 80.5h-194v85zM314 898q0 -16 4 -31t12.5 -26.5t22 -18.5t31.5 -7q39 0 59 25t20 58h65q0 -74 -40 -111.5t-102 -37.5q-69 0 -103 41t-34 108h65z" />
    <glyph glyph-name="gbreve" unicode="&#x11f;" horiz-adv-x="561" 
d="M143 -44q4 -42 34.5 -72.5t91.5 -30.5q34 0 59.5 7.5t42 25t24.5 46.5t8 72v66q-21 -32 -59.5 -51t-85.5 -19q-45 0 -84 17t-67.5 46t-45 69t-16.5 87q0 48 16.5 90t45.5 72.5t68 48t83 17.5q45 0 82.5 -18t62.5 -51v60h83v-419q0 -55 -11 -98t-37 -73t-68 -45.5
t-104 -15.5q-94 0 -144.5 45.5t-56.5 123.5h78zM269 71q31 0 56.5 11.5t44 31.5t28.5 48t10 61q0 35 -10.5 63t-29 48t-44 30.5t-55.5 10.5q-29 0 -54.5 -12t-44.5 -32.5t-30 -48t-11 -59.5t11 -59.5t30 -48t44.5 -32.5t54.5 -12zM206 683q0 -16 4 -31t12.5 -26.5t22 -18.5
t31.5 -7q39 0 59 25t20 58h65q0 -74 -40 -111.5t-102 -37.5q-69 0 -103 41t-34 108h65z" />
    <glyph glyph-name="Gdotaccent" unicode="&#x120;" horiz-adv-x="778" 
d="M460 369h291v-30q0 -71 -23 -135t-67 -112t-107.5 -76t-144.5 -28q-79 0 -145 29t-113.5 78.5t-74 116.5t-26.5 143q0 73 29 139.5t79 117t117.5 80t145.5 29.5q93 0 165.5 -35.5t129.5 -103.5l-70 -61q-45 61 -101.5 89t-128.5 28q-60 0 -110 -22.5t-86 -61t-56 -89.5
t-20 -108q0 -60 20 -111.5t55.5 -90t84.5 -60.5t107 -22q54 0 97.5 17t75 46t49.5 67.5t21 80.5h-194v85zM457 832q0 -29 -19.5 -48.5t-48.5 -19.5t-48.5 19.5t-19.5 48.5t19.5 48.5t48.5 19.5t48.5 -19.5t19.5 -48.5z" />
    <glyph glyph-name="gdotaccent" unicode="&#x121;" horiz-adv-x="561" 
d="M143 -44q4 -42 34.5 -72.5t91.5 -30.5q34 0 59.5 7.5t42 25t24.5 46.5t8 72v66q-21 -32 -59.5 -51t-85.5 -19q-45 0 -84 17t-67.5 46t-45 69t-16.5 87q0 48 16.5 90t45.5 72.5t68 48t83 17.5q45 0 82.5 -18t62.5 -51v60h83v-419q0 -55 -11 -98t-37 -73t-68 -45.5
t-104 -15.5q-94 0 -144.5 45.5t-56.5 123.5h78zM269 71q31 0 56.5 11.5t44 31.5t28.5 48t10 61q0 35 -10.5 63t-29 48t-44 30.5t-55.5 10.5q-29 0 -54.5 -12t-44.5 -32.5t-30 -48t-11 -59.5t11 -59.5t30 -48t44.5 -32.5t54.5 -12zM280 548q-29 0 -48.5 19.5t-19.5 48.5
t19.5 48.5t48.5 19.5t48.5 -19.5t19.5 -48.5t-19.5 -48.5t-48.5 -19.5z" />
    <glyph glyph-name="Gcommaaccent" unicode="&#x122;" horiz-adv-x="778" 
d="M460 369h291v-30q0 -71 -23 -135t-67 -112t-107.5 -76t-144.5 -28q-79 0 -145 29t-113.5 78.5t-74 116.5t-26.5 143q0 73 29 139.5t79 117t117.5 80t145.5 29.5q93 0 165.5 -35.5t129.5 -103.5l-70 -61q-45 61 -101.5 89t-128.5 28q-60 0 -110 -22.5t-86 -61t-56 -89.5
t-20 -108q0 -60 20 -111.5t55.5 -90t84.5 -60.5t107 -22q54 0 97.5 17t75 46t49.5 67.5t21 80.5h-194v85zM467 -98q0 -36 -26 -72t-72 -67l-28 29q20 18 32.5 34t12.5 31q0 7 -4 13.5l-8.5 13.5t-8 15t-3.5 19q0 20 13.5 33.5t37.5 13.5q26 0 40 -19t14 -44z" />
    <glyph glyph-name="gcommaaccent" unicode="&#x123;" horiz-adv-x="561" 
d="M143 -44q4 -42 34.5 -72.5t91.5 -30.5q34 0 59.5 7.5t42 25t24.5 46.5t8 72v66q-21 -32 -59.5 -51t-85.5 -19q-45 0 -84 17t-67.5 46t-45 69t-16.5 87q0 48 16.5 90t45.5 72.5t68 48t83 17.5q45 0 82.5 -18t62.5 -51v60h83v-419q0 -55 -11 -98t-37 -73t-68 -45.5
t-104 -15.5q-94 0 -144.5 45.5t-56.5 123.5h78zM269 71q31 0 56.5 11.5t44 31.5t28.5 48t10 61q0 35 -10.5 63t-29 48t-44 30.5t-55.5 10.5q-29 0 -54.5 -12t-44.5 -32.5t-30 -48t-11 -59.5t11 -59.5t30 -48t44.5 -32.5t54.5 -12zM230.015 611.994q0 35.998 25.998 71.9951
q25.999 35.998 71.9961 66.9961l27.998 -28.998q-19.999 -17.999 -32.498 -33.998t-12.499 -30.998q0 -6.99902 4 -13.499l8.49902 -13.499q4.5 -7 8 -14.999q3.49902 -8 3.49902 -18.999q0 -19.999 -13.499 -33.498t-37.4971 -13.499q-25.999 0 -39.998 18.999
q-13.999 18.998 -13.999 43.9971z" />
    <glyph glyph-name="Hbar" unicode="&#x126;" horiz-adv-x="730" 
d="M629 532v-532h-90v340h-348v-340h-90v532h-69v81h69v96h90v-96h348v96h90v-96h69v-81h-69zM539 532h-348v-109h348v109z" />
    <glyph glyph-name="hbar" unicode="&#x127;" horiz-adv-x="527" 
d="M369 0v263q0 57 -23 84t-70 27q-24 0 -45.5 -9t-37.5 -25.5t-25.5 -39t-9.5 -49.5v-251h-83v510h-63v71h63v168h83v-168h133v-71h-133v-130q20 28 57.5 47t82.5 19q72 0 113 -41t41 -130v-275h-83z" />
    <glyph glyph-name="Imacron" unicode="&#x12a;" horiz-adv-x="260" 
d="M85 709h90v-709h-90v709zM5 790v71h253v-71h-253z" />
    <glyph glyph-name="imacron" unicode="&#x12b;" horiz-adv-x="233" 
d="M75 438h83v-438h-83v438zM-9 653h253v-71h-253v71z" />
    <glyph glyph-name="Iogonek" unicode="&#x12e;" horiz-adv-x="260" 
d="M232 -197q-48 -14 -87 -14q-54 0 -89 24.5t-35 73.5q0 35 19 63t45 50v709h90v-709h-23q-16 -16 -33 -38t-17 -42q0 -61 68 -61q11 0 25 1.5t29 6.5l8 -64v0z" />
    <glyph glyph-name="iogonek" unicode="&#x12f;" horiz-adv-x="233" 
d="M176 619q0 -25 -17.5 -42.5t-42.5 -17.5t-42.5 17.5t-17.5 42.5t17.5 42.5t42.5 17.5t42.5 -17.5t17.5 -42.5zM222 -197q-48 -14 -87 -14q-54 0 -89 24.5t-35 73.5q0 35 19 62.5t45 50.5v438h83v-438h-15q-8 -8 -16.5 -18t-16.5 -20.5t-13 -21t-5 -20.5q0 -61 68 -61
q12 0 25.5 1.5t28.5 6.5z" />
    <glyph glyph-name="Idotaccent" unicode="&#x130;" horiz-adv-x="260" 
d="M85 709h90v-709h-90v709zM199 832q0 -29 -19.5 -48.5t-48.5 -19.5t-48.5 19.5t-19.5 48.5t19.5 48.5t48.5 19.5t48.5 -19.5t19.5 -48.5z" />
    <glyph glyph-name="dotlessi" unicode="&#x131;" horiz-adv-x="233" 
d="M75 438h83v-438h-83v438z" />
    <glyph glyph-name="Kcommaaccent" unicode="&#x136;" horiz-adv-x="593" 
d="M85 709h90v-313l261 313h108l-274 -325l293 -384h-118l-270 362v-362h-90v709zM350 -98q0 -36 -26 -72t-72 -67l-28 29q20 18 32.5 34t12.5 31q0 7 -4 13.5l-8.5 13.5t-8 15t-3.5 19q0 20 13.5 33.5t37.5 13.5q26 0 40 -19t14 -44z" />
    <glyph glyph-name="kcommaaccent" unicode="&#x137;" horiz-adv-x="446" 
d="M75 749h83v-496l163 185h109l-191 -199l202 -239h-110l-173 213v-213h-83v749zM284 -98q0 -36 -26 -72t-72 -67l-28 29q20 18 32.5 34t12.5 31q0 7 -4 13.5l-8.5 13.5t-8 15t-3.5 19q0 20 13.5 33.5t37.5 13.5q26 0 40 -19t14 -44z" />
    <glyph glyph-name="Lacute" unicode="&#x139;" horiz-adv-x="450" 
d="M85 709h90v-626h232v-83h-322v709zM148 803l155 108l47 -73l-165 -93z" />
    <glyph glyph-name="lacute" unicode="&#x13a;" horiz-adv-x="233" 
d="M75 749h83v-749h-83v749zM187 951l65 -51l-145 -119l-46 38z" />
    <glyph glyph-name="Lcommaaccent" unicode="&#x13b;" horiz-adv-x="450" 
d="M85 709h90v-626h232v-83h-322v709zM284 -98q0 -36 -26 -72t-72 -67l-28 29q20 18 32.5 34t12.5 31q0 7 -4 13.5l-8.5 13.5t-8 15t-3.5 19q0 20 13.5 33.5t37.5 13.5q26 0 40 -19t14 -44z" />
    <glyph glyph-name="lcommaaccent" unicode="&#x13c;" horiz-adv-x="233" 
d="M75 749h83v-749h-83v749zM174 -98q0 -36 -26 -72t-72 -67l-28 29q20 18 32.5 34t12.5 31q0 7 -4 13.5l-8.5 13.5t-8 15t-3.5 19q0 20 13.5 33.5t37.5 13.5q26 0 40 -19t14 -44z" />
    <glyph glyph-name="Lcaron" unicode="&#x13d;" horiz-adv-x="450" 
d="M85 709h90v-626h232v-83h-322v709zM374 658q0 -36 -26 -72t-72 -67l-28 29q20 18 32.5 34t12.5 31q0 7 -4 13.5l-8.5 13.5t-8 15t-3.5 19q0 20 13.5 33.5t37.5 13.5q26 0 40 -19t14 -44z" />
    <glyph glyph-name="lcaron" unicode="&#x13e;" horiz-adv-x="233" 
d="M75 749h83v-749h-83v749zM350 748q0 -36 -26 -72t-72 -67l-28 29q20 18 32.5 34t12.5 31q0 7 -4 13.5l-8.5 13.5t-8 15t-3.5 19q0 20 13.5 33.5t37.5 13.5q26 0 40 -19t14 -44z" />
    <glyph glyph-name="Lslash" unicode="&#x141;" horiz-adv-x="466" 
d="M101 289l-46 -28l-43 71l89 54v323h90v-269l97 59l43 -71l-140 -85v-260h232v-83h-322v289z" />
    <glyph glyph-name="lslash" unicode="&#x142;" horiz-adv-x="273" 
d="M95 293l-56 -34l-43 71l99 60v359h83v-308l61 37l43 -71l-104 -63v-344h-83v293z" />
    <glyph glyph-name="Nacute" unicode="&#x143;" horiz-adv-x="785" 
d="M85 709h85l449 -572v572h81v-709h-85l-448 572v-572h-82v709zM325 803l155 108l47 -73l-165 -93z" />
    <glyph glyph-name="nacute" unicode="&#x144;" horiz-adv-x="527" 
d="M75 438h80v-58q20 27 54.5 46.5t82.5 19.5q76 0 118 -41t42 -130v-275h-83v263q0 57 -23 84t-70 27q-24 0 -45.5 -9t-37.5 -25.5t-25.5 -39t-9.5 -49.5v-251h-83v438zM318 700l65 -51l-145 -119l-46 38z" />
    <glyph glyph-name="Ncommaaccent" unicode="&#x145;" horiz-adv-x="785" 
d="M85 709h85l449 -572v572h81v-709h-85l-448 572v-572h-82v709zM449 -98q0 -36 -26 -72t-72 -67l-28 29q20 18 32.5 34t12.5 31q0 7 -4 13.5l-8.5 13.5t-8 15t-3.5 19q0 20 13.5 33.5t37.5 13.5q26 0 40 -19t14 -44z" />
    <glyph glyph-name="ncommaaccent" unicode="&#x146;" horiz-adv-x="527" 
d="M75 438h80v-58q20 27 54.5 46.5t82.5 19.5q76 0 118 -41t42 -130v-275h-83v263q0 57 -23 84t-70 27q-24 0 -45.5 -9t-37.5 -25.5t-25.5 -39t-9.5 -49.5v-251h-83v438zM321 -98q0 -36 -26 -72t-72 -67l-28 29q20 18 32.5 34t12.5 31q0 7 -4 13.5l-8.5 13.5t-8 15t-3.5 19
q0 20 13.5 33.5t37.5 13.5q26 0 40 -19t14 -44z" />
    <glyph glyph-name="Ncaron" unicode="&#x147;" horiz-adv-x="785" 
d="M85 709h85l449 -572v572h81v-709h-85l-448 572v-572h-82v709zM285 907l114 -68l108 68l44 -47l-152 -110l-157 112z" />
    <glyph glyph-name="ncaron" unicode="&#x148;" horiz-adv-x="527" 
d="M75 438h80v-58q20 27 54.5 46.5t82.5 19.5q76 0 118 -41t42 -130v-275h-83v263q0 57 -23 84t-70 27q-24 0 -45.5 -9t-37.5 -25.5t-25.5 -39t-9.5 -49.5v-251h-83v438zM171 695l91 -81l95 82l43 -43l-138 -126l-136 123z" />
    <glyph glyph-name="Omacron" unicode="&#x14c;" horiz-adv-x="841" 
d="M419 -12q-76 0 -143 28.5t-117.5 77.5t-79.5 115.5t-29 143.5q0 74 29.5 141t80.5 117.5t118.5 80t143.5 29.5q78 0 145.5 -28.5t117 -78t78 -116t28.5 -142.5q0 -77 -29.5 -144t-80.5 -116.5t-118.5 -78.5t-143.5 -29zM421 73q60 0 110 21.5t87 59t57.5 89t20.5 110.5
q0 60 -20 112t-56.5 90.5t-87.5 60.5t-112 22q-59 0 -109.5 -23t-87.5 -61.5t-58 -89.5t-21 -108t22 -108.5t59.5 -90.5t88 -61.5t107.5 -22.5zM294 790v71h253v-71h-253z" />
    <glyph glyph-name="omacron" unicode="&#x14d;" horiz-adv-x="548" 
d="M272 -10q-48 0 -89.5 17t-72 47.5t-48 72t-17.5 89.5q0 47 18.5 89t50 73.5t73.5 49.5t89 18q48 0 89.5 -17t72 -47.5t48 -72t17.5 -89.5t-18 -90t-49.5 -73t-73.5 -49t-90 -18zM276 68q30 0 56 11.5t45 32t30 47.5t11 58q0 32 -11.5 60t-31 48.5t-46 32.5t-57.5 12
q-30 0 -56 -11.5t-45 -32t-30 -47.5t-11 -58q0 -32 11.5 -60t31 -48.5t46 -32.5t57.5 -12zM148 653h253v-71h-253v71z" />
    <glyph glyph-name="Ohungarumlaut" unicode="&#x150;" horiz-adv-x="841" 
d="M419 -12q-76 0 -143 28.5t-117.5 77.5t-79.5 115.5t-29 143.5q0 74 29.5 141t80.5 117.5t118.5 80t143.5 29.5q78 0 145.5 -28.5t117 -78t78 -116t28.5 -142.5q0 -77 -29.5 -144t-80.5 -116.5t-118.5 -78.5t-143.5 -29zM421 73q60 0 110 21.5t87 59t57.5 89t20.5 110.5
q0 60 -20 112t-56.5 90.5t-87.5 60.5t-112 22q-59 0 -109.5 -23t-87.5 -61.5t-58 -89.5t-21 -108t22 -108.5t59.5 -90.5t88 -61.5t107.5 -22.5zM503 743l-45 35l106 143l64 -48zM333 743l-45 35l95 146l64 -48z" />
    <glyph glyph-name="ohungarumlaut" unicode="&#x151;" horiz-adv-x="548" 
d="M272 -10q-48 0 -89.5 17t-72 47.5t-48 72t-17.5 89.5q0 47 18.5 89t50 73.5t73.5 49.5t89 18q48 0 89.5 -17t72 -47.5t48 -72t17.5 -89.5t-18 -90t-49.5 -73t-73.5 -49t-90 -18zM276 68q30 0 56 11.5t45 32t30 47.5t11 58q0 32 -11.5 60t-31 48.5t-46 32.5t-57.5 12
q-30 0 -56 -11.5t-45 -32t-30 -47.5t-11 -58q0 -32 11.5 -60t31 -48.5t46 -32.5t57.5 -12zM236 704l62 -48l-114 -133l-43 35zM417 701l62 -48l-125 -130l-43 35z" />
    <glyph glyph-name="OE" unicode="&#x152;" horiz-adv-x="1138" 
d="M692 114q-52 -61 -122.5 -93.5t-150.5 -32.5q-76 0 -143 28.5t-117.5 77.5t-79.5 115.5t-29 143.5q0 74 29.5 141t80.5 117.5t118.5 80t143.5 29.5q80 0 149.5 -30.5t120.5 -90.5v109h370v-84h-280v-217h269v-80h-269v-245h283v-83h-373v114zM421 73q60 0 110 21.5t87 59
t57.5 89t20.5 110.5q0 60 -20 112t-56.5 90.5t-87.5 60.5t-112 22q-59 0 -109.5 -23t-87.5 -61.5t-58 -89.5t-21 -108t22 -108.5t59.5 -90.5t88 -61.5t107.5 -22.5z" />
    <glyph glyph-name="oe" unicode="&#x153;" horiz-adv-x="877" 
d="M831 85q-39 -48 -87 -71t-111 -23q-58 0 -103.5 24t-74.5 73q-31 -48 -78.5 -73t-104.5 -25q-48 0 -89.5 17t-72 47.5t-48 72t-17.5 89.5q0 47 18.5 89t50 73.5t73.5 49.5t89 18q57 0 103.5 -24t77.5 -72q29 49 74.5 73t98.5 24q46 0 84 -15.5t65.5 -44.5t43 -69.5
t15.5 -89.5q0 -13 -0.5 -20t-0.5 -14h-334q1 -28 12 -52t29.5 -41.5t43 -27.5t53.5 -10q42 0 76 18.5t57 48.5zM751 261q0 24 -8.5 45.5t-24.5 37.5t-39 25.5t-52 9.5q-27 0 -48.5 -10t-37.5 -26.5t-25.5 -38t-11.5 -43.5h247zM276 68q30 0 56 11.5t45 32t30 47.5t11 58
q0 32 -11.5 60t-31 48.5t-46 32.5t-57.5 12q-30 0 -56 -11.5t-45 -32t-30 -47.5t-11 -58q0 -32 11.5 -60t31 -48.5t46 -32.5t57.5 -12z" />
    <glyph glyph-name="Racute" unicode="&#x154;" horiz-adv-x="531" 
d="M85 709h176q57 0 98.5 -14t69.5 -39t41.5 -59.5t13.5 -75.5q0 -78 -48.5 -130.5t-143.5 -64.5l231 -326h-111l-214 318h-23v-318h-90v709zM229 396q88 0 125 31t37 86q0 25 -6.5 47t-22.5 37.5t-43.5 24.5t-69.5 9h-74v-235h54zM190 803l155 108l47 -73l-165 -93z" />
    <glyph glyph-name="racute" unicode="&#x155;" horiz-adv-x="353" 
d="M75 438h80v-68q20 36 51.5 56.5t76.5 20.5q14 0 29 -2t26 -5l-9 -87q-30 15 -69 15q-43 0 -72.5 -35.5t-29.5 -98.5v-234h-83v438zM254 700l65 -51l-145 -119l-46 38z" />
    <glyph glyph-name="Rcommaaccent" unicode="&#x156;" horiz-adv-x="531" 
d="M85 709h176q57 0 98.5 -14t69.5 -39t41.5 -59.5t13.5 -75.5q0 -78 -48.5 -130.5t-143.5 -64.5l231 -326h-111l-214 318h-23v-318h-90v709zM229 396q88 0 125 31t37 86q0 25 -6.5 47t-22.5 37.5t-43.5 24.5t-69.5 9h-74v-235h54zM338 -98q0 -36 -26 -72t-72 -67l-28 29
q20 18 32.5 34t12.5 31q0 7 -4 13.5l-8.5 13.5t-8 15t-3.5 19q0 20 13.5 33.5t37.5 13.5q26 0 40 -19t14 -44z" />
    <glyph glyph-name="rcommaaccent" unicode="&#x157;" horiz-adv-x="353" 
d="M75 438h80v-68q20 36 51.5 56.5t76.5 20.5q14 0 29 -2t26 -5l-9 -87q-30 15 -69 15q-43 0 -72.5 -35.5t-29.5 -98.5v-234h-83v438zM198 -98q0 -36 -26 -72t-72 -67l-28 29q20 18 32.5 34t12.5 31q0 7 -4 13.5l-8.5 13.5t-8 15t-3.5 19q0 20 13.5 33.5t37.5 13.5
q26 0 40 -19t14 -44z" />
    <glyph glyph-name="Rcaron" unicode="&#x158;" horiz-adv-x="531" 
d="M85 709h176q57 0 98.5 -14t69.5 -39t41.5 -59.5t13.5 -75.5q0 -78 -48.5 -130.5t-143.5 -64.5l231 -326h-111l-214 318h-23v-318h-90v709zM229 396q88 0 125 31t37 86q0 25 -6.5 47t-22.5 37.5t-43.5 24.5t-69.5 9h-74v-235h54zM154 907l114 -68l108 68l44 -47l-152 -110
l-157 112z" />
    <glyph glyph-name="rcaron" unicode="&#x159;" horiz-adv-x="353" 
d="M75 438h80v-68q20 36 51.5 56.5t76.5 20.5q14 0 29 -2t26 -5l-9 -87q-30 15 -69 15q-43 0 -72.5 -35.5t-29.5 -98.5v-234h-83v438zM101 695l91 -81l95 82l43 -43l-138 -126l-136 123z" />
    <glyph glyph-name="Sacute" unicode="&#x15a;" horiz-adv-x="501" 
d="M114 172q14 -44 47.5 -74t84.5 -30q27 0 48.5 9t36 24.5t22 36.5t7.5 44q0 42 -22.5 68t-55.5 46t-72.5 38t-72.5 43t-55.5 61.5t-22.5 93.5q0 38 14.5 72.5t41 60t62.5 40.5t78 15q66 0 113 -29.5t76 -86.5l-72 -41q-17 36 -48 57.5t-70 21.5q-45 0 -74.5 -29t-29.5 -76
q0 -40 22.5 -66t56 -46t73 -38.5t73 -43.5t56 -61t22.5 -92q0 -42 -15.5 -79t-43 -64t-66.5 -42.5t-86 -15.5q-75 0 -129 40t-77 103zM176 803l155 108l47 -73l-165 -93z" />
    <glyph glyph-name="sacute" unicode="&#x15b;" horiz-adv-x="384" 
d="M103 111q14 -21 35 -34t48 -13q26 0 45.5 13t19.5 42q0 22 -14.5 35t-36 22.5t-47 19t-47 24t-36 38t-14.5 61.5q0 25 10 48.5t28 41t43.5 28t57.5 10.5q48 0 79 -17.5t53 -52.5l-64 -38q-11 18 -29 28.5t-41 10.5q-25 0 -40.5 -15t-15.5 -37q0 -23 14.5 -36.5
t36.5 -23.5t48 -19.5t48 -24t36.5 -38t14.5 -60.5q0 -27 -10 -51t-29.5 -42t-47.5 -29t-63 -11q-49 0 -84 18t-60 53zM256 700l65 -51l-145 -119l-46 38z" />
    <glyph glyph-name="Scedilla" unicode="&#x15e;" horiz-adv-x="501" 
d="M114 172q14 -44 47.5 -74t84.5 -30q27 0 48.5 9t36 24.5t22 36.5t7.5 44q0 42 -22.5 68t-55.5 46t-72.5 38t-72.5 43t-55.5 61.5t-22.5 93.5q0 38 14.5 72.5t41 60t62.5 40.5t78 15q66 0 113 -29.5t76 -86.5l-72 -41q-17 36 -48 57.5t-70 21.5q-45 0 -74.5 -29t-29.5 -76
q0 -40 22.5 -66t56 -46t73 -38.5t73 -43.5t56 -61t22.5 -92q0 -42 -15.5 -79t-43 -64t-66.5 -42.5t-86 -15.5q-75 0 -129 40t-77 103zM252 -33l63 -52l-106 -120l-54 43z" />
    <glyph glyph-name="scedilla" unicode="&#x15f;" horiz-adv-x="384" 
d="M103 111q14 -21 35 -34t48 -13q26 0 45.5 13t19.5 42q0 22 -14.5 35t-36 22.5t-47 19t-47 24t-36 38t-14.5 61.5q0 25 10 48.5t28 41t43.5 28t57.5 10.5q48 0 79 -17.5t53 -52.5l-64 -38q-11 18 -29 28.5t-41 10.5q-25 0 -40.5 -15t-15.5 -37q0 -23 14.5 -36.5
t36.5 -23.5t48 -19.5t48 -24t36.5 -38t14.5 -60.5q0 -27 -10 -51t-29.5 -42t-47.5 -29t-63 -11q-49 0 -84 18t-60 53zM191 -33l63 -52l-106 -120l-54 43z" />
    <glyph glyph-name="Scaron" unicode="&#x160;" horiz-adv-x="501" 
d="M114 172q14 -44 47.5 -74t84.5 -30q27 0 48.5 9t36 24.5t22 36.5t7.5 44q0 42 -22.5 68t-55.5 46t-72.5 38t-72.5 43t-55.5 61.5t-22.5 93.5q0 38 14.5 72.5t41 60t62.5 40.5t78 15q66 0 113 -29.5t76 -86.5l-72 -41q-17 36 -48 57.5t-70 21.5q-45 0 -74.5 -29t-29.5 -76
q0 -40 22.5 -66t56 -46t73 -38.5t73 -43.5t56 -61t22.5 -92q0 -42 -15.5 -79t-43 -64t-66.5 -42.5t-86 -15.5q-75 0 -129 40t-77 103zM141 907l114 -68l108 68l44 -47l-152 -110l-157 112z" />
    <glyph glyph-name="scaron" unicode="&#x161;" horiz-adv-x="384" 
d="M103 111q14 -21 35 -34t48 -13q26 0 45.5 13t19.5 42q0 22 -14.5 35t-36 22.5t-47 19t-47 24t-36 38t-14.5 61.5q0 25 10 48.5t28 41t43.5 28t57.5 10.5q48 0 79 -17.5t53 -52.5l-64 -38q-11 18 -29 28.5t-41 10.5q-25 0 -40.5 -15t-15.5 -37q0 -23 14.5 -36.5
t36.5 -23.5t48 -19.5t48 -24t36.5 -38t14.5 -60.5q0 -27 -10 -51t-29.5 -42t-47.5 -29t-63 -11q-49 0 -84 18t-60 53zM97 695l91 -81l95 82l43 -43l-138 -126l-136 123z" />
    <glyph glyph-name="Tcedilla" unicode="&#x162;" horiz-adv-x="457" 
d="M184 627h-175v82h440v-82h-175v-627h-90v627zM228 -33l63 -52l-106 -120l-54 43z" />
    <glyph glyph-name="tcedilla" unicode="&#x163;" horiz-adv-x="261" 
d="M79 367h-69v71h69v162h83v-162h89v-71h-89v-367h-83v367zM129 -33l63 -52l-106 -120l-54 43z" />
    <glyph glyph-name="Tcaron" unicode="&#x164;" horiz-adv-x="457" 
d="M184 627h-175v82h440v-82h-175v-627h-90v627zM115 907l114 -68l108 68l44 -47l-152 -110l-157 112z" />
    <glyph glyph-name="tcaron" unicode="&#x165;" horiz-adv-x="261" 
d="M79 367h-69v71h69v162h83v-162h89v-71h-89v-367h-83v367zM352 684q0 -36 -26 -72t-72 -67l-28 29q20 18 32.5 34t12.5 31q0 7 -4 13.5l-8.5 13.5t-8 15t-3.5 19q0 20 13.5 33.5t37.5 13.5q26 0 40 -19t14 -44z" />
    <glyph glyph-name="Umacron" unicode="&#x16a;" horiz-adv-x="698" 
d="M85 709h90v-432q0 -62 14.5 -102t39 -63.5t55.5 -32.5t64 -9q27 0 58.5 6.5t57.5 27.5t43.5 59.5t17.5 102.5v443h88v-433q0 -83 -22.5 -138t-59.5 -87.5t-85 -46t-99 -13.5q-59 0 -107 16t-82.5 50t-53.5 85.5t-19 123.5v443zM223 790v71h253v-71h-253z" />
    <glyph glyph-name="umacron" unicode="&#x16b;" horiz-adv-x="530" 
d="M75 438h83v-233q0 -29 4 -54.5t15.5 -44.5t33 -30.5t56.5 -11.5q34 0 55 12.5t32 32.5t14.5 44.5t3.5 48.5v236h83v-230q0 -42 -8 -81t-29.5 -69.5t-59 -48.5t-95.5 -18q-57 0 -93.5 18t-57.5 46.5t-29 65t-8 74.5v243zM138 653h253v-71h-253v71z" />
    <glyph glyph-name="Uring" unicode="&#x16e;" horiz-adv-x="698" 
d="M85 709h90v-432q0 -62 14.5 -102t39 -63.5t55.5 -32.5t64 -9q27 0 58.5 6.5t57.5 27.5t43.5 59.5t17.5 102.5v443h88v-433q0 -83 -22.5 -138t-59.5 -87.5t-85 -46t-99 -13.5q-59 0 -107 16t-82.5 50t-53.5 85.5t-19 123.5v443zM351 732q-40 0 -68 27t-28 67
q0 19 7.5 36.5t21 30t30.5 20t37 7.5q40 0 68 -27t28 -67q0 -20 -7.5 -37t-21 -29.5t-31 -20t-36.5 -7.5zM351 779q20 0 33 13.5t13 33.5q0 19 -13.5 33t-32.5 14q-20 0 -33 -13.5t-13 -33.5q0 -19 13.5 -33t32.5 -14z" />
    <glyph glyph-name="uring" unicode="&#x16f;" horiz-adv-x="530" 
d="M75 438h83v-233q0 -29 4 -54.5t15.5 -44.5t33 -30.5t56.5 -11.5q34 0 55 12.5t32 32.5t14.5 44.5t3.5 48.5v236h83v-230q0 -42 -8 -81t-29.5 -69.5t-59 -48.5t-95.5 -18q-57 0 -93.5 18t-57.5 46.5t-29 65t-8 74.5v243zM266 517q-40 0 -68 27t-28 67q0 19 7.5 36.5t21 30
t30.5 20t37 7.5q40 0 68 -27t28 -67q0 -20 -7.5 -37t-21 -29.5t-31 -20t-36.5 -7.5zM266 564q20 0 33 13.5t13 33.5q0 19 -13.5 33t-32.5 14q-20 0 -33 -13.5t-13 -33.5q0 -19 13.5 -33t32.5 -14z" />
    <glyph glyph-name="Uhungarumlaut" unicode="&#x170;" horiz-adv-x="698" 
d="M85 709h90v-432q0 -62 14.5 -102t39 -63.5t55.5 -32.5t64 -9q27 0 58.5 6.5t57.5 27.5t43.5 59.5t17.5 102.5v443h88v-433q0 -83 -22.5 -138t-59.5 -87.5t-85 -46t-99 -13.5q-59 0 -107 16t-82.5 50t-53.5 85.5t-19 123.5v443zM431 743l-45 35l106 143l64 -48zM261 743
l-45 35l95 146l64 -48z" />
    <glyph glyph-name="uhungarumlaut" unicode="&#x171;" horiz-adv-x="530" 
d="M75 438h83v-233q0 -29 4 -54.5t15.5 -44.5t33 -30.5t56.5 -11.5q34 0 55 12.5t32 32.5t14.5 44.5t3.5 48.5v236h83v-230q0 -42 -8 -81t-29.5 -69.5t-59 -48.5t-95.5 -18q-57 0 -93.5 18t-57.5 46.5t-29 65t-8 74.5v243zM228 704l62 -48l-114 -133l-43 35zM409 701l62 -48
l-125 -130l-43 35z" />
    <glyph glyph-name="Uogonek" unicode="&#x172;" horiz-adv-x="698" 
d="M613 276q0 -47 -7.5 -83t-19.5 -64t-27.5 -49t-32.5 -37q-12 -12 -26 -28t-26 -32.5t-20 -33t-8 -29.5q0 -61 68 -61q11 0 25 1.5t29 6.5l8 -64q-48 -14 -87 -14q-54 0 -89 24.5t-35 73.5q0 26 17 57t51 70q-20 -14 -44.5 -18.5t-41.5 -4.5q-59 0 -107 16t-82.5 50
t-53.5 85.5t-19 123.5v443h90v-432q0 -62 14.5 -102t39 -63.5t55.5 -32.5t64 -9q27 0 58.5 6.5t57.5 27.5t43.5 59.5t17.5 102.5v443h88v-433v0z" />
    <glyph glyph-name="uogonek" unicode="&#x173;" horiz-adv-x="530" 
d="M455 -197q-48 -14 -87 -14q-54 0 -89 24.5t-35 73.5q0 27 15.5 58t41.5 57q-9 -6 -20 -8.5t-18 -2.5q-57 0 -93.5 18t-57.5 46.5t-29 65t-8 74.5v243h83v-233q0 -29 4 -54.5t15.5 -44.5t33 -30.5t56.5 -11.5q34 0 55 12.5t32 32.5t14.5 44.5t3.5 48.5v236h83v-230
q0 -37 -4.5 -64t-12.5 -47t-18.5 -35.5t-22.5 -28.5l-25.5 -28.5t-23 -28.5t-17 -28t-6.5 -28q0 -61 68 -61q11 0 25 1.5t29 6.5l8 -64v0z" />
    <glyph glyph-name="Ydieresis" unicode="&#x178;" horiz-adv-x="574" 
d="M241 318l-226 391h102l173 -307l172 307h97l-228 -391v-318h-90v318zM373 771q-24 0 -41 17t-17 41t17 41t41 17t41 -17t17 -41t-17 -41t-41 -17zM197 771q-24 0 -41 17t-17 41t17 41t41 17t41 -17t17 -41t-17 -41t-41 -17z" />
    <glyph glyph-name="Zacute" unicode="&#x179;" horiz-adv-x="533" 
d="M368 630h-308v79h450l-359 -626h364v-83h-510zM199 803l155 108l47 -73l-165 -93z" />
    <glyph glyph-name="zacute" unicode="&#x17a;" horiz-adv-x="449" 
d="M273 365h-223v73h377l-253 -364h239v-74h-391zM284 700l65 -51l-145 -119l-46 38z" />
    <glyph glyph-name="Zdotaccent" unicode="&#x17b;" horiz-adv-x="533" 
d="M368 630h-308v79h450l-359 -626h364v-83h-510zM349 836q0 -29 -19.5 -48.5t-48.5 -19.5t-48.5 19.5t-19.5 48.5t19.5 48.5t48.5 19.5t48.5 -19.5t19.5 -48.5z" />
    <glyph glyph-name="zdotaccent" unicode="&#x17c;" horiz-adv-x="449" 
d="M273 365h-223v73h377l-253 -364h239v-74h-391zM225 548q-29 0 -48.5 19.5t-19.5 48.5t19.5 48.5t48.5 19.5t48.5 -19.5t19.5 -48.5t-19.5 -48.5t-48.5 -19.5z" />
    <glyph glyph-name="Zcaron" unicode="&#x17d;" horiz-adv-x="533" 
d="M368 630h-308v79h450l-359 -626h364v-83h-510zM154 907l114 -68l108 68l44 -47l-152 -110l-157 112z" />
    <glyph glyph-name="zcaron" unicode="&#x17e;" horiz-adv-x="449" 
d="M273 365h-223v73h377l-253 -364h239v-74h-391zM127 695l91 -81l95 82l43 -43l-138 -126l-136 123z" />
    <glyph glyph-name="florin" unicode="&#x192;" horiz-adv-x="580" 
d="M42 -132q12 -2 28.5 -4t28.5 -2q36 0 51.5 20t22.5 64l62 396h-105l11 70h105l29 189q11 73 47 113t112 40q17 0 36.5 -2t30.5 -4l-12 -75q-11 2 -27.5 4t-28.5 2q-36 0 -51.5 -20t-22.5 -64l-28 -183h114l-11 -70h-114l-63 -402q-11 -73 -47 -113t-112 -40
q-17 0 -36.5 2t-30.5 4z" />
    <glyph glyph-name="Scommaaccent" unicode="&#x218;" horiz-adv-x="501" 
d="M114 172q14 -44 47.5 -74t84.5 -30q27 0 48.5 9t36 24.5t22 36.5t7.5 44q0 42 -22.5 68t-55.5 46t-72.5 38t-72.5 43t-55.5 61.5t-22.5 93.5q0 38 14.5 72.5t41 60t62.5 40.5t78 15q66 0 113 -29.5t76 -86.5l-72 -41q-17 36 -48 57.5t-70 21.5q-45 0 -74.5 -29t-29.5 -76
q0 -40 22.5 -66t56 -46t73 -38.5t73 -43.5t56 -61t22.5 -92q0 -42 -15.5 -79t-43 -64t-66.5 -42.5t-86 -15.5q-75 0 -129 40t-77 103zM309 -98q0 -36 -26 -72t-72 -67l-28 29q20 18 32.5 34t12.5 31q0 7 -4 13.5l-8.5 13.5t-8 15t-3.5 19q0 20 13.5 33.5t37.5 13.5
q26 0 40 -19t14 -44z" />
    <glyph glyph-name="scommaaccent" unicode="&#x219;" horiz-adv-x="384" 
d="M103 111q14 -21 35 -34t48 -13q26 0 45.5 13t19.5 42q0 22 -14.5 35t-36 22.5t-47 19t-47 24t-36 38t-14.5 61.5q0 25 10 48.5t28 41t43.5 28t57.5 10.5q48 0 79 -17.5t53 -52.5l-64 -38q-11 18 -29 28.5t-41 10.5q-25 0 -40.5 -15t-15.5 -37q0 -23 14.5 -36.5
t36.5 -23.5t48 -19.5t48 -24t36.5 -38t14.5 -60.5q0 -27 -10 -51t-29.5 -42t-47.5 -29t-63 -11q-49 0 -84 18t-60 53zM249 -98q0 -36 -26 -72t-72 -67l-28 29q20 18 32.5 34t12.5 31q0 7 -4 13.5l-8.5 13.5t-8 15t-3.5 19q0 20 13.5 33.5t37.5 13.5q26 0 40 -19t14 -44z" />
    <glyph glyph-name="Tcommaaccent" unicode="&#x21a;" horiz-adv-x="457" 
d="M184 627h-175v82h440v-82h-175v-627h-90v627zM287 -98q0 -36 -26 -72t-72 -67l-28 29q20 18 32.5 34t12.5 31q0 7 -4 13.5l-8.5 13.5t-8 15t-3.5 19q0 20 13.5 33.5t37.5 13.5q26 0 40 -19t14 -44z" />
    <glyph glyph-name="tcommaaccent" unicode="&#x21b;" horiz-adv-x="261" 
d="M79 367h-69v71h69v162h83v-162h89v-71h-89v-367h-83v367zM185 -98q0 -36 -26 -72t-72 -67l-28 29q20 18 32.5 34t12.5 31q0 7 -4 13.5l-8.5 13.5t-8 15t-3.5 19q0 20 13.5 33.5t37.5 13.5q26 0 40 -19t14 -44z" />
    <glyph glyph-name="circumflex" unicode="&#x2c6;" horiz-adv-x="340" 
d="M173 705l134 -130l-45 -44l-90 85l-95 -86l-44 42z" />
    <glyph glyph-name="caron" unicode="&#x2c7;" horiz-adv-x="340" 
d="M78 695l91 -81l95 82l43 -43l-138 -126l-136 123z" />
    <glyph glyph-name="breve" unicode="&#x2d8;" horiz-adv-x="340" 
d="M95 683q0 -16 4 -31t12.5 -26.5t22 -18.5t31.5 -7q39 0 59 25t20 58h65q0 -74 -40 -111.5t-102 -37.5q-69 0 -103 41t-34 108h65z" />
    <glyph glyph-name="dotaccent" unicode="&#x2d9;" horiz-adv-x="340" 
d="M170 548q-29 0 -48.5 19.5t-19.5 48.5t19.5 48.5t48.5 19.5t48.5 -19.5t19.5 -48.5t-19.5 -48.5t-48.5 -19.5z" />
    <glyph glyph-name="ring" unicode="&#x2da;" horiz-adv-x="340" 
d="M170 517q-40 0 -68 27t-28 67q0 19 7.5 36.5t21 30t30.5 20t37 7.5q40 0 68 -27t28 -67q0 -20 -7.5 -37t-21 -29.5t-31 -20t-36.5 -7.5zM170 564q20 0 33 13.5t13 33.5q0 19 -13.5 33t-32.5 14q-20 0 -33 -13.5t-13 -33.5q0 -19 13.5 -33t32.5 -14z" />
    <glyph glyph-name="ogonek" unicode="&#x2db;" horiz-adv-x="340" 
d="M182 0q-22 -47 -22 -81q0 -61 67 -61q23 0 55 9l8 -64q-48 -14 -88 -14q-54 0 -89 24t-35 74q0 47 38 113h66z" />
    <glyph glyph-name="tilde" unicode="&#x2dc;" horiz-adv-x="340" 
d="M-13 556q0 52 27.5 86t81.5 34q22 0 41.5 -9t37.5 -20.5t34.5 -20.5t34.5 -9q20 0 32 14t12 40h64q0 -52 -27.5 -86t-81.5 -34q-24 0 -45 9t-39 20.5t-34 20.5t-30 9q-20 0 -32 -14t-12 -40h-64v0z" />
    <glyph glyph-name="hungarumlaut" unicode="&#x2dd;" horiz-adv-x="340" 
d="M96 704l62 -48l-114 -133l-43 35zM277 701l62 -48l-125 -130l-43 35z" />
    <glyph glyph-name="tonos" unicode="&#x384;" horiz-adv-x="340" 
d="M204 700l65 -51l-145 -119l-46 38z" />
    <glyph glyph-name="dieresistonos" unicode="&#x385;" 
d="M399 563q-23 0 -39.5 16.5t-16.5 39.5t16.5 39.5t39.5 16.5t39.5 -16.5t16.5 -39.5t-16.5 -39.5t-39.5 -16.5zM102 563q-23 0 -39.5 16.5t-16.5 39.5t16.5 39.5t39.5 16.5t39.5 -16.5t16.5 -39.5t-16.5 -39.5t-39.5 -16.5zM206 762h88l-15 -191h-58z" />
    <glyph glyph-name="Alphatonos" unicode="&#x386;" horiz-adv-x="668" 
d="M303 709h75l275 -709h-98l-71 190h-293l-71 -190h-95zM454 266l-65 172l-14 36.5t-17 46.5l-21 58q-10 -31 -20 -57q-8 -23 -17 -46t-14 -37l-66 -173h234zM35 709h88l-15 -191h-58z" />
    <glyph glyph-name="Epsilontonos" unicode="&#x388;" horiz-adv-x="681" 
d="M236 709h370v-84h-280v-217h269v-80h-269v-245h283v-83h-373v709zM30 709h88l-15 -191h-58z" />
    <glyph glyph-name="Etatonos" unicode="&#x389;" horiz-adv-x="848" 
d="M235 709h90v-286h348v286h90v-709h-90v340h-348v-340h-90v709zM30 709h88l-15 -191h-58z" />
    <glyph glyph-name="Iotatonos" unicode="&#x38a;" horiz-adv-x="410" 
d="M236 709h90v-709h-90v709zM30 709h88l-15 -191h-58z" />
    <glyph glyph-name="Omicrontonos" unicode="&#x38c;" horiz-adv-x="961" 
d="M540 -12q-76 0 -143 28.5t-117.5 77.5t-79.5 115.5t-29 143.5q0 74 29.5 141t80.5 117.5t118.5 80t143.5 29.5q78 0 145.5 -28.5t117 -78t78 -116t28.5 -142.5q0 -77 -29.5 -144t-80.5 -116.5t-118.5 -78.5t-143.5 -29zM542 73q60 0 110 21.5t87 59t57.5 89t20.5 110.5
q0 60 -20 112t-56.5 90.5t-87.5 60.5t-112 22q-59 0 -109.5 -23t-87.5 -61.5t-58 -89.5t-21 -108t22 -108.5t59.5 -90.5t88 -61.5t107.5 -22.5zM30 709h88l-15 -191h-58z" />
    <glyph glyph-name="Upsilontonos" unicode="&#x38e;" horiz-adv-x="754" 
d="M421 318l-226 391h102l173 -307l172 307h97l-228 -391v-318h-90v318zM30 709h88l-15 -191h-58z" />
    <glyph glyph-name="Omegatonos" unicode="&#x38f;" horiz-adv-x="961" 
d="M198 83h148q-36 22 -67 51t-53.5 65t-35.5 78.5t-13 92.5q0 72 30 136t80 111.5t116.5 75.5t138.5 28q76 0 142.5 -27t115 -74.5t76.5 -112t28 -138.5q0 -49 -14 -91.5t-37.5 -78.5t-55.5 -65t-68 -51h154v-83h-256v113q33 13 65.5 34.5t59 52.5t42.5 72t16 93
q0 56 -19.5 105.5t-55.5 87t-85.5 59t-109.5 21.5q-58 0 -107.5 -22t-85.5 -58.5t-56 -85.5t-20 -103q0 -52 16 -93.5t41.5 -73.5t58.5 -54t66 -35v-113h-255v83zM30 709h88l-15 -191h-58z" />
    <glyph glyph-name="iotadieresistonos" unicode="&#x390;" horiz-adv-x="233" 
d="M75 438h83v-438h-83v438zM266 563q-23 0 -39.5 16.5t-16.5 39.5t16.5 39.5t39.5 16.5t39.5 -16.5t16.5 -39.5t-16.5 -39.5t-39.5 -16.5zM-31 563q-23 0 -39.5 16.5t-16.5 39.5t16.5 39.5t39.5 16.5t39.5 -16.5t16.5 -39.5t-16.5 -39.5t-39.5 -16.5zM73 762h88l-15 -191
h-58z" />
    <glyph glyph-name="Alpha" unicode="&#x391;" horiz-adv-x="658" 
d="M293 709h75l275 -709h-98l-71 190h-293l-71 -190h-95zM444 266l-65 172l-14 36.5t-17 46.5l-21 58q-10 -31 -20 -57q-8 -23 -17 -46t-14 -37l-66 -173h234z" />
    <glyph glyph-name="Beta" unicode="&#x392;" horiz-adv-x="553" 
d="M85 709h176q46 0 83.5 -12t64.5 -34.5t41.5 -54.5t14.5 -73q0 -57 -27.5 -97t-72.5 -64q25 -7 48.5 -22t41.5 -36.5t28.5 -50.5t10.5 -64q0 -42 -14.5 -78.5t-44.5 -64t-77 -43t-113 -15.5h-160v709zM240 403q25 0 49 7.5t42.5 22.5t29.5 37t11 52q0 48 -29 78.5
t-92 30.5h-76v-228h65zM257 79q76 0 111.5 30.5t35.5 88.5t-37.5 93t-123.5 35h-68v-247h82z" />
    <glyph glyph-name="Gamma" unicode="&#x393;" horiz-adv-x="432" 
d="M407 709v-84h-232v-625h-90v709h322z" />
    <glyph glyph-name="uni0394" unicode="&#x394;" horiz-adv-x="658" 
d="M293 709h75l275 -709h-628zM141 83h372l-134 355l-14 36.5t-17 46.5l-21 58q-10 -31 -20 -57q-8 -23 -17 -46t-14 -37z" />
    <glyph glyph-name="Epsilon" unicode="&#x395;" horiz-adv-x="531" 
d="M85 709h370v-84h-280v-217h269v-80h-269v-245h283v-83h-373v709z" />
    <glyph glyph-name="Zeta" unicode="&#x396;" horiz-adv-x="533" 
d="M368 630h-308v79h450l-359 -626h364v-83h-510z" />
    <glyph glyph-name="Eta" unicode="&#x397;" horiz-adv-x="698" 
d="M85 709h90v-286h348v286h90v-709h-90v340h-348v-340h-90v709z" />
    <glyph glyph-name="Theta" unicode="&#x398;" horiz-adv-x="841" 
d="M419 -12q-76 0 -143 28.5t-117.5 77.5t-79.5 115.5t-29 143.5q0 74 29.5 141t80.5 117.5t118.5 80t143.5 29.5q78 0 145.5 -28.5t117 -78t78 -116t28.5 -142.5q0 -77 -29.5 -144t-80.5 -116.5t-118.5 -78.5t-143.5 -29zM421 73q60 0 110 21.5t87 59t57.5 89t20.5 110.5
q0 60 -20 112t-56.5 90.5t-87.5 60.5t-112 22q-59 0 -109.5 -23t-87.5 -61.5t-58 -89.5t-21 -108t22 -108.5t59.5 -90.5t88 -61.5t107.5 -22.5zM637 399v-80h-439v80h439z" />
    <glyph glyph-name="Iota" unicode="&#x399;" horiz-adv-x="260" 
d="M85 709h90v-709h-90v709z" />
    <glyph glyph-name="Kappa" unicode="&#x39a;" horiz-adv-x="593" 
d="M85 709h90v-313l261 313h108l-274 -325l293 -384h-118l-270 362v-362h-90v709z" />
    <glyph glyph-name="Lambda" unicode="&#x39b;" horiz-adv-x="658" 
d="M112 0h-97l278 709h75l275 -709h-99l-165 438l-14 36.5t-17 46.5l-21 58q-10 -31 -20 -57q-8 -23 -17 -46t-14 -37z" />
    <glyph glyph-name="Mu" unicode="&#x39c;" horiz-adv-x="889" 
d="M145 709h94l155 -435q7 -19 16 -47l17 -54q10 -31 19 -64l19 60l16 50t14 42l162 448h87l98 -709h-90l-49 376q-6 46 -11 98.5l-9 97.5q-13 -46 -27.5 -90.5l-28.5 -83.5l-147 -398h-78l-144 400q-14 38 -28 82l-28 90q-4 -45 -9.5 -96.5t-12.5 -99.5l-50 -376h-89z" />
    <glyph glyph-name="Nu" unicode="&#x39d;" horiz-adv-x="785" 
d="M85 709h85l449 -572v572h81v-709h-85l-448 572v-572h-82v709z" />
    <glyph glyph-name="Xi" unicode="&#x39e;" horiz-adv-x="594" 
d="M43 709h508v-84h-508v84zM554 83v-83h-514v83h514zM81 408h432v-80h-432v80z" />
    <glyph glyph-name="Omicron" unicode="&#x39f;" horiz-adv-x="841" 
d="M419 -12q-76 0 -143 28.5t-117.5 77.5t-79.5 115.5t-29 143.5q0 74 29.5 141t80.5 117.5t118.5 80t143.5 29.5q78 0 145.5 -28.5t117 -78t78 -116t28.5 -142.5q0 -77 -29.5 -144t-80.5 -116.5t-118.5 -78.5t-143.5 -29zM421 73q60 0 110 21.5t87 59t57.5 89t20.5 110.5
q0 60 -20 112t-56.5 90.5t-87.5 60.5t-112 22q-59 0 -109.5 -23t-87.5 -61.5t-58 -89.5t-21 -108t22 -108.5t59.5 -90.5t88 -61.5t107.5 -22.5z" />
    <glyph glyph-name="Pi" unicode="&#x3a0;" horiz-adv-x="698" 
d="M523 0v625h-348v-625h-90v709h528v-709h-90z" />
    <glyph glyph-name="Rho" unicode="&#x3a1;" horiz-adv-x="488" 
d="M85 709h155q105 0 164.5 -50t59.5 -150q0 -44 -16.5 -82t-48 -66t-76.5 -44t-102 -16h-46v-301h-90v709zM225 379q69 0 107.5 34.5t38.5 89.5q0 60 -32.5 94t-110.5 34h-53v-252h50z" />
    <glyph glyph-name="Sigma" unicode="&#x3a3;" horiz-adv-x="583" 
d="M182 83h351v-83h-493l210 366l-210 343h490v-82h-340l158 -258z" />
    <glyph glyph-name="Tau" unicode="&#x3a4;" horiz-adv-x="457" 
d="M184 627h-175v82h440v-82h-175v-627h-90v627z" />
    <glyph glyph-name="Upsilon" unicode="&#x3a5;" horiz-adv-x="574" 
d="M241 318l-226 391h102l173 -307l172 307h97l-228 -391v-318h-90v318z" />
    <glyph glyph-name="Phi" unicode="&#x3a6;" horiz-adv-x="791" 
d="M349 0v94h-22q-60 0 -111 17.5t-88.5 51t-58.5 81.5t-21 110q0 47 15 94t50.5 84.5t93 61t141.5 23.5h1v92h89v-92h26q60 0 111 -17.5t88.5 -51t58.5 -82t21 -109.5q0 -47 -15 -94t-50.5 -84.5t-93 -61t-141.5 -23.5h-5v-94h-89zM438 176h10q104 0 152.5 49t48.5 128
q0 83 -50 132.5t-144 49.5h-17v-359zM349 535h-6q-104 0 -152.5 -49t-48.5 -128q0 -83 50 -132.5t144 -49.5h13v359z" />
    <glyph glyph-name="Chi" unicode="&#x3a7;" horiz-adv-x="593" 
d="M244 366l-199 343h98l152 -272l148 272h101l-202 -343l218 -366h-102l-165 294l-162 -294h-98z" />
    <glyph glyph-name="Psi" unicode="&#x3a8;" horiz-adv-x="792" 
d="M350 171h-8q-59 0 -107 16t-82.5 50t-53.5 85.5t-19 123.5v263h90v-252q0 -62 14.5 -102t39 -63.5t55.5 -32.5t64 -9h7v459h90v-459h7q27 0 58.5 6.5t57.5 27.5t43.5 59.5t17.5 102.5v263h88v-253q0 -83 -22.5 -138t-59.5 -87.5t-85 -46t-99 -13.5h-6v-171h-90v171z" />
    <glyph glyph-name="uni03A9" unicode="&#x3a9;" horiz-adv-x="841" 
d="M78 83h148q-36 22 -67 51t-53.5 65t-35.5 78.5t-13 92.5q0 72 30 136t80 111.5t116.5 75.5t138.5 28q76 0 142.5 -27t115 -74.5t76.5 -112t28 -138.5q0 -49 -14 -91.5t-37.5 -78.5t-55.5 -65t-68 -51h154v-83h-256v113q33 13 65.5 34.5t59 52.5t42.5 72t16 93
q0 56 -19.5 105.5t-55.5 87t-85.5 59t-109.5 21.5q-58 0 -107.5 -22t-85.5 -58.5t-56 -85.5t-20 -103q0 -52 16 -93.5t41.5 -73.5t58.5 -54t66 -35v-113h-255v83z" />
    <glyph glyph-name="Iotadieresis" unicode="&#x3aa;" horiz-adv-x="260" 
d="M85 709h90v-709h-90v709zM220 771q-24 0 -41 17t-17 41t17 41t41 17t41 -17t17 -41t-17 -41t-41 -17zM44 771q-24 0 -41 17t-17 41t17 41t41 17t41 -17t17 -41t-17 -41t-41 -17z" />
    <glyph glyph-name="Upsilondieresis" unicode="&#x3ab;" horiz-adv-x="574" 
d="M241 318l-226 391h102l173 -307l172 307h97l-228 -391v-318h-90v318zM374 771q-24 0 -41 17t-17 41t17 41t41 17t41 -17t17 -41t-17 -41t-41 -17zM198 771q-24 0 -41 17t-17 41t17 41t41 17t41 -17t17 -41t-17 -41t-41 -17z" />
    <glyph glyph-name="alphatonos" unicode="&#x3ac;" horiz-adv-x="568" 
d="M410 63q-22 -33 -61 -52.5t-87 -19.5q-46 0 -85.5 17t-69 47t-46 71t-16.5 89q0 49 17 91.5t46.5 73.5t69 49t84.5 18t83.5 -18t64.5 -52v61h83v-438h-83v63zM273 64q32 0 58 11.5t45 32t29 49t10 62.5q0 71 -40 113t-102 42q-30 0 -56 -12t-45.5 -33t-30.5 -49.5
t-11 -60.5t11 -60.5t30.5 -49.5t45.5 -33t56 -12zM351 700l65 -51l-145 -119l-46 38z" />
    <glyph glyph-name="epsilontonos" unicode="&#x3ad;" horiz-adv-x="394" 
d="M328 346q-17 11 -41.5 21t-60.5 10t-58.5 -13t-22.5 -41q0 -32 21.5 -47.5t59.5 -15.5h75v-65h-82q-43 0 -66 -16.5t-23 -51.5q0 -32 24.5 -48t65.5 -16q35 0 65.5 10t47.5 21l36 -62q-29 -18 -67.5 -29.5t-91.5 -11.5q-83 0 -124 36t-41 96q0 39 23.5 67t59.5 39
q-68 36 -68 100q0 28 12.5 50t34.5 37t52.5 23t65.5 8q45 0 77 -11t61 -31zM281 700l65 -51l-145 -119l-46 38z" />
    <glyph glyph-name="etatonos" unicode="&#x3ae;" horiz-adv-x="527" 
d="M75 438h80v-58q20 27 54.5 46.5t82.5 19.5q76 0 118 -41t42 -130v-476h-83v464q0 57 -23 84t-70 27q-24 0 -45.5 -9t-37.5 -25.5t-25.5 -39t-9.5 -49.5v-251h-83v438zM317 700l65 -51l-145 -119l-46 38z" />
    <glyph glyph-name="iotatonos" unicode="&#x3af;" horiz-adv-x="233" 
d="M75 438h83v-438h-83v438zM175 700l65 -51l-145 -119l-46 38z" />
    <glyph glyph-name="upsilondieresistonos" unicode="&#x3b0;" horiz-adv-x="530" 
d="M75 438h83v-233q0 -29 4 -54.5t15.5 -44.5t33 -30.5t56.5 -11.5q34 0 55 12.5t32 32.5t14.5 44.5t3.5 48.5v236h83v-230q0 -42 -8 -81t-29.5 -69.5t-59 -48.5t-95.5 -18q-57 0 -93.5 18t-57.5 46.5t-29 65t-8 74.5v243zM415 563q-23 0 -39.5 16.5t-16.5 39.5t16.5 39.5
t39.5 16.5t39.5 -16.5t16.5 -39.5t-16.5 -39.5t-39.5 -16.5zM118 563q-23 0 -39.5 16.5t-16.5 39.5t16.5 39.5t39.5 16.5t39.5 -16.5t16.5 -39.5t-16.5 -39.5t-39.5 -16.5zM222 762h88l-15 -191h-58z" />
    <glyph glyph-name="alpha" unicode="&#x3b1;" horiz-adv-x="568" 
d="M410 63q-22 -33 -61 -52.5t-87 -19.5q-46 0 -85.5 17t-69 47t-46 71t-16.5 89q0 49 17 91.5t46.5 73.5t69 49t84.5 18t83.5 -18t64.5 -52v61h83v-438h-83v63zM273 64q32 0 58 11.5t45 32t29 49t10 62.5q0 71 -40 113t-102 42q-30 0 -56 -12t-45.5 -33t-30.5 -49.5
t-11 -60.5t11 -60.5t30.5 -49.5t45.5 -33t56 -12z" />
    <glyph glyph-name="beta" unicode="&#x3b2;" horiz-adv-x="554" 
d="M75 546q0 41 11.5 79t35 66.5t59 45.5t82.5 17q46 0 80 -14.5t56.5 -39.5t33.5 -58.5t11 -71.5q0 -35 -9 -60.5t-23.5 -43.5t-31 -29.5t-31.5 -17.5q16 -3 43 -13.5t52.5 -33t44 -59.5t18.5 -94q0 -48 -16 -90t-45 -72.5t-68.5 -48t-85.5 -17.5q-26 0 -47.5 5.5t-39 14
t-29.5 18t-18 17.5v-247h-83v747zM158 138q7 -13 17.5 -26t25.5 -23.5t34.5 -17.5t45.5 -7q31 0 57 12t44.5 32t28.5 47.5t10 59.5q0 31 -11 58.5t-30.5 47.5t-46.5 32t-60 12h-65v73h33q53 0 86.5 33t33.5 93q0 51 -27 85t-74 34q-49 0 -75.5 -33.5t-26.5 -86.5v-425z" />
    <glyph glyph-name="gamma" unicode="&#x3b3;" horiz-adv-x="473" 
d="M280 11v-212h-83v210l-190 429h95l90 -216q12 -29 24 -62l22 -62l23.5 62t22.5 56l92 222h90z" />
    <glyph glyph-name="delta" unicode="&#x3b4;" horiz-adv-x="554" 
d="M152 745h292v-69h-182l192 -303q24 -38 38.5 -74t14.5 -82q0 -48 -18.5 -89.5t-50.5 -72t-74.5 -48t-91.5 -17.5q-48 0 -89.5 17t-72 47.5t-48 72t-17.5 89.5q0 47 18 89t49 73.5t71 49.5t85 18q17 0 28.5 -2t19.5 -6l-13.5 20.5l-21.5 33.5l-26.5 41l-28.5 45l-74 115
v52zM276 68q30 0 57 10.5t46.5 30t31 45.5t11.5 58q0 35 -10.5 65.5t-30 52.5t-47 34.5t-61.5 12.5q-30 0 -56 -12.5t-45.5 -34t-30.5 -50t-11 -59.5q0 -32 11.5 -60t31 -48.5t46 -32.5t57.5 -12z" />
    <glyph glyph-name="epsilon" unicode="&#x3b5;" horiz-adv-x="394" 
d="M328 346q-17 11 -41.5 21t-60.5 10t-58.5 -13t-22.5 -41q0 -32 21.5 -47.5t59.5 -15.5h75v-65h-82q-43 0 -66 -16.5t-23 -51.5q0 -32 24.5 -48t65.5 -16q35 0 65.5 10t47.5 21l36 -62q-29 -18 -67.5 -29.5t-91.5 -11.5q-83 0 -124 36t-41 96q0 39 23.5 67t59.5 39
q-68 36 -68 100q0 28 12.5 50t34.5 37t52.5 23t65.5 8q45 0 77 -11t61 -31z" />
    <glyph glyph-name="zeta" unicode="&#x3b6;" horiz-adv-x="448" 
d="M384 -209q-10 7 -16.5 11l-13 8l-15 9l-23.5 14q23 39 30.5 56t7.5 29q0 23 -22 35.5t-55.5 23.5l-72 24.5t-72 38t-55.5 64.5t-22 103q0 27 7.5 54.5t19 52t24 45.5t23.5 35l202 277h-222v74h329v-56l-238 -329q-8 -11 -18 -27.5t-18 -36t-13.5 -40.5t-5.5 -42
q0 -53 21.5 -81.5t54.5 -44.5t70.5 -25.5t70.5 -24t54.5 -40.5t21.5 -75q0 -26 -12.5 -56.5t-41.5 -75.5z" />
    <glyph glyph-name="eta" unicode="&#x3b7;" horiz-adv-x="527" 
d="M75 438h80v-58q20 27 54.5 46.5t82.5 19.5q76 0 118 -41t42 -130v-476h-83v464q0 57 -23 84t-70 27q-24 0 -45.5 -9t-37.5 -25.5t-25.5 -39t-9.5 -49.5v-251h-83v438z" />
    <glyph glyph-name="theta" unicode="&#x3b8;" horiz-adv-x="566" 
d="M279 -10q-63 0 -106.5 29.5t-70.5 81t-39.5 120t-12.5 146.5q0 79 14 149.5t42.5 123.5t73 83.5t105.5 30.5q64 0 108 -29.5t71.5 -80.5t39.5 -119t12 -146q0 -80 -14 -150.5t-43.5 -123.5t-74 -84t-105.5 -31zM284 68q39 0 65.5 23t43.5 61t25 87t9 102h-289
q1 -59 9 -109t25 -86.5t44 -57t68 -20.5zM280 677q-37 0 -63 -21.5t-43 -58t-25.5 -84.5t-10.5 -102h289q-2 58 -10.5 106.5t-25.5 84t-44 55.5t-67 20z" />
    <glyph glyph-name="iota" unicode="&#x3b9;" horiz-adv-x="233" 
d="M75 438h83v-438h-83v438z" />
    <glyph glyph-name="kappa" unicode="&#x3ba;" horiz-adv-x="452" 
d="M331 0l-173 208v-208h-83v438h83v-190l165 190h109l-194 -204l204 -234h-111z" />
    <glyph glyph-name="lambda" unicode="&#x3bb;" horiz-adv-x="491" 
d="M87 749h89l310 -749h-89l-98 237l-23.5 57.5t-21.5 56.5l-17 -40.5l-21 -49l-21.5 -49l-17.5 -39.5l-78 -173h-94l206 452z" />
    <glyph glyph-name="uni03BC" unicode="&#x3bc;" horiz-adv-x="536" 
d="M75 438h83v-241q0 -56 29 -92.5t81 -36.5q26 0 46.5 10.5t34.5 28t21.5 40.5t7.5 49v242h83v-438h-80v61q-12 -29 -41.5 -50t-73.5 -21q-42 0 -69 20t-39 45v-256h-83v639z" />
    <glyph glyph-name="nu" unicode="&#x3bd;" horiz-adv-x="473" 
d="M7 438h95l90 -216q12 -29 24 -62l22 -62l23.5 62t22.5 56l92 222h90l-191 -438h-74z" />
    <glyph glyph-name="xi" unicode="&#x3be;" horiz-adv-x="448" 
d="M384 -209q-10 7 -16.5 11l-13 8l-15 9l-23.5 14q23 39 30.5 56t7.5 29q0 23 -22 35.5t-55.5 23.5l-72 24.5t-72 38t-55.5 64.5t-22 103q0 49 17 84.5t41 59t49 36.5t42 17q-16 6 -34.5 18.5t-34 33t-26 49t-10.5 65.5q0 38 15 71.5t42 58.5t65 39.5t83 14.5q35 0 64 -6.5
t55 -17.5v-75q-24 13 -55.5 20.5t-68.5 7.5q-23 0 -44.5 -9t-37.5 -25t-25.5 -38t-9.5 -47q0 -30 11 -53.5t28.5 -39.5t40.5 -24.5t47 -8.5h95v-73h-105q-35 0 -63.5 -11t-49 -31t-32 -48t-11.5 -61q0 -53 22 -81.5t54.5 -44.5t71 -25.5t71 -24t54.5 -40.5t22 -75
q0 -26 -12.5 -56.5t-41.5 -75.5z" />
    <glyph glyph-name="omicron" unicode="&#x3bf;" horiz-adv-x="548" 
d="M272 -10q-48 0 -89.5 17t-72 47.5t-48 72t-17.5 89.5q0 47 18.5 89t50 73.5t73.5 49.5t89 18q48 0 89.5 -17t72 -47.5t48 -72t17.5 -89.5t-18 -90t-49.5 -73t-73.5 -49t-90 -18zM276 68q30 0 56 11.5t45 32t30 47.5t11 58q0 32 -11.5 60t-31 48.5t-46 32.5t-57.5 12
q-30 0 -56 -11.5t-45 -32t-30 -47.5t-11 -58q0 -32 11.5 -60t31 -48.5t46 -32.5t57.5 -12z" />
    <glyph glyph-name="pi" unicode="&#x3c0;" horiz-adv-x="574" 
d="M107 365h-77v73h514v-73h-77v-365h-83v365h-194v-365h-83v365z" />
    <glyph glyph-name="rho" unicode="&#x3c1;" horiz-adv-x="551" 
d="M60 215q0 42 12.5 83.5t39.5 74.5t70 53.5t103 20.5q50 0 91 -17t70 -47t44.5 -71t15.5 -89q0 -50 -16.5 -92.5t-45.5 -73.5t-68 -48.5t-85 -17.5q-45 0 -84 18.5t-64 51.5v-262h-83v416zM280 64q30 0 56 12t44.5 32.5t29 49t10.5 61.5q0 32 -11 60.5t-29.5 49.5t-44 33
t-55.5 12q-32 0 -58 -11.5t-44.5 -32t-28.5 -49t-10 -62.5q0 -35 10.5 -63.5t29.5 -49t45 -31.5t56 -11z" />
    <glyph glyph-name="sigma1" unicode="&#x3c2;" horiz-adv-x="444" 
d="M364 -209q-10 7 -16.5 11l-13 8l-15 9l-23.5 14q23 39 30.5 56t7.5 29q0 24 -15 36t-39 20t-54 16t-61 24q-55 29 -87.5 83t-32.5 118q0 48 18 90t49.5 73.5t75 49.5t94.5 18q31 0 60.5 -6.5t55.5 -17.5v-84q-26 14 -55 22.5t-61 8.5q-33 0 -60 -12t-46.5 -32t-30 -47.5
t-10.5 -57.5q0 -58 28.5 -93.5t65.5 -46.5q27 -11 60 -19t61.5 -23t48 -41t19.5 -74q0 -26 -12.5 -56.5t-41.5 -75.5z" />
    <glyph glyph-name="sigma" unicode="&#x3c3;" horiz-adv-x="564" 
d="M272 -10q-48 0 -89.5 17t-72 47.5t-48 72t-17.5 89.5q0 47 18.5 89t50 73.5t73.5 49.5t89 18q44 0 77 -4t70 -4h86v-73h-39q-15 0 -33 1.5t-29 3.5q42 -27 68 -68.5t26 -88.5q0 -48 -17.5 -89t-48.5 -70.5t-73 -46.5t-91 -17zM276 68q31 0 57 10.5t45 29t29.5 44.5
t10.5 57q0 32 -11.5 61.5t-31.5 51.5t-46.5 35t-56.5 13t-56 -11.5t-45 -32t-30 -47.5t-11 -58q0 -32 11.5 -60t31 -48.5t46 -32.5t57.5 -12z" />
    <glyph glyph-name="tau" unicode="&#x3c4;" horiz-adv-x="383" 
d="M367 365h-134v-365h-83v365h-134v73h351v-73z" />
    <glyph glyph-name="upsilon" unicode="&#x3c5;" horiz-adv-x="530" 
d="M75 438h83v-233q0 -29 4 -54.5t15.5 -44.5t33 -30.5t56.5 -11.5q34 0 55 12.5t32 32.5t14.5 44.5t3.5 48.5v236h83v-230q0 -42 -8 -81t-29.5 -69.5t-59 -48.5t-95.5 -18q-57 0 -93.5 18t-57.5 46.5t-29 65t-8 74.5v243z" />
    <glyph glyph-name="phi" unicode="&#x3c6;" horiz-adv-x="738" 
d="M311 0h-38q-48 0 -89 16.5t-70.5 45.5t-46.5 68t-17 84q0 43 12 78.5t30 63t38 48t35 34.5h84q-17 -15 -36.5 -37t-36.5 -49t-28.5 -59.5t-11.5 -69.5q0 -33 10.5 -60.5t30 -47.5t46.5 -31t59 -11h29v168q0 42 11 79.5t34 65.5t57.5 44.5t81.5 16.5q52 0 88.5 -17
t59.5 -47t34 -71t11 -89t-18 -89t-49.5 -70.5t-75 -46.5t-94.5 -17h-57v-201h-83v201zM460 73q30 0 56 11.5t45 31t30 46.5t11 57q0 34 -6 62.5t-19.5 49.5t-35.5 32.5t-55 11.5q-26 0 -44 -10.5t-28.5 -28.5t-15 -40.5t-4.5 -46.5v-176h66z" />
    <glyph glyph-name="chi" unicode="&#x3c7;" horiz-adv-x="450" 
d="M178 224l-162 214h103l57 -78l50 -71l53.5 73.5l56.5 75.5h98l-161 -214l172 -224h-105l-28.5 39.5l-30.5 43.5l-29.5 43l-26.5 38q-23 -35 -56 -79l-64 -85h-100z" />
    <glyph glyph-name="psi" unicode="&#x3c8;" horiz-adv-x="657" 
d="M287 0h-24q-57 0 -93.5 18t-57.5 46.5t-29 65t-8 74.5v234h83v-224q0 -29 4 -54.5t15.5 -44.5t33 -30.5t56.5 -11.5h20v485h83v-485h24q34 0 55 12.5t32 32.5t14.5 44.5t3.5 48.5v227h83v-221q0 -42 -8 -81t-29.5 -69.5t-59 -48.5t-95.5 -18h-20v-201h-83v201z" />
    <glyph glyph-name="omega" unicode="&#x3c9;" horiz-adv-x="736" 
d="M326 355h82v-150q0 -29 4.5 -54.5t15.5 -44.5t29.5 -30.5t46.5 -11.5q27 0 45.5 12.5t29.5 32.5t16 44.5t5 48.5q0 31 -11 66.5t-27 68.5t-33.5 60t-29.5 41h82q13 -14 31 -37.5t34.5 -54t28 -66t11.5 -72.5q0 -40 -7.5 -79t-27.5 -69.5t-56.5 -49.5t-94.5 -19
q-55 0 -87.5 29t-46.5 78q-14 -50 -47.5 -78.5t-87.5 -28.5q-57 0 -92.5 18.5t-55 48.5t-26.5 67.5t-7 75.5q0 40 11.5 76.5t28 67.5t34.5 55t32 38h81q-12 -14 -29.5 -40t-33.5 -57.5t-27 -66.5t-11 -68q0 -27 5 -52.5t16.5 -45.5t30.5 -32t47 -12q24 0 41.5 11t28.5 30
t16 44t5 52v154z" />
    <glyph glyph-name="iotadieresis" unicode="&#x3ca;" horiz-adv-x="233" 
d="M75 438h83v-438h-83v438zM206 561q-24 0 -41 17t-17 41t17 41t41 17t41 -17t17 -41t-17 -41t-41 -17zM30 561q-24 0 -41 17t-17 41t17 41t41 17t41 -17t17 -41t-17 -41t-41 -17z" />
    <glyph glyph-name="upsilondieresis" unicode="&#x3cb;" horiz-adv-x="530" 
d="M75 438h83v-233q0 -29 4 -54.5t15.5 -44.5t33 -30.5t56.5 -11.5q34 0 55 12.5t32 32.5t14.5 44.5t3.5 48.5v236h83v-230q0 -42 -8 -81t-29.5 -69.5t-59 -48.5t-95.5 -18q-57 0 -93.5 18t-57.5 46.5t-29 65t-8 74.5v243zM353 561q-24 0 -41 17t-17 41t17 41t41 17t41 -17
t17 -41t-17 -41t-41 -17zM177 561q-24 0 -41 17t-17 41t17 41t41 17t41 -17t17 -41t-17 -41t-41 -17z" />
    <glyph glyph-name="omicrontonos" unicode="&#x3cc;" horiz-adv-x="548" 
d="M272 -10q-48 0 -89.5 17t-72 47.5t-48 72t-17.5 89.5q0 47 18.5 89t50 73.5t73.5 49.5t89 18q48 0 89.5 -17t72 -47.5t48 -72t17.5 -89.5t-18 -90t-49.5 -73t-73.5 -49t-90 -18zM276 68q30 0 56 11.5t45 32t30 47.5t11 58q0 32 -11.5 60t-31 48.5t-46 32.5t-57.5 12
q-30 0 -56 -11.5t-45 -32t-30 -47.5t-11 -58q0 -32 11.5 -60t31 -48.5t46 -32.5t57.5 -12zM348 700l65 -51l-145 -119l-46 38z" />
    <glyph glyph-name="upsilontonos" unicode="&#x3cd;" horiz-adv-x="530" 
d="M75 438h83v-233q0 -29 4 -54.5t15.5 -44.5t33 -30.5t56.5 -11.5q34 0 55 12.5t32 32.5t14.5 44.5t3.5 48.5v236h83v-230q0 -42 -8 -81t-29.5 -69.5t-59 -48.5t-95.5 -18q-57 0 -93.5 18t-57.5 46.5t-29 65t-8 74.5v243zM315 700l65 -51l-145 -119l-46 38z" />
    <glyph glyph-name="omegatonos" unicode="&#x3ce;" horiz-adv-x="736" 
d="M326 355h82v-150q0 -29 4.5 -54.5t15.5 -44.5t29.5 -30.5t46.5 -11.5q27 0 45.5 12.5t29.5 32.5t16 44.5t5 48.5q0 31 -11 66.5t-27 68.5t-33.5 60t-29.5 41h82q13 -14 31 -37.5t34.5 -54t28 -66t11.5 -72.5q0 -40 -7.5 -79t-27.5 -69.5t-56.5 -49.5t-94.5 -19
q-55 0 -87.5 29t-46.5 78q-14 -50 -47.5 -78.5t-87.5 -28.5q-57 0 -92.5 18.5t-55 48.5t-26.5 67.5t-7 75.5q0 40 11.5 76.5t28 67.5t34.5 55t32 38h81q-12 -14 -29.5 -40t-33.5 -57.5t-27 -66.5t-11 -68q0 -27 5 -52.5t16.5 -45.5t30.5 -32t47 -12q24 0 41.5 11t28.5 30
t16 44t5 52v154zM441 700l65 -51l-145 -119l-46 38z" />
    <glyph glyph-name="afii10023" unicode="&#x401;" horiz-adv-x="531" 
d="M85 709h370v-84h-280v-217h269v-80h-269v-245h283v-83h-373v709zM357 771q-24 0 -41 17t-17 41t17 41t41 17t41 -17t17 -41t-17 -41t-41 -17zM181 771q-24 0 -41 17t-17 41t17 41t41 17t41 -17t17 -41t-17 -41t-41 -17z" />
    <glyph glyph-name="afii10051" unicode="&#x402;" horiz-adv-x="681" 
d="M287 405q15 2 34 5q17 2 39.5 3.5t49.5 1.5q51 0 94.5 -12t74.5 -37.5t48.5 -64.5t17.5 -93q0 -45 -17 -84.5t-49.5 -68.5t-79 -45.5t-105.5 -16.5v80h5q72 0 112 35.5t40 95.5q0 58 -35.5 94.5t-116.5 36.5q-23 0 -43.5 -1.5t-35.5 -3.5q-18 -3 -33 -5v-325h-90v627
h-188v82h466v-82h-188v-222z" />
    <glyph glyph-name="afii10052" unicode="&#x403;" horiz-adv-x="432" 
d="M407 709v-84h-232v-625h-90v709h322zM165 803l155 108l47 -73l-165 -93z" />
    <glyph glyph-name="afii10053" unicode="&#x404;" horiz-adv-x="650" 
d="M599 35q-42 -20 -91.5 -31t-104.5 -11q-78 0 -143 27.5t-112.5 75.5t-73.5 113.5t-26 142.5q0 83 27.5 150.5t76 115t114 73.5t141.5 26q52 0 97.5 -10t85.5 -29v-97q-35 22 -84 37.5t-105 15.5q-48 0 -90 -16.5t-75 -46.5t-55.5 -71.5t-30.5 -91.5h365v-80h-368
q4 -55 26 -101t57 -79.5t81 -52t99 -18.5q52 0 101.5 12.5t87.5 38.5v-93z" />
    <glyph glyph-name="afii10054" unicode="&#x405;" horiz-adv-x="501" 
d="M114 172q14 -44 47.5 -74t84.5 -30q27 0 48.5 9t36 24.5t22 36.5t7.5 44q0 42 -22.5 68t-55.5 46t-72.5 38t-72.5 43t-55.5 61.5t-22.5 93.5q0 38 14.5 72.5t41 60t62.5 40.5t78 15q66 0 113 -29.5t76 -86.5l-72 -41q-17 36 -48 57.5t-70 21.5q-45 0 -74.5 -29t-29.5 -76
q0 -40 22.5 -66t56 -46t73 -38.5t73 -43.5t56 -61t22.5 -92q0 -42 -15.5 -79t-43 -64t-66.5 -42.5t-86 -15.5q-75 0 -129 40t-77 103z" />
    <glyph glyph-name="afii10055" unicode="&#x406;" horiz-adv-x="260" 
d="M85 709h90v-709h-90v709z" />
    <glyph glyph-name="afii10056" unicode="&#x407;" horiz-adv-x="262" 
d="M86 709h90v-709h-90v709zM202 773q-23 0 -39.5 16.5t-16.5 39.5t16.5 39.5t39.5 16.5t39.5 -16.5t16.5 -39.5t-16.5 -39.5t-39.5 -16.5zM60 773q-23 0 -39.5 16.5t-16.5 39.5t16.5 39.5t39.5 16.5t39.5 -16.5t16.5 -39.5t-16.5 -39.5t-39.5 -16.5z" />
    <glyph glyph-name="afii10057" unicode="&#x408;" horiz-adv-x="386" 
d="M64 126q14 -23 36 -38.5t48 -15.5q29 0 46 25t17 66v546h90v-539q0 -38 -8.5 -71.5t-27 -58t-49.5 -38.5t-76 -14q-19 0 -38 5.5t-37 15.5t-33.5 23.5t-27.5 29.5z" />
    <glyph glyph-name="afii10058" unicode="&#x409;" horiz-adv-x="918" 
d="M210 177q0 -97 -37.5 -143t-121.5 -46q-22 0 -35 3v82q5 -1 13 -1.5t22 -0.5q18 0 31 5t21.5 17.5t12.5 34t4 55.5v526h412v-301h121q52 0 94.5 -12.5t72.5 -37.5t46.5 -62.5t16.5 -87.5q0 -44 -16 -82t-48 -66t-79 -44t-108 -16h-190v625h-232v-448zM791 202
q0 58 -33.5 93t-113.5 35h-112v-251h112q72 0 109.5 33.5t37.5 89.5z" />
    <glyph glyph-name="afii10059" unicode="&#x40a;" horiz-adv-x="948" 
d="M913 208q0 -44 -16 -82t-48 -66t-79 -44t-108 -16h-201v328h-286v-328h-90v709h90v-301h286v301h90v-301h132q52 0 94.5 -12.5t72.5 -37.5t46.5 -62.5t16.5 -87.5zM821 202q0 58 -33.5 93t-113.5 35h-123v-251h123q72 0 109.5 33.5t37.5 89.5z" />
    <glyph glyph-name="afii10060" unicode="&#x40b;" horiz-adv-x="708" 
d="M287 627v-218q17 1 37 2q17 1 40.5 2t50.5 1q33 0 73.5 -6t76 -28t59.5 -65t24 -118v-197h-90v171q0 48 -10.5 79t-30.5 49t-48.5 25t-64.5 7q-23 0 -43.5 -1t-37.5 -2q-19 -1 -36 -2v-326h-90v627h-188v82h466v-82h-188z" />
    <glyph glyph-name="afii10061" unicode="&#x40c;" horiz-adv-x="593" 
d="M85 709h90v-313l261 313h108l-274 -325l293 -384h-118l-270 362v-362h-90v709zM222 803l155 108l47 -73l-165 -93z" />
    <glyph glyph-name="afii10062" unicode="&#x40e;" horiz-adv-x="602" 
d="M258 0h-98l99 207l-241 502h100l122 -258l15 -31l18 -37.5l17.5 -38.5t13.5 -34l185 399h97zM234 898q0 -16 4 -31t12.5 -26.5t22 -18.5t31.5 -7q39 0 59 25t20 58h65q0 -74 -40 -111.5t-102 -37.5q-69 0 -103 41t-34 108h65z" />
    <glyph glyph-name="afii10145" unicode="&#x40f;" horiz-adv-x="698" 
d="M175 709v-625h348v625h90v-709h-220v-179h-88v179h-220v709h90z" />
    <glyph glyph-name="afii10017" unicode="&#x410;" horiz-adv-x="658" 
d="M293 709h75l275 -709h-98l-71 190h-293l-71 -190h-95zM444 266l-65 172l-14 36.5t-17 46.5l-21 58q-10 -31 -20 -57q-8 -23 -17 -46t-14 -37l-66 -173h234z" />
    <glyph glyph-name="afii10018" unicode="&#x411;" horiz-adv-x="561" 
d="M526 208q0 -44 -16 -82t-48 -66t-79 -44t-108 -16h-190v709h369v-84h-279v-217h121q52 0 94.5 -12.5t72.5 -37.5t46.5 -62.5t16.5 -87.5zM434 202q0 58 -33.5 93t-113.5 35h-112v-251h112q72 0 109.5 33.5t37.5 89.5z" />
    <glyph glyph-name="afii10019" unicode="&#x412;" horiz-adv-x="553" 
d="M85 709h176q46 0 83.5 -12t64.5 -34.5t41.5 -54.5t14.5 -73q0 -57 -27.5 -97t-72.5 -64q25 -7 48.5 -22t41.5 -36.5t28.5 -50.5t10.5 -64q0 -42 -14.5 -78.5t-44.5 -64t-77 -43t-113 -15.5h-160v709zM240 403q25 0 49 7.5t42.5 22.5t29.5 37t11 52q0 48 -29 78.5
t-92 30.5h-76v-228h65zM257 79q76 0 111.5 30.5t35.5 88.5t-37.5 93t-123.5 35h-68v-247h82z" />
    <glyph glyph-name="afii10020" unicode="&#x413;" horiz-adv-x="432" 
d="M407 709v-84h-232v-625h-90v709h322z" />
    <glyph glyph-name="afii10021" unicode="&#x414;" horiz-adv-x="672" 
d="M475 625h-232v-235q0 -81 -9.5 -136.5t-24 -91t-32 -54t-33.5 -24.5h331v541zM10 -135v214q18 0 42.5 13t47 45.5t38 86.5t15.5 136v349h412v-625h83v-219h-89v135h-460v-135h-89z" />
    <glyph glyph-name="afii10022" unicode="&#x415;" horiz-adv-x="531" 
d="M85 709h370v-84h-280v-217h269v-80h-269v-245h283v-83h-373v709z" />
    <glyph glyph-name="afii10024" unicode="&#x416;" horiz-adv-x="917" 
d="M31 0l283 375l-284 334h118l261 -313v313h90v-313l261 313h108l-274 -325l293 -384h-118l-270 362v-362h-90v362l-270 -362h-108z" />
    <glyph glyph-name="afii10025" unicode="&#x417;" horiz-adv-x="522" 
d="M128 174q9 -45 40.5 -73t82.5 -28q57 0 92 35t35 91q0 27 -11 51.5t-31.5 43t-50.5 29.5t-67 11h-56v78h53q69 0 105 34.5t36 82.5q0 49 -28.5 79t-79.5 30q-48 0 -76 -25.5t-31 -67.5h-94q2 37 16 69t39.5 56t63 37.5t85.5 13.5t85 -15.5t62.5 -41t38.5 -59t13 -68.5
q0 -66 -30 -105t-75 -55q24 -4 47 -19t40.5 -38t28.5 -51.5t11 -59.5q0 -42 -13.5 -82t-41 -71t-70.5 -49.5t-101 -18.5q-45 0 -82 13.5t-64.5 38t-44.5 59t-21 75.5h94z" />
    <glyph glyph-name="afii10026" unicode="&#x418;" horiz-adv-x="785" 
d="M85 0v709h90v-573l432 573h93v-709h-90v573l-432 -573h-93z" />
    <glyph glyph-name="afii10027" unicode="&#x419;" horiz-adv-x="785" 
d="M85 0v709h90v-573l432 573h93v-709h-90v573l-432 -573h-93zM318 898q0 -16 4 -31t12.5 -26.5t22 -18.5t31.5 -7q39 0 59 25t20 58h65q0 -74 -40 -111.5t-102 -37.5q-69 0 -103 41t-34 108h65z" />
    <glyph glyph-name="afii10028" unicode="&#x41a;" horiz-adv-x="593" 
d="M85 709h90v-313l261 313h108l-274 -325l293 -384h-118l-270 362v-362h-90v709z" />
    <glyph glyph-name="afii10029" unicode="&#x41b;" horiz-adv-x="627" 
d="M210 177q0 -97 -37.5 -143t-121.5 -46q-22 0 -35 3v82q5 -1 13 -1.5t22 -0.5q18 0 31 5t21.5 17.5t12.5 34t4 55.5v526h422v-709h-90v625h-242v-448z" />
    <glyph glyph-name="afii10030" unicode="&#x41c;" horiz-adv-x="889" 
d="M145 709h94l155 -435q7 -19 16 -47l17 -54q10 -31 19 -64l19 60l16 50t14 42l162 448h87l98 -709h-90l-49 376q-6 46 -11 98.5l-9 97.5q-13 -46 -27.5 -90.5l-28.5 -83.5l-147 -398h-78l-144 400q-14 38 -28 82l-28 90q-4 -45 -9.5 -96.5t-12.5 -99.5l-50 -376h-89z" />
    <glyph glyph-name="afii10031" unicode="&#x41d;" horiz-adv-x="698" 
d="M85 709h90v-286h348v286h90v-709h-90v340h-348v-340h-90v709z" />
    <glyph glyph-name="afii10032" unicode="&#x41e;" horiz-adv-x="841" 
d="M419 -12q-76 0 -143 28.5t-117.5 77.5t-79.5 115.5t-29 143.5q0 74 29.5 141t80.5 117.5t118.5 80t143.5 29.5q78 0 145.5 -28.5t117 -78t78 -116t28.5 -142.5q0 -77 -29.5 -144t-80.5 -116.5t-118.5 -78.5t-143.5 -29zM421 73q60 0 110 21.5t87 59t57.5 89t20.5 110.5
q0 60 -20 112t-56.5 90.5t-87.5 60.5t-112 22q-59 0 -109.5 -23t-87.5 -61.5t-58 -89.5t-21 -108t22 -108.5t59.5 -90.5t88 -61.5t107.5 -22.5z" />
    <glyph glyph-name="afii10033" unicode="&#x41f;" horiz-adv-x="698" 
d="M523 0v625h-348v-625h-90v709h528v-709h-90z" />
    <glyph glyph-name="afii10034" unicode="&#x420;" horiz-adv-x="488" 
d="M85 709h155q105 0 164.5 -50t59.5 -150q0 -44 -16.5 -82t-48 -66t-76.5 -44t-102 -16h-46v-301h-90v709zM225 379q69 0 107.5 34.5t38.5 89.5q0 60 -32.5 94t-110.5 34h-53v-252h50z" />
    <glyph glyph-name="afii10035" unicode="&#x421;" horiz-adv-x="650" 
d="M599 35q-42 -20 -91.5 -31t-104.5 -11q-78 0 -143 27.5t-112.5 75.5t-73.5 113.5t-26 142.5q0 83 27.5 150.5t76 115t114 73.5t141.5 26q52 0 97.5 -10t85.5 -29v-97q-35 22 -84 37.5t-105 15.5q-54 0 -100.5 -21t-81 -58t-54 -88t-19.5 -112q0 -60 20 -111t55.5 -88
t84 -58t104.5 -21q52 0 101.5 12.5t87.5 38.5v-93v0z" />
    <glyph glyph-name="afii10036" unicode="&#x422;" horiz-adv-x="457" 
d="M184 627h-175v82h440v-82h-175v-627h-90v627z" />
    <glyph glyph-name="afii10037" unicode="&#x423;" horiz-adv-x="602" 
d="M258 0h-98l99 207l-241 502h100l122 -258l15 -31l18 -37.5l17.5 -38.5t13.5 -34l185 399h97z" />
    <glyph glyph-name="afii10038" unicode="&#x424;" horiz-adv-x="791" 
d="M349 0v94h-22q-60 0 -111 17.5t-88.5 51t-58.5 81.5t-21 110q0 47 15 94t50.5 84.5t93 61t141.5 23.5h1v92h89v-92h26q60 0 111 -17.5t88.5 -51t58.5 -82t21 -109.5q0 -47 -15 -94t-50.5 -84.5t-93 -61t-141.5 -23.5h-5v-94h-89zM438 176h10q104 0 152.5 49t48.5 128
q0 83 -50 132.5t-144 49.5h-17v-359zM349 535h-6q-104 0 -152.5 -49t-48.5 -128q0 -83 50 -132.5t144 -49.5h13v359z" />
    <glyph glyph-name="afii10039" unicode="&#x425;" horiz-adv-x="593" 
d="M244 366l-199 343h98l152 -272l148 272h101l-202 -343l218 -366h-102l-165 294l-162 -294h-98z" />
    <glyph glyph-name="afii10040" unicode="&#x426;" horiz-adv-x="719" 
d="M695 84v-219h-88v135h-522v709h90v-625h348v625h90v-625h82z" />
    <glyph glyph-name="afii10041" unicode="&#x427;" horiz-adv-x="594" 
d="M419 0v300q-16 -2 -35 -3q-17 -1 -40 -1.5t-51 -0.5q-33 0 -73.5 6t-76 28t-59.5 65t-24 118v197h90v-171q0 -48 10.5 -79t30.5 -49t48.5 -25t64.5 -7q23 0 44 0.5t37 1.5q18 1 34 3v326h90v-709h-90z" />
    <glyph glyph-name="afii10042" unicode="&#x428;" horiz-adv-x="968" 
d="M85 0v709h90v-625h264v625h90v-625h264v625h90v-709h-798z" />
    <glyph glyph-name="afii10043" unicode="&#x429;" horiz-adv-x="989" 
d="M85 0v709h90v-625h264v625h90v-625h264v625h90v-625h82v-219h-88v135h-792z" />
    <glyph glyph-name="afii10044" unicode="&#x42a;" horiz-adv-x="641" 
d="M606 208q0 -44 -16 -82t-48 -66t-79 -44t-108 -16h-190v627h-154v82h244v-301h121q52 0 94.5 -12.5t72.5 -37.5t46.5 -62.5t16.5 -87.5zM514 202q0 58 -33.5 93t-113.5 35h-112v-251h112q72 0 109.5 33.5t37.5 89.5z" />
    <glyph glyph-name="afii10045" unicode="&#x42b;" horiz-adv-x="784" 
d="M699 0h-90v709h90v-709zM526 208q0 -44 -16 -82t-48 -66t-79 -44t-108 -16h-190v709h90v-301h121q52 0 94.5 -12.5t72.5 -37.5t46.5 -62.5t16.5 -87.5zM434 202q0 58 -33.5 93t-113.5 35h-112v-251h112q72 0 109.5 33.5t37.5 89.5z" />
    <glyph glyph-name="afii10046" unicode="&#x42c;" horiz-adv-x="561" 
d="M526 208q0 -44 -16 -82t-48 -66t-79 -44t-108 -16h-190v709h90v-301h121q52 0 94.5 -12.5t72.5 -37.5t46.5 -62.5t16.5 -87.5zM434 202q0 58 -33.5 93t-113.5 35h-112v-251h112q72 0 109.5 33.5t37.5 89.5z" />
    <glyph glyph-name="afii10047" unicode="&#x42d;" horiz-adv-x="651" 
d="M48 128q38 -26 88 -38.5t102 -12.5q55 0 101 18.5t80.5 52t55 79.5t25.5 101h-367v80h364q-8 50 -31.5 91.5t-57.5 71.5t-77 46.5t-91 16.5q-56 0 -102 -15.5t-81 -37.5v97q40 19 86.5 29t98.5 10q75 0 140 -25t113 -72t76 -113.5t28 -150.5q0 -77 -26 -143.5
t-73.5 -115.5t-114.5 -76.5t-149 -27.5q-55 0 -100.5 11t-87.5 31v93z" />
    <glyph glyph-name="afii10048" unicode="&#x42e;" horiz-adv-x="1060" 
d="M1010 356q0 -77 -28 -144t-76 -116.5t-112 -78.5t-136 -29q-68 0 -128.5 25.5t-107 69.5t-76.5 104.5t-36 131.5h-135v-319h-90v709h90v-307h137q9 66 40 124t77.5 101.5t106 68.5t125.5 25q73 0 137 -28.5t111 -78t74 -116t27 -142.5zM915 353q0 60 -18.5 112
t-52.5 90.5t-81 60.5t-104 22q-55 0 -101.5 -23t-81 -61.5t-54 -89.5t-19.5 -108t20.5 -108.5t55.5 -90.5t81.5 -61.5t99.5 -22.5q55 0 102 21.5t81 59t53 89t19 110.5z" />
    <glyph glyph-name="afii10049" unicode="&#x42f;" horiz-adv-x="531" 
d="M8 0l228 323q-92 11 -140.5 61.5t-48.5 129.5q0 41 13.5 76.5t41 62t69.5 41.5t99 15h176v-709h-90v318h-25l-216 -318h-107zM140 514q0 -60 36 -89t126 -29h54v235h-74q-42 0 -69.5 -8.5t-43.5 -24.5t-22.5 -37.5t-6.5 -46.5z" />
    <glyph glyph-name="afii10065" unicode="&#x430;" horiz-adv-x="568" 
d="M410 63q-22 -33 -61 -52.5t-87 -19.5q-46 0 -85.5 17t-69 47t-46 71t-16.5 89q0 49 17 91.5t46.5 73.5t69 49t84.5 18t83.5 -18t64.5 -52v61h83v-438h-83v63zM273 64q32 0 58 11.5t45 32t29 49t10 62.5q0 71 -40 113t-102 42q-30 0 -56 -12t-45.5 -33t-30.5 -49.5
t-11 -60.5t11 -60.5t30.5 -49.5t45.5 -33t56 -12z" />
    <glyph glyph-name="afii10066" unicode="&#x431;" horiz-adv-x="553" 
d="M508 228q0 -52 -18 -95.5t-49.5 -75t-73 -49.5t-89.5 -18q-40 0 -81 12.5t-74.5 46t-55 91.5t-21.5 149q0 60 2.5 108t10.5 88t22 74t38 66q42 56 102 81.5t126 25.5h112v-89h-106q-57 0 -101 -17.5t-75 -57.5q-15 -19 -25 -44t-16 -53t-8.5 -57t-2.5 -55q18 25 39.5 42
t44.5 27t45.5 14t42.5 4q45 0 83.5 -16t67 -44.5t44.5 -68.5t16 -89zM423 217q0 31 -10 59t-28 49t-43.5 33t-57.5 12q-31 0 -58 -11.5t-46.5 -31.5t-31 -47.5t-11.5 -58.5q0 -23 5.5 -45t17.5 -41q19 -30 50.5 -48.5t70.5 -18.5q26 0 51 10t45 28.5t32.5 46.5t13.5 64z" />
    <glyph glyph-name="afii10067" unicode="&#x432;" horiz-adv-x="474" 
d="M433 130q0 -54 -35 -90q-18 -18 -49.5 -29t-82.5 -11h-191v438h193q38 0 63.5 -8t45.5 -28q14 -14 21.5 -32.5t7.5 -41.5q0 -32 -15 -54.5t-41 -36.5q34 -8 58.5 -35t24.5 -72zM345 130q0 65 -86 65h-101v-125h104q83 0 83 60zM319 318q0 10 -3 19t-11 17q-15 15 -53 15
h-94v-109h89q16 0 31 3.5t24 12.5q17 17 17 42z" />
    <glyph glyph-name="afii10068" unicode="&#x433;" horiz-adv-x="368" 
d="M343 365h-185v-365h-83v438h268v-73z" />
    <glyph glyph-name="afii10069" unicode="&#x434;" horiz-adv-x="558" 
d="M441 -111v111h-334v-111h-82v180l12 2q12 2 28 11.5t30 25t23.5 36.5t9.5 45v249h319v-364h76v-185h-82zM364 365h-153v-148q-1 -60 -17.5 -92.5t-45.5 -50.5h216v291z" />
    <glyph glyph-name="afii10070" unicode="&#x435;" horiz-adv-x="512" 
d="M460 85q-39 -48 -87 -71t-111 -23q-48 0 -88 16t-68.5 45.5t-44.5 71.5t-16 94q0 53 17.5 95.5t46.5 72t68 45.5t82 16q46 0 84 -15.5t65.5 -44.5t43 -69.5t15.5 -89.5q0 -13 -0.5 -20t-0.5 -14h-334q1 -28 12 -52t29.5 -41.5t43 -27.5t53.5 -10q42 0 76 18.5t57 48.5z
M380 261q0 24 -8.5 45.5t-24.5 37.5t-39 25.5t-52 9.5q-27 0 -48.5 -10t-37.5 -26.5t-25.5 -38t-11.5 -43.5h247z" />
    <glyph glyph-name="afii10072" unicode="&#x436;" horiz-adv-x="670" 
d="M549 0l-173 208v-208h-83v208l-175 -208h-108l201 222l-190 216h110l162 -190v190h83v-190l165 190h109l-194 -204l204 -234h-111z" />
    <glyph glyph-name="afii10073" unicode="&#x437;" horiz-adv-x="407" 
d="M28 402q28 20 71.5 32.5t97.5 12.5q71 0 114 -29.5t43 -85.5q0 -60 -63 -98q35 -9 56 -40t21 -66q0 -64 -49 -100.5t-134 -36.5q-53 0 -98.5 13.5t-74.5 33.5l39 64l19.5 -9.5t31.5 -12.5t39.5 -10.5t42.5 -4.5q43 0 69.5 14.5t26.5 47.5q0 68 -86 68h-64v65h57
q79 0 79 63q0 30 -23.5 41.5t-59.5 11.5q-40 0 -72 -11.5t-49 -22.5z" />
    <glyph glyph-name="afii10074" unicode="&#x438;" horiz-adv-x="565" 
d="M75 0v438h83v-325l250 325h82v-438h-83v324l-251 -324h-81z" />
    <glyph glyph-name="afii10075" unicode="&#x439;" horiz-adv-x="565" 
d="M75 0v438h83v-325l250 325h82v-438h-83v324l-251 -324h-81zM210 683q0 -16 4 -31t12.5 -26.5t22 -18.5t31.5 -7q39 0 59 25t20 58h65q0 -74 -40 -111.5t-102 -37.5q-69 0 -103 41t-34 108h65z" />
    <glyph glyph-name="afii10076" unicode="&#x43a;" horiz-adv-x="452" 
d="M331 0l-173 208v-208h-83v438h83v-190l165 190h109l-194 -204l204 -234h-111z" />
    <glyph glyph-name="afii10077" unicode="&#x43b;" horiz-adv-x="516" 
d="M25 66q3 -1 6 -1h11q36 0 50 20t14 64v289h335v-438h-83v365h-169v-222q0 -73 -31 -113t-107 -40l-26 1v75z" />
    <glyph glyph-name="afii10078" unicode="&#x43c;" horiz-adv-x="647" 
d="M124 438h79l95 -238q9 -23 15 -43t12 -46q6 25 12.5 46t13.5 38l96 243h77l81 -438h-81l-43 235q-4 20 -7.5 44.5t-5.5 46.5q-5 -21 -11.5 -43.5t-13.5 -39.5l-95 -243h-55l-96 242q-6 16 -13 38.5t-12 42.5q-2 -21 -5 -46t-7 -45l-43 -232h-75z" />
    <glyph glyph-name="afii10079" unicode="&#x43d;" horiz-adv-x="527" 
d="M369 0v194h-211v-194h-83v438h83v-175h211v175h83v-438h-83z" />
    <glyph glyph-name="afii10080" unicode="&#x43e;" horiz-adv-x="548" 
d="M272 -10q-48 0 -89.5 17t-72 47.5t-48 72t-17.5 89.5q0 47 18.5 89t50 73.5t73.5 49.5t89 18q48 0 89.5 -17t72 -47.5t48 -72t17.5 -89.5t-18 -90t-49.5 -73t-73.5 -49t-90 -18zM276 68q30 0 56 11.5t45 32t30 47.5t11 58q0 32 -11.5 60t-31 48.5t-46 32.5t-57.5 12
q-30 0 -56 -11.5t-45 -32t-30 -47.5t-11 -58q0 -32 11.5 -60t31 -48.5t46 -32.5t57.5 -12z" />
    <glyph glyph-name="afii10081" unicode="&#x43f;" horiz-adv-x="527" 
d="M369 0v365h-211v-365h-83v438h377v-438h-83z" />
    <glyph glyph-name="afii10082" unicode="&#x440;" horiz-adv-x="566" 
d="M75 438h83v-63q22 33 61 52.5t87 19.5q46 0 85.5 -17t68.5 -47t45 -71t16 -89q0 -50 -16.5 -92.5t-45.5 -73.5t-68 -48.5t-85 -17.5q-45 0 -84 18.5t-64 51.5v-262h-83v639zM295 64q30 0 56 12t44.5 32.5t29 49t10.5 61.5q0 32 -11 60.5t-29.5 49.5t-44 33t-55.5 12
q-32 0 -58 -11.5t-44.5 -32t-28.5 -49t-10 -62.5q0 -35 10.5 -63.5t29.5 -49t45 -31.5t56 -11z" />
    <glyph glyph-name="afii10083" unicode="&#x441;" horiz-adv-x="444" 
d="M399 16q-26 -12 -58.5 -18.5t-64.5 -6.5q-57 0 -100.5 20t-72.5 51.5t-43.5 71.5t-14.5 81q0 48 18 90t49.5 73.5t75 49.5t94.5 18q31 0 60.5 -6.5t55.5 -17.5v-84q-26 14 -55 22.5t-61 8.5q-33 0 -60 -12t-46.5 -32t-30 -47.5t-10.5 -57.5t10.5 -57t30 -47.5t46.5 -32.5
t60 -12q28 0 59 7t58 23v-85v0z" />
    <glyph glyph-name="afii10084" unicode="&#x442;" horiz-adv-x="383" 
d="M367 365h-134v-365h-83v365h-134v73h351v-73z" />
    <glyph glyph-name="afii10085" unicode="&#x443;" horiz-adv-x="471" 
d="M202 54l-196 384h98l77 -157l33 -67.5l33 -69.5l27 61l27 61l78 172h87l-303 -639h-84z" />
    <glyph glyph-name="afii10086" unicode="&#x444;" horiz-adv-x="682" 
d="M45 215q0 103 65 168q31 31 76.5 47t99.5 16h12v191h83v-191h16q56 0 100.5 -14.5t76.5 -45.5q31 -31 47 -71t16 -92q0 -103 -65 -168q-31 -31 -76.5 -47t-99.5 -16h-15v-193h-83v193h-13q-56 0 -100.5 14.5t-76.5 45.5q-31 31 -47 71t-16 92zM552 219q0 35 -11.5 65.5
t-32.5 50.5q-20 20 -48 28t-61 8h-18v-303h22q32 0 58 7.5t45 25.5q22 20 34 51t12 67zM130 219q0 -35 11.5 -65.5t32.5 -50.5q20 -20 48 -28t61 -8h15v303h-19q-32 0 -58 -7.5t-45 -25.5q-22 -20 -34 -51t-12 -67z" />
    <glyph glyph-name="afii10087" unicode="&#x445;" horiz-adv-x="450" 
d="M178 224l-162 214h103l57 -78l50 -71l53.5 73.5l56.5 75.5h98l-161 -214l172 -224h-105l-28.5 39.5l-30.5 43.5l-29.5 43l-26.5 38q-23 -35 -56 -79l-64 -85h-100z" />
    <glyph glyph-name="afii10088" unicode="&#x446;" horiz-adv-x="564" 
d="M446 -127v127h-371v438h83v-364h211v364h83v-364h77v-201h-83z" />
    <glyph glyph-name="afii10089" unicode="&#x447;" horiz-adv-x="486" 
d="M328 0v168q-15 -4 -33 -7q-16 -2 -37.5 -4t-47.5 -2q-162 0 -162 163v120h83v-113q0 -20 3.5 -37.5t12.5 -30.5t25 -20.5t42 -7.5q23 0 43 2t36 4l35 6v197h83v-438h-83z" />
    <glyph glyph-name="afii10090" unicode="&#x448;" horiz-adv-x="743" 
d="M75 0v438h83v-364h172v364h83v-364h172v364h83v-438h-593z" />
    <glyph glyph-name="afii10091" unicode="&#x449;" horiz-adv-x="780" 
d="M75 0v438h83v-364h172v364h83v-364h172v364h83v-364h77v-201h-83v127h-587z" />
    <glyph glyph-name="afii10092" unicode="&#x44a;" horiz-adv-x="492" 
d="M457 142q0 -29 -10.5 -54.5t-27.5 -42.5q-45 -45 -131 -45h-183v365h-93v73h176v-162q12 0 27 1q13 0 31 0.5t39 0.5q33 0 64 -5.5t55 -20.5t38.5 -41.5t14.5 -68.5zM278 211q-17 0 -33 -0.5t-29 -0.5q-15 -1 -28 -1v-140h84q98 0 98 71q0 40 -23 55.5t-69 15.5z" />
    <glyph glyph-name="afii10093" unicode="&#x44b;" horiz-adv-x="652" 
d="M427 142q0 -29 -10.5 -54.5t-27.5 -42.5q-45 -45 -131 -45h-183v438h83v-162q12 0 27 1q13 0 31 0.5t39 0.5q33 0 64 -5.5t55 -20.5t38.5 -41.5t14.5 -68.5zM495 0v438h82v-438h-82zM248 211q-17 0 -33 -0.5t-29 -0.5q-15 -1 -28 -1v-140h84q98 0 98 71q0 40 -23 55.5
t-69 15.5z" />
    <glyph glyph-name="afii10094" unicode="&#x44c;" horiz-adv-x="462" 
d="M427 142q0 -29 -10.5 -54.5t-27.5 -42.5q-45 -45 -131 -45h-183v438h83v-162q12 0 27 1q13 0 31 0.5t39 0.5q33 0 64 -5.5t55 -20.5t38.5 -41.5t14.5 -68.5zM248 211q-17 0 -33 -0.5t-29 -0.5q-15 -1 -28 -1v-140h84q98 0 98 71q0 40 -23 55.5t-69 15.5z" />
    <glyph glyph-name="afii10095" unicode="&#x44d;" horiz-adv-x="456" 
d="M57 417q26 12 59.5 21t75.5 9q51 0 92 -17t69 -47t43 -71t15 -89q0 -51 -15.5 -94t-45 -73.5t-71 -47.5t-92.5 -17q-40 0 -73.5 8.5t-59.5 19.5v84q26 -14 58.5 -25t74.5 -11q57 0 91.5 34t42.5 88h-216v68h216q-8 51 -41.5 84t-93.5 33q-37 0 -69.5 -11t-59.5 -27v81v0z
" />
    <glyph glyph-name="afii10096" unicode="&#x44e;" horiz-adv-x="718" 
d="M673 220q0 -48 -17.5 -90t-47.5 -73t-70 -49t-86 -18q-44 0 -82 15.5t-66.5 42.5t-46 64.5t-21.5 81.5h-78v-194h-83v438h83v-175h82q8 39 28 72.5t48.5 58t64.5 38.5t75 14q46 0 85.5 -17t69 -47.5t46 -72t16.5 -89.5zM588 217q0 32 -10.5 60t-29 48.5t-43.5 32.5
t-53 12t-52 -11.5t-42 -32t-28 -47.5t-10 -58q0 -32 10.5 -60t29 -48.5t43 -32.5t53.5 -12q28 0 52 11.5t42 32t28 47.5t10 58z" />
    <glyph glyph-name="afii10097" unicode="&#x44f;" horiz-adv-x="486" 
d="M39 0l142 163q-55 6 -89 40.5t-34 90.5q0 71 47.5 107.5t124.5 36.5h181v-438h-83v161h-51l-130 -161h-108zM145 298q0 -33 21 -51t60 -18h102v140h-99q-42 0 -63 -19t-21 -52z" />
    <glyph glyph-name="afii10071" unicode="&#x451;" horiz-adv-x="512" 
d="M460 85q-39 -48 -87 -71t-111 -23q-48 0 -88 16t-68.5 45.5t-44.5 71.5t-16 94q0 53 17.5 95.5t46.5 72t68 45.5t82 16q46 0 84 -15.5t65.5 -44.5t43 -69.5t15.5 -89.5q0 -13 -0.5 -20t-0.5 -14h-334q1 -28 12 -52t29.5 -41.5t43 -27.5t53.5 -10q42 0 76 18.5t57 48.5z
M380 261q0 24 -8.5 45.5t-24.5 37.5t-39 25.5t-52 9.5q-27 0 -48.5 -10t-37.5 -26.5t-25.5 -38t-11.5 -43.5h247zM344 561q-24 0 -41 17t-17 41t17 41t41 17t41 -17t17 -41t-17 -41t-41 -17zM168 561q-24 0 -41 17t-17 41t17 41t41 17t41 -17t17 -41t-17 -41t-41 -17z" />
    <glyph glyph-name="afii10099" unicode="&#x452;" horiz-adv-x="527" 
d="M288 -137q3 -1 6 -1h11q36 0 50 20t14 64v317q0 57 -23 84t-70 27q-24 0 -45.5 -9t-37.5 -25.5t-25.5 -39t-9.5 -49.5v-251h-83v510h-63v71h63v168h83v-168h133v-71h-133v-130q20 28 57.5 47t82.5 19q72 0 113 -41t41 -130v-335q0 -73 -31 -113t-107 -40l-26 1v75z" />
    <glyph glyph-name="afii10100" unicode="&#x453;" horiz-adv-x="368" 
d="M343 365h-185v-365h-83v438h268v-73zM257 700l65 -51l-145 -119l-46 38z" />
    <glyph glyph-name="afii10101" unicode="&#x454;" horiz-adv-x="456" 
d="M376 7q-70 -16 -112 -16q-51 0 -92 17t-69 47t-43 71t-15 89q0 51 15.5 94t45 73.5t71 47.5t92.5 17q40 0 73 -9.5t59 -20.5v-82q-26 14 -58 26.5t-74 12.5q-57 0 -91.5 -31.5t-42.5 -85.5h218v-68h-219q8 -51 42 -86.5t94 -35.5q37 0 71 9.5t61 25.5v-83z" />
    <glyph glyph-name="afii10102" unicode="&#x455;" horiz-adv-x="384" 
d="M103 111q14 -21 35 -34t48 -13q26 0 45.5 13t19.5 42q0 22 -14.5 35t-36 22.5t-47 19t-47 24t-36 38t-14.5 61.5q0 25 10 48.5t28 41t43.5 28t57.5 10.5q48 0 79 -17.5t53 -52.5l-64 -38q-11 18 -29 28.5t-41 10.5q-25 0 -40.5 -15t-15.5 -37q0 -23 14.5 -36.5
t36.5 -23.5t48 -19.5t48 -24t36.5 -38t14.5 -60.5q0 -27 -10 -51t-29.5 -42t-47.5 -29t-63 -11q-49 0 -84 18t-60 53z" />
    <glyph glyph-name="afii10103" unicode="&#x456;" horiz-adv-x="233" 
d="M116 559q-25 0 -42.5 17.5t-17.5 42.5t17.5 42.5t42.5 17.5t42.5 -17.5t17.5 -42.5t-17.5 -42.5t-42.5 -17.5zM75 438h83v-438h-83v438z" />
    <glyph glyph-name="afii10104" unicode="&#x457;" horiz-adv-x="253" 
d="M85 438h83v-438h-83v438zM194 565q-23 0 -38.5 15.5t-15.5 38.5t15.5 38.5t38.5 15.5t38.5 -15.5t15.5 -38.5t-15.5 -38.5t-38.5 -15.5zM59 565q-23 0 -38.5 15.5t-15.5 38.5t15.5 38.5t38.5 15.5t38.5 -15.5t15.5 -38.5t-15.5 -38.5t-38.5 -15.5z" />
    <glyph glyph-name="afii10105" unicode="&#x458;" horiz-adv-x="233" 
d="M116 559q-25 0 -42.5 17.5t-17.5 42.5t17.5 42.5t42.5 17.5t42.5 -17.5t17.5 -42.5t-17.5 -42.5t-42.5 -17.5zM75 438h83v-639h-83v639z" />
    <glyph glyph-name="afii10106" unicode="&#x459;" horiz-adv-x="732" 
d="M697 142q0 -29 -10.5 -54.5t-27.5 -42.5q-45 -45 -131 -45h-183v365h-159v-222q0 -73 -31 -113t-107 -40l-26 1v75q3 -1 6 -1h11q36 0 50 20t14 64v289h325v-162q12 0 27 1q13 0 31 0.5t39 0.5q33 0 64 -5.5t55 -20.5t38.5 -41.5t14.5 -68.5zM518 211q-17 0 -33 -0.5
t-29 -0.5q-15 -1 -28 -1v-140h84q98 0 98 71q0 40 -23 55.5t-69 15.5z" />
    <glyph glyph-name="afii10107" unicode="&#x45a;" horiz-adv-x="746" 
d="M711 142q0 -29 -10.5 -54.5t-27.5 -42.5q-45 -45 -131 -45h-183v201h-201v-201h-83v438h83v-168h201v168h83v-162q12 0 27 1q13 0 31 0.5t39 0.5q33 0 64 -5.5t55 -20.5t38.5 -41.5t14.5 -68.5zM532 211q-17 0 -33 -0.5t-29 -0.5q-15 -1 -28 -1v-140h84q98 0 98 71
q0 40 -23 55.5t-69 15.5z" />
    <glyph glyph-name="afii10108" unicode="&#x45b;" horiz-adv-x="527" 
d="M369 0v263q0 57 -23 84t-70 27q-24 0 -45.5 -9t-37.5 -25.5t-25.5 -39t-9.5 -49.5v-251h-83v510h-63v71h63v168h83v-168h133v-71h-133v-130q20 28 57.5 47t82.5 19q72 0 113 -41t41 -130v-275h-83z" />
    <glyph glyph-name="afii10109" unicode="&#x45c;" horiz-adv-x="452" 
d="M331 0l-173 208v-208h-83v438h83v-190l165 190h109l-194 -204l204 -234h-111zM295 700l65 -51l-145 -119l-46 38z" />
    <glyph glyph-name="afii10110" unicode="&#x45e;" horiz-adv-x="471" 
d="M202 54l-196 384h98l77 -157l33 -67.5l33 -69.5l27 61l27 61l78 172h87l-303 -639h-84zM165 683q0 -16 4 -31t12.5 -26.5t22 -18.5t31.5 -7q39 0 59 25t20 58h65q0 -74 -40 -111.5t-102 -37.5q-69 0 -103 41t-34 108h65z" />
    <glyph glyph-name="afii10193" unicode="&#x45f;" horiz-adv-x="527" 
d="M305 0v-142h-83v142h-147v438h83v-364h211v364h83v-438h-147z" />
    <glyph glyph-name="afii10050" unicode="&#x490;" horiz-adv-x="432" 
d="M319 861h88v-236h-232v-625h-90v709h234v152z" />
    <glyph glyph-name="afii10098" unicode="&#x491;" horiz-adv-x="368" 
d="M158 365v-365h-83v438h185v105h83v-178h-185z" />
    <glyph glyph-name="endash" unicode="&#x2013;" horiz-adv-x="510" 
d="M5 313h500v-72h-500v72z" />
    <glyph glyph-name="emdash" unicode="&#x2014;" horiz-adv-x="1010" 
d="M5 313h1000v-72h-1000v72z" />
    <glyph glyph-name="quoteleft" unicode="&#x2018;" horiz-adv-x="250" 
d="M217 710q-31 -27 -50.5 -55t-19.5 -54q0 -15 3.5 -26t7.5 -21t7.5 -20.5t3.5 -22.5q0 -22 -15.5 -38.5t-41.5 -16.5q-25 0 -44.5 20.5t-19.5 66.5q0 55 35 108.5t98 100.5z" />
    <glyph glyph-name="quoteright" unicode="&#x2019;" horiz-adv-x="250" 
d="M33 470q31 27 50.5 55t19.5 54q0 15 -3.5 26t-7.5 21t-7.5 20.5t-3.5 22.5q0 22 15.5 38.5t41.5 16.5q25 0 44.5 -20.5t19.5 -66.5q0 -55 -35 -108.5t-98 -100.5z" />
    <glyph glyph-name="quotesinglbase" unicode="&#x201a;" horiz-adv-x="250" 
d="M33 -132q31 27 50.5 55t19.5 54q0 15 -3.5 26t-7.5 21t-7.5 20.5t-3.5 22.5q0 22 15.5 38.5t41.5 16.5q25 0 44.5 -20.5t19.5 -66.5q0 -55 -35 -108.5t-98 -100.5z" />
    <glyph glyph-name="quotedblleft" unicode="&#x201c;" horiz-adv-x="385" 
d="M348 709q-25 -25 -39 -52.5t-14 -53.5q0 -13 3.5 -23.5t7 -19.5l7 -18t3.5 -20q0 -20 -14 -35.5t-36 -15.5t-40 18.5t-18 60.5q0 51 27.5 100t72.5 94zM191 709q-25 -25 -39 -52.5t-14 -53.5q0 -13 3.5 -23.5t7 -19.5l7 -18t3.5 -20q0 -20 -14 -35.5t-36 -15.5t-40 18.5
t-18 60.5q0 51 27.5 100t72.5 94z" />
    <glyph glyph-name="quotedblright" unicode="&#x201d;" horiz-adv-x="385" 
d="M194 483q25 25 39 52.5t14 53.5q0 13 -3.5 23.5t-7 19.5l-7 18t-3.5 20q0 20 14 35.5t36 15.5t40 -18.5t18 -60.5q0 -51 -27.5 -100t-72.5 -94zM37 483q25 25 39 52.5t14 53.5q0 13 -3.5 23.5t-7 19.5l-7 18t-3.5 20q0 20 14 35.5t36 15.5t40 -18.5t18 -60.5
q0 -51 -27.5 -100t-72.5 -94z" />
    <glyph glyph-name="quotedblbase" unicode="&#x201e;" horiz-adv-x="385" 
d="M194 -119q25 25 39 52.5t14 53.5q0 13 -3.5 23.5t-7 19.5l-7 18t-3.5 20q0 20 14 35.5t36 15.5t40 -18.5t18 -60.5q0 -51 -27.5 -100t-72.5 -94zM37 -119q25 25 39 52.5t14 53.5q0 13 -3.5 23.5t-7 19.5l-7 18t-3.5 20q0 20 14 35.5t36 15.5t40 -18.5t18 -60.5
q0 -51 -27.5 -100t-72.5 -94z" />
    <glyph glyph-name="dagger" unicode="&#x2020;" horiz-adv-x="596" 
d="M256 434h-211v86h211v221h86v-221h211v-86h-211v-540h-86v540z" />
    <glyph glyph-name="daggerdbl" unicode="&#x2021;" horiz-adv-x="574" 
d="M256 107h-211v86h211v251h-211v86h211v211h86v-211h211v-86h-211v-251h211v-86h-211v-213h-86v213z" />
    <glyph glyph-name="bullet" unicode="&#x2022;" horiz-adv-x="344" 
d="M173 213q-27 0 -51 10.5t-42 28.5t-28.5 42t-10.5 51t10.5 51t28.5 42t42 28.5t51 10.5t51 -10.5t42 -28.5t28.5 -42t10.5 -51t-10.5 -51t-28.5 -42t-42 -28.5t-51 -10.5z" />
    <glyph glyph-name="ellipsis" unicode="&#x2026;" horiz-adv-x="784" 
d="M626 -12q-27 0 -46.5 19.5t-19.5 46.5t19.5 46.5t46.5 19.5t46.5 -19.5t19.5 -46.5t-19.5 -46.5t-46.5 -19.5zM376 -12q-27 0 -46.5 19.5t-19.5 46.5t19.5 46.5t46.5 19.5t46.5 -19.5t19.5 -46.5t-19.5 -46.5t-46.5 -19.5zM126 -12q-27 0 -46.5 19.5t-19.5 46.5
t19.5 46.5t46.5 19.5t46.5 -19.5t19.5 -46.5t-19.5 -46.5t-46.5 -19.5z" />
    <glyph glyph-name="perthousand" unicode="&#x2030;" horiz-adv-x="1120" 
d="M923 -9q-28 0 -53 9.5t-43.5 32t-29.5 60.5t-11 96q0 104 39 152t106 48q136 0 136 -196q0 -103 -37.5 -152.5t-106.5 -49.5zM587 -9q-28 0 -53 9.5t-43.5 32t-29.5 60.5t-11 96q0 104 39 152t106 48q136 0 136 -196q0 -103 -37.5 -152.5t-106.5 -49.5zM546 740l61 -29
l-376 -744l-61 28zM183 320q-28 0 -53 9.5t-43.5 32t-29.5 60.5t-11 96q0 104 39 152t106 48q136 0 136 -196q0 -103 -37.5 -152.5t-106.5 -49.5zM927 56q32 0 47.5 29t15.5 104q0 73 -14 104.5t-49 31.5q-33 0 -48.5 -28.5t-15.5 -103.5q0 -41 4 -67.5t12.5 -42t20.5 -21.5
t27 -6zM591 56q32 0 47.5 29t15.5 104q0 73 -14 104.5t-49 31.5q-33 0 -48.5 -28.5t-15.5 -103.5q0 -41 4 -67.5t12.5 -42t20.5 -21.5t27 -6zM187 385q32 0 47.5 29t15.5 104q0 73 -14 104.5t-49 31.5q-33 0 -48.5 -28.5t-15.5 -103.5q0 -41 4 -67.5t12.5 -42t20.5 -21.5
t27 -6z" />
    <glyph glyph-name="guilsinglleft" unicode="&#x2039;" horiz-adv-x="271" 
d="M24 228l151 213l54 -38l-130 -175l130 -174l-54 -38z" />
    <glyph glyph-name="guilsinglright" unicode="&#x203a;" horiz-adv-x="271" 
d="M172 229l-130 174l54 38l151 -212l-151 -213l-54 38z" />
    <glyph glyph-name="fraction" unicode="&#x2044;" horiz-adv-x="147" 
d="M226 740l61 -29l-376 -744l-61 28z" />
    <glyph glyph-name="zerosuperior" unicode="&#x2070;" horiz-adv-x="378" 
d="M189 367q19 0 34 11.5t25.5 31t15.5 44.5t5 53q0 69 -19.5 109t-61.5 40q-19 0 -33.5 -11t-25 -30.5t-16 -45t-5.5 -55.5q0 -66 20 -106.5t61 -40.5zM187 307q-38 0 -66.5 15t-47.5 42t-29 64t-10 81q0 45 10.5 82.5t30.5 65.5t49 43.5t66 15.5q39 0 68 -15t48 -41.5
t28.5 -63.5t9.5 -81q0 -45 -10.5 -83t-31 -66t-49.5 -43.5t-66 -15.5z" />
    <glyph glyph-name="foursuperior" unicode="&#x2074;" horiz-adv-x="377" 
d="M26 431l166 278h96v-267h66v-62h-66v-66h-71v66h-191v51zM217 442v193l-112 -193h112z" />
    <glyph glyph-name="fivesuperior" unicode="&#x2075;" horiz-adv-x="335" 
d="M72 405q30 -37 77 -37q30 0 52 18t22 54q0 38 -23 56t-59 18q-41 0 -86 -15l22 210h199v-64h-141l-8 -77q5 0 11 1q5 0 11 0.5t11 0.5q64 0 102 -35.5t38 -92.5q0 -61 -41 -98t-110 -37q-76 0 -121 48z" />
    <glyph glyph-name="sixsuperior" unicode="&#x2076;" horiz-adv-x="346" 
d="M287 709q-30 -27 -55.5 -53.5t-45 -49t-33 -39.5t-19.5 -26q5 3 13 6q6 2 15.5 4.5t21.5 2.5q27 0 51 -9t42 -25t28.5 -38t10.5 -48q0 -28 -10.5 -51t-30 -40t-46 -26.5t-57.5 -9.5q-36 0 -63 10t-45 27.5t-27 39.5t-9 46q0 26 7 52t19 50.5t27.5 47t31.5 42.5
q38 46 86 87h88zM174 366q32 0 49 19.5t17 47.5q0 25 -16.5 43.5t-51.5 18.5t-52 -18.5t-17 -46.5q0 -25 18 -44.5t53 -19.5z" />
    <glyph glyph-name="sevensuperior" unicode="&#x2077;" horiz-adv-x="312" 
d="M209 644h-185v65h269v-45l-173 -350h-79z" />
    <glyph glyph-name="eightsuperior" unicode="&#x2078;" horiz-adv-x="352" 
d="M177 362q30 0 46.5 19t16.5 47q0 29 -16 47t-46 18q-32 0 -49.5 -18t-17.5 -47q0 -28 17 -47t49 -19zM177 548q26 0 41 15t15 40q0 26 -16 41.5t-42 15.5t-41 -15t-15 -41q0 -24 15 -40t43 -16zM175 307q-61 0 -100 33t-39 86q0 35 15.5 57.5t43.5 36.5q-25 14 -37 39
t-12 47q0 24 10 44t28 35t42 23t52 8q55 0 91 -29.5t36 -78.5q0 -27 -12.5 -51.5t-32.5 -36.5q9 -5 18.5 -12.5t18 -18.5t14 -26.5t5.5 -34.5q0 -24 -11 -46t-29.5 -38.5t-44.5 -26.5t-56 -10z" />
    <glyph glyph-name="ninesuperior" unicode="&#x2079;" horiz-adv-x="351" 
d="M175 529q36 0 53 18.5t17 47.5q0 24 -17.5 43.5t-54.5 19.5q-32 0 -49.5 -19.5t-17.5 -46.5q0 -25 17 -44t52 -19zM66 314q30 27 55.5 54t45 50t32.5 40.5t19 26.5q-6 -4 -15 -8q-8 -3 -18 -5t-22 -2q-27 0 -51 9t-42 25.5t-28 39t-10 48.5q0 27 10.5 49.5t29.5 39
t45.5 26t57.5 9.5q27 0 53.5 -7t46.5 -22t32.5 -38t12.5 -55q0 -42 -14.5 -79.5t-38 -72.5t-52.5 -66.5l-57 -61.5h-92z" />
    <glyph glyph-name="minussuperior" unicode="&#x207b;" horiz-adv-x="389" 
d="M40 510h309v-59h-309v59z" />
    <glyph glyph-name="parenleftsuperior" unicode="&#x207d;" horiz-adv-x="200" 
d="M123 245q-40 69 -57 137t-17 126q0 66 20.5 132.5t54.5 125.5l52 -16q-29 -58 -45.5 -121.5t-16.5 -119.5t15 -120t47 -126z" />
    <glyph glyph-name="parenrightsuperior" unicode="&#x207e;" horiz-adv-x="200" 
d="M24 263q32 62 47 126t15 120t-16.5 119.5t-45.5 121.5l52 16q33 -59 54 -125.5t21 -132.5q0 -58 -17.5 -126t-56.5 -137z" />
    <glyph glyph-name="zeroinferior" unicode="&#x2080;" horiz-adv-x="378" 
d="M189 -148q19 0 34 11.5t25.5 31t15.5 44.5t5 53q0 69 -19.5 109t-61.5 40q-19 0 -33.5 -11t-25 -30.5t-16 -45t-5.5 -55.5q0 -66 20 -106.5t61 -40.5zM187 -208q-38 0 -66.5 15t-47.5 42t-29 64t-10 81q0 45 10.5 82.5t30.5 65.5t49 43.5t66 15.5q39 0 68 -15t48 -41.5
t28.5 -63.5t9.5 -81q0 -45 -10.5 -83t-31 -66t-49.5 -43.5t-66 -15.5z" />
    <glyph glyph-name="oneinferior" unicode="&#x2081;" horiz-adv-x="258" 
d="M106 125h-76v69h150v-395h-74v326z" />
    <glyph glyph-name="twoinferior" unicode="&#x2082;" horiz-adv-x="389" 
d="M51 -152l100 77q27 21 46.5 38.5t31.5 33.5t17.5 31t5.5 32q0 34 -15 56t-51 22q-21 0 -34.5 -8.5t-21 -22t-9.5 -30.5t-1 -33h-74q-2 72 35 114.5t107 42.5q37 0 64 -11.5t43.5 -30.5t24.5 -43t8 -49q0 -27 -9.5 -50t-25.5 -43.5t-37 -39.5t-45 -38l-36 -29h163v-68
h-287v49z" />
    <glyph glyph-name="threeinferior" unicode="&#x2083;" horiz-adv-x="373" 
d="M121 -84q1 -29 16.5 -47.5t44.5 -18.5t46 18t17 44q0 28 -17.5 46.5t-52.5 18.5h-31v55h26q32 0 48 16.5t16 41.5t-15.5 39t-38.5 14q-26 0 -40 -17t-12 -43h-70q0 55 33.5 86.5t91.5 31.5q31 0 54.5 -9t39.5 -24t23.5 -34.5t7.5 -40.5q0 -58 -51 -83q28 -8 46 -35.5
t18 -57.5q0 -24 -8.5 -47t-26.5 -40t-44.5 -27.5t-62.5 -10.5q-33 0 -58 10.5t-41.5 28t-25 39.5t-8.5 46h75z" />
    <glyph glyph-name="fourinferior" unicode="&#x2084;" horiz-adv-x="377" 
d="M26 -84l166 278h96v-267h66v-62h-66v-66h-71v66h-191v51zM217 -73v193l-112 -193h112z" />
    <glyph glyph-name="fiveinferior" unicode="&#x2085;" horiz-adv-x="335" 
d="M72 -110q30 -37 77 -37q30 0 52 18t22 54q0 38 -23 56t-59 18q-41 0 -86 -15l22 210h199v-64h-141l-8 -77q5 0 11 1q5 0 11 0.5t11 0.5q64 0 102 -35.5t38 -92.5q0 -61 -41 -98t-110 -37q-76 0 -121 48z" />
    <glyph glyph-name="sixinferior" unicode="&#x2086;" horiz-adv-x="346" 
d="M287 194q-30 -27 -55.5 -53.5t-45 -49t-33 -39.5t-19.5 -26q5 3 13 6q6 2 15.5 4.5t21.5 2.5q27 0 51 -9t42 -25t28.5 -38t10.5 -48q0 -28 -10.5 -51t-30 -40t-46 -26.5t-57.5 -9.5q-36 0 -63 10t-45 27.5t-27 39.5t-9 46q0 26 7 52t19 50.5t27.5 47t31.5 42.5
q38 46 86 87h88zM174 -149q32 0 49 19.5t17 47.5q0 25 -16.5 43.5t-51.5 18.5t-52 -18.5t-17 -46.5q0 -25 18 -44.5t53 -19.5z" />
    <glyph glyph-name="seveninferior" unicode="&#x2087;" horiz-adv-x="312" 
d="M209 129h-185v65h269v-45l-173 -350h-79z" />
    <glyph glyph-name="eightinferior" unicode="&#x2088;" horiz-adv-x="352" 
d="M177 -153q30 0 46.5 19t16.5 47q0 29 -16 47t-46 18q-32 0 -49.5 -18t-17.5 -47q0 -28 17 -47t49 -19zM177 33q26 0 41 15t15 40q0 26 -16 41.5t-42 15.5t-41 -15t-15 -41q0 -24 15 -40t43 -16zM175 -208q-61 0 -100 33t-39 86q0 35 15.5 57.5t43.5 36.5q-25 14 -37 39
t-12 47q0 24 10 44t28 35t42 23t52 8q55 0 91 -29.5t36 -78.5q0 -27 -12.5 -51.5t-32.5 -36.5q9 -5 18.5 -12.5t18 -18.5t14 -26.5t5.5 -34.5q0 -24 -11 -46t-29.5 -38.5t-44.5 -26.5t-56 -10z" />
    <glyph glyph-name="nineinferior" unicode="&#x2089;" horiz-adv-x="351" 
d="M175 14q36 0 53 18.5t17 47.5q0 24 -17.5 43.5t-54.5 19.5q-32 0 -49.5 -19.5t-17.5 -46.5q0 -25 17 -44t52 -19zM66 -201q30 27 55.5 54t45 50t32.5 40.5t19 26.5q-6 -4 -15 -8q-8 -3 -18 -5t-22 -2q-27 0 -51 9t-42 25.5t-28 39t-10 48.5q0 27 10.5 49.5t29.5 39
t45.5 26t57.5 9.5q27 0 53.5 -7t46.5 -22t32.5 -38t12.5 -55q0 -42 -14.5 -79.5t-38 -72.5t-52.5 -66.5l-57 -61.5h-92z" />
    <glyph glyph-name="parenleftinferior" unicode="&#x208d;" horiz-adv-x="200" 
d="M123 -270q-40 69 -57 137t-17 126q0 66 20.5 132.5t54.5 125.5l52 -16q-29 -58 -45.5 -121.5t-16.5 -119.5t15 -120t47 -126z" />
    <glyph glyph-name="parenrightinferior" unicode="&#x208e;" horiz-adv-x="200" 
d="M24 -252q32 62 47 126t15 120t-16.5 119.5t-45.5 121.5l52 16q33 -59 54 -125.5t21 -132.5q0 -58 -17.5 -126t-56.5 -137z" />
    <glyph glyph-name="Euro" unicode="&#x20ac;" horiz-adv-x="580" 
d="M53 309h76q-1 10 -1 19.5v20.5v24t1 24h-76v71h83q10 56 29.5 102t50.5 79t72.5 51.5t94.5 18.5q32 0 62.5 -7.5t64.5 -22.5v-88q-32 18 -64 29.5t-68 11.5q-63 0 -99.5 -48t-50.5 -126h186v-71h-192q-1 -10 -1 -19v-19v-25.5t1 -24.5h192v-71h-186q12 -80 47 -126
t103 -46q35 0 68.5 10.5t69.5 30.5v-87q-36 -17 -67.5 -24.5t-75.5 -7.5q-54 0 -95 18t-70.5 51t-47.5 79t-26 102h-81v71z" />
    <glyph glyph-name="afii61352" unicode="&#x2116;" horiz-adv-x="1162" 
d="M1102 536q0 -41 -15 -76t-41.5 -61t-62 -41t-75.5 -15q-41 0 -75.5 14.5t-60 39.5t-40 59.5t-14.5 75.5q0 40 15.5 75t42 61t61.5 41.5t75 15.5t75 -14.5t60.5 -39.5t40 -60t14.5 -75zM721 206v73h381v-73h-381zM1025 533q0 25 -9 47.5t-25 39.5t-37 26.5t-46 9.5
q-24 0 -44.5 -9.5t-36 -25.5t-24 -38t-8.5 -47q0 -26 9 -48t24.5 -38.5t37 -26t46.5 -9.5q24 0 44.5 9.5t36 25.5t24 37.5t8.5 46.5zM528 0l-361 559v-559h-82v709h85l362 -559v559h81v-709h-85z" />
    <glyph glyph-name="trademark" unicode="&#x2122;" horiz-adv-x="796" 
d="M369 709h68l55 -159l17.5 -55l18.5 -59q8 28 17.5 57l17.5 52l59 164h62l50 -351h-65l-15 112q-5 32 -8.5 70.5t-5.5 70.5q-18 -67 -40 -126l-48 -128h-56l-46 130q-10 27 -20 59l-20 65q-2 -33 -6.5 -69.5t-9.5 -71.5l-15 -112h-63zM130 650h-99v59h263v-59h-99v-292
h-65v292z" />
    <glyph glyph-name="Omega" unicode="&#x2126;" horiz-adv-x="841" 
d="M78 83h148q-36 22 -67 51t-53.5 65t-35.5 78.5t-13 92.5q0 72 30 136t80 111.5t116.5 75.5t138.5 28q76 0 142.5 -27t115 -74.5t76.5 -112t28 -138.5q0 -49 -14 -91.5t-37.5 -78.5t-55.5 -65t-68 -51h154v-83h-256v113q33 13 65.5 34.5t59 52.5t42.5 72t16 93
q0 56 -19.5 105.5t-55.5 87t-85.5 59t-109.5 21.5q-58 0 -107.5 -22t-85.5 -58.5t-56 -85.5t-20 -103q0 -52 16 -93.5t41.5 -73.5t58.5 -54t66 -35v-113h-255v83z" />
    <glyph glyph-name="arrowleft" unicode="&#x2190;" horiz-adv-x="1000" 
d="M471 727l55 -55l-343 -335h817v-72h-817l343 -335l-55 -55l-426 426z" />
    <glyph glyph-name="arrowup" unicode="&#x2191;" horiz-adv-x="1000" 
d="M464 618l-335 -343l-55 55l426 426l426 -426l-55 -55l-335 343v-817h-72v817z" />
    <glyph glyph-name="arrowright" unicode="&#x2192;" horiz-adv-x="1000" 
d="M0 337h817l-343 335l55 55l426 -426l-426 -426l-55 55l343 335h-817v72z" />
    <glyph glyph-name="arrowdown" unicode="&#x2193;" horiz-adv-x="1000" 
d="M129 327l335 -343v817h72v-817l335 343l55 -55l-426 -426l-426 426z" />
    <glyph glyph-name="uni2196" unicode="&#x2196;" horiz-adv-x="1000" 
d="M178 623h603v-78l-480 6l578 -578l-51 -51l-578 578l6 -480h-78v603z" />
    <glyph glyph-name="uni2197" unicode="&#x2197;" horiz-adv-x="1000" 
d="M699 551l-480 -6v78h603v-603h-78l6 480l-578 -578l-51 51z" />
    <glyph glyph-name="uni2198" unicode="&#x2198;" horiz-adv-x="1000" 
d="M219 57l480 -6l-578 578l51 51l578 -578l-6 480h78v-603h-603v78z" />
    <glyph glyph-name="uni2199" unicode="&#x2199;" horiz-adv-x="1000" 
d="M178 582h78l-6 -480l578 578l51 -51l-578 -578l480 6v-78h-603v603z" />
    <glyph glyph-name="partialdiff" unicode="&#x2202;" horiz-adv-x="556" 
d="M113 749q76 -15 135 -47.5t102.5 -75.5t73.5 -92t48 -97.5t26 -92.5t8 -77q0 -133 -63 -205t-179 -72q-46 0 -86 17.5t-69.5 47.5t-46.5 71t-17 89q0 49 17 91.5t46.5 73.5t69 49t84.5 18t82 -14.5t59 -41.5q-15 49 -41.5 95.5t-64.5 84.5t-88.5 65t-113.5 38zM273 64
q32 0 58.5 11.5t46 32.5t30 50.5t10.5 65.5q0 33 -11 61t-30.5 47.5t-46 30.5t-57.5 11q-30 0 -56 -12t-45.5 -33t-30.5 -49.5t-11 -60.5t11 -60.5t30.5 -49.5t45.5 -33t56 -12z" />
    <glyph glyph-name="Delta" unicode="&#x2206;" horiz-adv-x="658" 
d="M293 709h75l275 -709h-628zM141 83h372l-134 355l-14 36.5t-17 46.5l-21 58q-10 -31 -20 -57q-8 -23 -17 -46t-14 -37z" />
    <glyph glyph-name="product" unicode="&#x220f;" horiz-adv-x="832" 
d="M114 625h-90v84h784v-84h-91v-826h-90v826h-423v-826h-90v826z" />
    <glyph glyph-name="summation" unicode="&#x2211;" horiz-adv-x="700" 
d="M84 -131l257 396l-253 373v71h583v-84h-469l245 -357l-257 -385h487v-84h-593v70z" />
    <glyph glyph-name="minus" unicode="&#x2212;" horiz-adv-x="680" 
d="M55 323h570v-80h-570v80z" />
    <glyph glyph-name="radical" unicode="&#x221a;" horiz-adv-x="579" 
d="M7 438h96l84 -204q5 -14 14 -36t17 -45q10 -26 20 -55l26 72q11 29 20.5 57.5l14.5 42.5l198 531h94l-311 -801h-80z" />
    <glyph glyph-name="infinity" unicode="&#x221e;" horiz-adv-x="680" 
d="M295 285l-28.5 26.5t-29.5 24t-30.5 17t-31.5 6.5q-31 0 -53.5 -21t-22.5 -52t22.5 -52t53.5 -21q34 0 63.5 21.5t56.5 50.5zM340 236q-16 -17 -34 -33.5t-39 -30t-45 -22t-51 -8.5q-32 0 -59.5 10t-47.5 28t-32 44.5t-12 59.5q0 34 12 61.5t32 46t47.5 28.5t58.5 10
q28 0 52 -8.5t45 -22t39.5 -30.5t34.5 -34q16 17 34 33.5t38.5 30t44.5 22t51 8.5q31 0 59 -10t48 -28t32 -44.5t12 -59.5q0 -35 -12 -62t-32 -45.5t-47.5 -28.5t-58.5 -10q-28 0 -52 8.5t-45 22t-39 30.5t-34 34zM386 286q13 -13 27.5 -26t29.5 -23.5t30.5 -17t31.5 -6.5
q31 0 53.5 21t22.5 52t-22.5 52t-53.5 21q-34 0 -63 -22t-56 -51z" />
    <glyph glyph-name="integral" unicode="&#x222b;" horiz-adv-x="284" 
d="M99 639q0 88 43.5 125t122.5 37h19v-77h-18q-41 0 -61 -18t-20 -68v-688q0 -88 -43.5 -125t-122.5 -37h-25v77q27 0 47 2.5t32.5 11.5t19 26t6.5 46v688z" />
    <glyph glyph-name="approxequal" unicode="&#x2248;" horiz-adv-x="680" 
d="M57 388q34 26 77.5 44.5t91.5 18.5q33 0 64 -9.5t60 -21t56 -21t53 -9.5q35 0 68 13.5t56 32.5l40 -62q-34 -26 -77.5 -44.5t-91.5 -18.5q-33 0 -64 9.5t-60 21t-56.5 21t-52.5 9.5q-35 0 -68.5 -13.5t-56.5 -32.5zM57 197q34 26 77.5 44.5t91.5 18.5q33 0 64 -9.5
t60 -21t56 -21t53 -9.5q35 0 68 13.5t56 32.5l40 -62q-34 -26 -77.5 -44.5t-91.5 -18.5q-33 0 -64 9.5t-60 21t-56.5 21t-52.5 9.5q-35 0 -68.5 -13.5t-56.5 -32.5z" />
    <glyph glyph-name="notequal" unicode="&#x2260;" horiz-adv-x="680" 
d="M229 147h-164v80h199l51 117h-250v80h285l60 140h84l-60 -140h181v-80h-216l-51 -117h267v-80h-302l-64 -147h-84z" />
    <glyph glyph-name="lessequal" unicode="&#x2264;" horiz-adv-x="680" 
d="M65 440l550 203v-86l-457 -157l457 -159v-89l-550 202v86zM65 80h550v-80h-550v80z" />
    <glyph glyph-name="greaterequal" unicode="&#x2265;" horiz-adv-x="680" 
d="M65 238l457 157l-457 159v89l550 -202v-86l-550 -203v86zM65 80h550v-80h-550v80z" />
    <glyph glyph-name="lozenge" unicode="&#x25ca;" horiz-adv-x="646" 
d="M35 354l288 375l288 -375l-288 -374zM501 354l-178 233l-178 -233l178 -232z" />
    <glyph glyph-name="circle" unicode="&#x25cb;" horiz-adv-x="1000" 
d="M500 -240q-69 0 -133 18t-119.5 50.5t-101 78t-78 101t-50.5 119.5t-18 133t18 133t50.5 119.5t78 101t101 78t119.5 50.5t133 18q103 0 194.5 -39.5t159 -107t107 -159t39.5 -194.5q0 -69 -18 -133t-50.5 -119.5t-78 -101t-101 -78t-119.5 -50.5t-133 -18zM500 -167
q88 0 166 33.5t136 91.5t91.5 135.5t33.5 166.5q0 88 -33.5 166t-91.5 136t-136 91.5t-166 33.5q-89 0 -166.5 -33.5t-135.5 -91.5t-91.5 -136t-33.5 -166q0 -89 33.5 -166.5t91.5 -135.5t135.5 -91.5t166.5 -33.5z" />
    <glyph glyph-name="H18533" unicode="&#x25cf;" horiz-adv-x="1000" 
d="M500 -240q-69 0 -133 18t-119.5 50.5t-101 78t-78 101t-50.5 119.5t-18 133t18 133t50.5 119.5t78 101t101 78t119.5 50.5t133 18q103 0 194.5 -39.5t159 -107t107 -159t39.5 -194.5q0 -69 -18 -133t-50.5 -119.5t-78 -101t-101 -78t-119.5 -50.5t-133 -18z" />
    <glyph glyph-name="uni25DC" unicode="&#x25dc;" 
d="M0 278q0 101 38 187t104.5 149t156 98.5t193.5 35.5h8v-67h-9q-87 0 -162.5 -31t-130.5 -85.5t-86.5 -129t-31.5 -162.5v-13h-80v18z" />
    <glyph glyph-name="uni25DD" unicode="&#x25dd;" 
d="M420 273q0 88 -31.5 162.5t-86.5 129t-130.5 85.5t-162.5 31h-9v67h8q103 0 193 -35.5t156.5 -98.5t104.5 -149t38 -187v-18h-80v13z" />
    <glyph glyph-name="uni25DE" unicode="&#x25de;" 
d="M0 -161h9q87 0 162.5 31t130.5 85.5t86.5 129t31.5 162.5v13h80v-18q0 -101 -38 -187t-104.5 -149t-156.5 -98.5t-193 -35.5h-8v67z" />
    <glyph glyph-name="uni25DF" unicode="&#x25df;" 
d="M0 260h80v-13q0 -88 31.5 -162.5t86.5 -129t130.5 -85.5t162.5 -31h9v-67h-8q-104 0 -193.5 35.5t-156 98.5t-104.5 149t-38 187v18z" />
    <glyph glyph-name="six.lf" horiz-adv-x="516" 
d="M411 709q-14 -15 -31.5 -36l-36.5 -43.5l-37.5 -46l-35.5 -44.5q-32 -39 -60.5 -81.5t-45.5 -71.5q24 14 53.5 22t57.5 8q42 0 79 -15.5t64.5 -42.5t44 -64.5t16.5 -82.5q0 -48 -17 -88.5t-47 -70.5t-71 -46.5t-89 -16.5q-54 0 -95 18.5t-69.5 48.5t-43 68.5t-14.5 79.5
q0 66 30 141t93 169l38.5 56l38.5 54l36.5 48t31.5 37h110zM259 67q27 0 50.5 10.5t41 29t28 45t10.5 58.5q0 27 -10 51t-28 42.5t-42.5 29t-52.5 10.5t-52.5 -10.5t-42.5 -28.5t-28 -43.5t-10 -55.5q0 -29 10.5 -54t28.5 -44t43 -29.5t54 -10.5z" />
    <glyph glyph-name="six.denominator" horiz-adv-x="346" 
d="M287 395q-30 -27 -55.5 -53.5t-45 -49t-33 -39.5t-19.5 -26q5 3 13 6q6 2 15.5 4.5t21.5 2.5q27 0 51 -9t42 -25t28.5 -38t10.5 -48q0 -28 -10.5 -51t-30 -40t-46 -26.5t-57.5 -9.5q-36 0 -63 10t-45 27.5t-27 39.5t-9 46q0 26 7 52t19 50.5t27.5 47t31.5 42.5
q38 46 86 87h88zM174 52q32 0 49 19.5t17 47.5q0 25 -16.5 43.5t-51.5 18.5t-52 -18.5t-17 -46.5q0 -25 18 -44.5t53 -19.5z" />
    <glyph glyph-name="six.numerator" horiz-adv-x="346" 
d="M287 709q-30 -27 -55.5 -53.5t-45 -49t-33 -39.5t-19.5 -26q5 3 13 6q6 2 15.5 4.5t21.5 2.5q27 0 51 -9t42 -25t28.5 -38t10.5 -48q0 -28 -10.5 -51t-30 -40t-46 -26.5t-57.5 -9.5q-36 0 -63 10t-45 27.5t-27 39.5t-9 46q0 26 7 52t19 50.5t27.5 47t31.5 42.5
q38 46 86 87h88zM174 366q32 0 49 19.5t17 47.5q0 25 -16.5 43.5t-51.5 18.5t-52 -18.5t-17 -46.5q0 -25 18 -44.5t53 -19.5z" />
    <glyph glyph-name="seven.numerator" horiz-adv-x="312" 
d="M209 644h-185v65h269v-45l-173 -350h-79z" />
    <glyph glyph-name="seven.lf" horiz-adv-x="458" 
d="M341 629h-315v80h415v-50l-284 -659h-97z" />
    <glyph glyph-name="seven.denominator" horiz-adv-x="312" 
d="M209 330h-185v65h269v-45l-173 -350h-79z" />
    <glyph glyph-name="hyphen.denominator" horiz-adv-x="237" 
d="M35 197h167v-60h-167v60z" />
    <glyph glyph-name="hyphen.numerator" horiz-adv-x="237" 
d="M35 511h167v-60h-167v60z" />
    <glyph glyph-name="hypheninferior" horiz-adv-x="237" 
d="M35 -4h167v-60h-167v60z" />
    <glyph glyph-name="hyphensuperior" horiz-adv-x="237" 
d="M35 511h167v-60h-167v60z" />
    <glyph glyph-name="sterling.lf" horiz-adv-x="527" 
d="M48 55q22 14 42.5 29.5t36 33.5t24.5 40t9 51q0 28 -8.5 56t-21.5 57h-92v71h60q-14 31 -24 61.5t-10 59.5q0 41 14 78t41 65.5t65.5 45t87.5 16.5q88 0 139 -43t69 -113l-75 -28q-14 56 -51 84t-85 28q-54 0 -86 -34.5t-32 -94.5q0 -34 10.5 -64.5t24.5 -60.5h185v-71
h-152q11 -26 17.5 -52.5t6.5 -56.5q0 -26 -12.5 -56t-35.5 -52q25 0 44 -5.5t37 -12t38 -12t49 -5.5q35 0 60.5 9t46.5 27l34 -68q-58 -47 -144 -47q-25 0 -47 6t-43.5 13.5t-42.5 13.5t-44 6q-28 0 -55.5 -11.5t-41.5 -25.5z" />
    <glyph glyph-name="hyphen.case" horiz-adv-x="344" 
d="M46 366h253v-71h-253v71z" />
    <glyph glyph-name="three.denominator" horiz-adv-x="373" 
d="M121 117q1 -29 16.5 -47.5t44.5 -18.5t46 18t17 44q0 28 -17.5 46.5t-52.5 18.5h-31v55h26q32 0 48 16.5t16 41.5t-15.5 39t-38.5 14q-26 0 -40 -17t-12 -43h-70q0 55 33.5 86.5t91.5 31.5q31 0 54.5 -9t39.5 -24t23.5 -34.5t7.5 -40.5q0 -58 -51 -83q28 -8 46 -35.5
t18 -57.5q0 -24 -8.5 -47t-26.5 -40t-44.5 -27.5t-62.5 -10.5q-33 0 -58 10.5t-41.5 28t-25 39.5t-8.5 46h75z" />
    <glyph glyph-name="three.lf" horiz-adv-x="510" 
d="M129 194q2 -26 11 -49.5t25 -40.5t38.5 -27t50.5 -10t51.5 10t40.5 28t26 42t9 52q0 27 -9.5 51.5t-27.5 43t-44 29.5t-60 11h-36v78h33q61 0 92 34.5t31 82.5q0 49 -29 82t-80 33q-54 0 -82 -34t-25 -85h-85q-1 40 11 75.5t36.5 62.5t61.5 42.5t86 15.5q48 0 85 -15.5
t62.5 -41t38.5 -59t13 -68.5q0 -66 -30 -105t-75 -55q24 -4 47 -19t40.5 -38t28.5 -51.5t11 -59.5q0 -42 -13.5 -82t-41 -71t-70.5 -49.5t-101 -18.5q-44 0 -81.5 15.5t-65.5 42.5t-44.5 65t-17.5 83h89z" />
    <glyph glyph-name="five.numerator" horiz-adv-x="335" 
d="M72 405q30 -37 77 -37q30 0 52 18t22 54q0 38 -23 56t-59 18q-41 0 -86 -15l22 210h199v-64h-141l-8 -77q5 0 11 1q5 0 11 0.5t11 0.5q64 0 102 -35.5t38 -92.5q0 -61 -41 -98t-110 -37q-76 0 -121 48z" />
    <glyph glyph-name="five.lf" horiz-adv-x="493" 
d="M87 135q23 -33 54.5 -51t72.5 -18q31 0 57.5 12t45.5 33.5t30 50.5t11 63t-11.5 63t-32 50t-49 33t-63.5 12t-65 -5.5t-61 -16.5l35 348h297v-80h-224l-18 -180q28 5 61 5q49 0 90 -17t70 -46.5t45 -70t16 -88.5q0 -53 -18 -97.5t-49.5 -76.5t-74.5 -50.5t-94 -18.5
q-60 0 -103 20.5t-75 56.5z" />
    <glyph glyph-name="three.numerator" horiz-adv-x="373" 
d="M121 431q1 -29 16.5 -47.5t44.5 -18.5t46 18t17 44q0 28 -17.5 46.5t-52.5 18.5h-31v55h26q32 0 48 16.5t16 41.5t-15.5 39t-38.5 14q-26 0 -40 -17t-12 -43h-70q0 55 33.5 86.5t91.5 31.5q31 0 54.5 -9t39.5 -24t23.5 -34.5t7.5 -40.5q0 -58 -51 -83q28 -8 46 -35.5
t18 -57.5q0 -24 -8.5 -47t-26.5 -40t-44.5 -27.5t-62.5 -10.5q-33 0 -58 10.5t-41.5 28t-25 39.5t-8.5 46h75z" />
    <glyph glyph-name="two.denominator" horiz-adv-x="389" 
d="M51 49l100 77q27 21 46.5 38.5t31.5 33.5t17.5 31t5.5 32q0 34 -15 56t-51 22q-21 0 -34.5 -8.5t-21 -22t-9.5 -30.5t-1 -33h-74q-2 72 35 114.5t107 42.5q37 0 64 -11.5t43.5 -30.5t24.5 -43t8 -49q0 -27 -9.5 -50t-25.5 -43.5t-37 -39.5t-45 -38l-36 -29h163v-68h-287
v49z" />
    <glyph glyph-name="two.lf" horiz-adv-x="570" 
d="M54 57l184 178q43 42 74.5 77t51.5 66.5t30 61.5t10 62q0 60 -33 100t-104 40q-41 0 -67 -16t-41 -41.5t-19.5 -56t-1.5 -60.5h-92q-3 118 55 185.5t170 67.5q60 0 103 -18t71 -48t41 -68t13 -78q0 -49 -15.5 -91.5t-41.5 -81t-59 -73.5t-69 -68l-124 -114h330v-81h-466
v57z" />
    <glyph glyph-name="two.numerator" horiz-adv-x="389" 
d="M51 363l100 77q27 21 46.5 38.5t31.5 33.5t17.5 31t5.5 32q0 34 -15 56t-51 22q-21 0 -34.5 -8.5t-21 -22t-9.5 -30.5t-1 -33h-74q-2 72 35 114.5t107 42.5q37 0 64 -11.5t43.5 -30.5t24.5 -43t8 -49q0 -27 -9.5 -50t-25.5 -43.5t-37 -39.5t-45 -38l-36 -29h163v-68h-287
v49z" />
    <glyph glyph-name="endash.case" horiz-adv-x="510" 
d="M5 367h500v-72h-500v72z" />
    <glyph glyph-name="emdash.case" horiz-adv-x="1010" 
d="M5 367h1000v-72h-1000v72z" />
    <glyph glyph-name="four.numerator" horiz-adv-x="377" 
d="M26 431l166 278h96v-267h66v-62h-66v-66h-71v66h-191v51zM217 442v193l-112 -193h112z" />
    <glyph glyph-name="four.lf" horiz-adv-x="530" 
d="M31 233l294 476h96v-460h88v-79h-88v-170h-86v170h-304v63zM335 249v349l-39 -70l-169 -279h208z" />
    <glyph glyph-name="eight.numerator" horiz-adv-x="352" 
d="M177 362q30 0 46.5 19t16.5 47q0 29 -16 47t-46 18q-32 0 -49.5 -18t-17.5 -47q0 -28 17 -47t49 -19zM177 548q26 0 41 15t15 40q0 26 -16 41.5t-42 15.5t-41 -15t-15 -41q0 -24 15 -40t43 -16zM175 307q-61 0 -100 33t-39 86q0 35 15.5 57.5t43.5 36.5q-25 14 -37 39
t-12 47q0 24 10 44t28 35t42 23t52 8q55 0 91 -29.5t36 -78.5q0 -27 -12.5 -51.5t-32.5 -36.5q9 -5 18.5 -12.5t18 -18.5t14 -26.5t5.5 -34.5q0 -24 -11 -46t-29.5 -38.5t-44.5 -26.5t-56 -10z" />
    <glyph glyph-name="eight.lf" horiz-adv-x="530" 
d="M264 -11q-46 0 -85.5 15t-68.5 42t-45.5 65.5t-16.5 85.5q0 57 28 103t85 72q-49 24 -73 65.5t-24 88.5q0 40 16.5 76t44 62t65 41.5t79.5 15.5t78 -14.5t63 -40.5t42.5 -61t15.5 -75q0 -56 -25.5 -96t-70.5 -61q22 -9 42 -24.5t36 -37t25.5 -49.5t9.5 -62
q0 -44 -17.5 -82t-47.5 -67t-70 -45.5t-86 -16.5zM267 408q24 0 45.5 9t37.5 25t25.5 37.5t9.5 46.5t-10 46.5t-26.5 38t-38.5 26t-46 9.5t-45 -9t-37 -24.5t-25 -37t-9 -45.5q0 -25 9.5 -47.5t25.5 -39t38 -26t46 -9.5zM267 64q27 0 51 10.5t42 29t28.5 43t10.5 52.5
t-10 52.5t-27.5 42.5t-41.5 28.5t-52 10.5t-52 -10.5t-42 -28.5t-28.5 -42.5t-10.5 -52.5t10 -52.5t28 -43t42 -29t52 -10.5z" />
    <glyph glyph-name="eight.denominator" horiz-adv-x="352" 
d="M177 48q30 0 46.5 19t16.5 47q0 29 -16 47t-46 18q-32 0 -49.5 -18t-17.5 -47q0 -28 17 -47t49 -19zM177 234q26 0 41 15t15 40q0 26 -16 41.5t-42 15.5t-41 -15t-15 -41q0 -24 15 -40t43 -16zM175 -7q-61 0 -100 33t-39 86q0 35 15.5 57.5t43.5 36.5q-25 14 -37 39
t-12 47q0 24 10 44t28 35t42 23t52 8q55 0 91 -29.5t36 -78.5q0 -27 -12.5 -51.5t-32.5 -36.5q9 -5 18.5 -12.5t18 -18.5t14 -26.5t5.5 -34.5q0 -24 -11 -46t-29.5 -38.5t-44.5 -26.5t-56 -10z" />
    <glyph glyph-name="dollar.lf" horiz-adv-x="449" 
d="M227 -10q-63 4 -114 40t-76 102l78 40q15 -44 43.5 -70.5t68.5 -32.5v257q-30 15 -59.5 32t-53.5 40.5t-39 55.5t-15 78q0 35 12.5 66.5t34.5 56.5t53 41.5t67 21.5v88h52v-89q114 -9 166 -115l-72 -41q-14 31 -38.5 51.5t-55.5 27.5v-241q31 -15 62 -32.5t56 -41
t41 -56.5t16 -79q0 -38 -12.5 -72t-35 -60t-55 -43.5t-72.5 -22.5v-112h-52v110zM227 639q-37 -10 -56.5 -39.5t-19.5 -62.5q0 -38 21.5 -64t54.5 -46v212zM279 72q40 10 61 40.5t21 69.5q0 43 -23.5 70t-58.5 47v-227z" />
    <glyph glyph-name="commasuperior" horiz-adv-x="177" 
d="M20 245q20 15 32.5 29.5t12.5 29.5q0 12 -9 22t-9 28q0 16 13 27t33 11q17 0 31 -13t14 -43q0 -64 -86 -122z" />
    <glyph glyph-name="commainferior" horiz-adv-x="177" 
d="M20 -270q20 15 32.5 29.5t12.5 29.5q0 12 -9 22t-9 28q0 16 13 27t33 11q17 0 31 -13t14 -43q0 -64 -86 -122z" />
    <glyph glyph-name="comma.numerator" horiz-adv-x="177" 
d="M20 245q20 15 32.5 29.5t12.5 29.5q0 12 -9 22t-9 28q0 16 13 27t33 11q17 0 31 -13t14 -43q0 -64 -86 -122z" />
    <glyph glyph-name="comma.denominator" horiz-adv-x="177" 
d="M20 -69q20 15 32.5 29.5t12.5 29.5q0 12 -9 22t-9 28q0 16 13 27t33 11q17 0 31 -13t14 -43q0 -64 -86 -122z" />
    <glyph glyph-name="four.denominator" horiz-adv-x="377" 
d="M26 117l166 278h96v-267h66v-62h-66v-66h-71v66h-191v51zM217 128v193l-112 -193h112z" />
    <glyph glyph-name="cent.lf" horiz-adv-x="470" 
d="M254 128q-51 4 -90 24.5t-65.5 52t-39.5 69.5t-13 77q0 44 15.5 83.5t43 70.5t65.5 50.5t84 24.5v129h52v-128q50 -5 93 -23v-84q-42 24 -93 30v-296q23 2 47.5 9t46.5 20v-85q-20 -9 -44 -15.5t-50 -8.5v-128h-52v128zM254 502q-54 -10 -86 -51t-32 -95t32 -95t86 -51
v292z" />
    <glyph glyph-name="bracketright.case" horiz-adv-x="310" 
d="M38 -50h96v798h-96v65h173v-929h-173v66z" />
    <glyph glyph-name="bracketleft.case" horiz-adv-x="310" 
d="M100 813h172v-65h-95v-798h95v-66h-172v929z" />
    <glyph glyph-name="braceright.case" horiz-adv-x="366" 
d="M35 -50q29 0 49 5t32 18.5t17.5 35.5t5.5 57v78q0 54 3.5 90t12.5 60t25 37.5t42 22.5q-25 9 -41 22t-25 34t-12.5 52.5t-3.5 79.5v99q0 32 -6.5 53t-19 33t-32.5 16.5t-47 4.5v65h23q79 0 121 -36t42 -124v-133q0 -34 3.5 -58.5t14 -41t28.5 -24.5t48 -8v-65
q-29 0 -47.5 -8.5t-29 -26t-14 -44.5t-3.5 -65v-100q0 -61 -9.5 -99t-28.5 -59.5t-46.5 -29t-64.5 -7.5h-37v66z" />
    <glyph glyph-name="braceleft.case" horiz-adv-x="366" 
d="M294 -116q-37 0 -65 7.5t-46.5 29t-28 59.5t-9.5 99v100q0 38 -3.5 65t-14 44.5t-29 26t-47.5 8.5v65q30 0 48 8t28.5 24.5t14 41t3.5 58.5v133q0 88 42 124t121 36h23v-65q-27 0 -47 -4.5t-32.5 -16.5t-19 -33t-6.5 -53v-99q0 -48 -3.5 -79.5t-12.5 -52.5t-25 -34
t-41 -22q25 -9 41.5 -22.5t25.5 -37.5t12.5 -60t3.5 -90v-78q0 -35 5.5 -57t17.5 -35.5t32 -18.5t49 -5v-66h-37z" />
    <glyph glyph-name="yen.lf" horiz-adv-x="573" 
d="M77 159h164v88h-164v71h164l-226 391h102l173 -307l172 307h97l-228 -391h164v-71h-164v-88h164v-71h-164v-88h-90v88h-164v71z" />
    <glyph glyph-name="florin.lf" horiz-adv-x="458" 
d="M-18 -132q12 -2 28.5 -4t28.5 -2q36 0 51.5 20t22.5 64l62 396h-105l11 70h105l29 189q11 73 47 113t112 40q17 0 36.5 -2t30.5 -4l-12 -75q-11 2 -27.5 4t-28.5 2q-36 0 -51.5 -20t-22.5 -64l-28 -183h114l-11 -70h-114l-63 -402q-11 -73 -47 -113t-112 -40
q-17 0 -36.5 2t-30.5 4z" />
    <glyph glyph-name="zero.denominator" horiz-adv-x="378" 
d="M189 53q19 0 34 11.5t25.5 31t15.5 44.5t5 53q0 69 -19.5 109t-61.5 40q-19 0 -33.5 -11t-25 -30.5t-16 -45t-5.5 -55.5q0 -66 20 -106.5t61 -40.5zM187 -7q-38 0 -66.5 15t-47.5 42t-29 64t-10 81q0 45 10.5 82.5t30.5 65.5t49 43.5t66 15.5q39 0 68 -15t48 -41.5
t28.5 -63.5t9.5 -81q0 -45 -10.5 -83t-31 -66t-49.5 -43.5t-66 -15.5z" />
    <glyph glyph-name="zero.lf" horiz-adv-x="593" 
d="M305 -12q-64 0 -112.5 27t-81.5 75.5t-49.5 114.5t-16.5 144q0 79 18 147t52.5 117.5t83.5 77.5t112 28q65 0 114 -27t82 -74.5t49.5 -113t16.5 -143.5q0 -80 -18.5 -148t-53 -118t-84 -78.5t-112.5 -28.5zM310 66q41 0 72.5 23t53.5 61.5t33 89.5t11 107
q0 66 -10.5 120.5t-32 93.5t-54.5 60t-77 21q-39 0 -70.5 -22t-53 -60.5t-33 -90t-11.5 -110.5q0 -65 10.5 -119t32 -92.5t53.5 -60t76 -21.5z" />
    <glyph glyph-name="zero.numerator" horiz-adv-x="378" 
d="M189 367q19 0 34 11.5t25.5 31t15.5 44.5t5 53q0 69 -19.5 109t-61.5 40q-19 0 -33.5 -11t-25 -30.5t-16 -45t-5.5 -55.5q0 -66 20 -106.5t61 -40.5zM187 307q-38 0 -66.5 15t-47.5 42t-29 64t-10 81q0 45 10.5 82.5t30.5 65.5t49 43.5t66 15.5q39 0 68 -15t48 -41.5
t28.5 -63.5t9.5 -81q0 -45 -10.5 -83t-31 -66t-49.5 -43.5t-66 -15.5z" />
    <glyph glyph-name="Caron" 
d="M138 907l114 -68l108 68l44 -47l-152 -110l-157 112z" />
    <glyph glyph-name="Dieresis" 
d="M338 771q-24 0 -41 17t-17 41t17 41t41 17t41 -17t17 -41t-17 -41t-41 -17zM162 771q-24 0 -41 17t-17 41t17 41t41 17t41 -17t17 -41t-17 -41t-41 -17z" />
    <glyph glyph-name="Euro.lf" horiz-adv-x="618" 
d="M24 298h77q-1 14 -1.5 27t-0.5 27t0.5 27t1.5 26h-77v71h89q13 51 36.5 95t59.5 76.5t85 51t111 18.5q40 0 75 -5.5t71 -20.5v-92q-35 18 -71 27.5t-80 9.5q-42 0 -74 -12.5t-55.5 -34.5t-39 -51t-24.5 -62h207v-71h-220q-2 -17 -2 -27v-23q0 -29 3 -57h219v-71h-205
q10 -32 26 -60t40 -48.5t56.5 -32t74.5 -11.5q24 0 44 2t38 6.5t35 12t37 17.5v-92q-36 -17 -72 -22.5t-88 -5.5q-64 0 -112.5 17.5t-83.5 49t-57.5 74.5t-34.5 93h-88v71z" />
    <glyph glyph-name="Grave" 
d="M195 911l157 -108l-38 -59l-166 93z" />
    <glyph glyph-name="Circumflex" 
d="M95 799l153 108l156 -109l-44 -48l-112 69l-110 -69z" />
    <glyph glyph-name="Acute" 
d="M149 803l155 108l47 -73l-165 -93z" />
    <glyph glyph-name="periodsuperior" horiz-adv-x="173" 
d="M88 304q-23 0 -36 12.5t-13 32.5t13 33t36 13q20 0 33 -13t13 -33t-13 -32.5t-33 -12.5z" />
    <glyph glyph-name="periodinferior" horiz-adv-x="173" 
d="M88 -211q-23 0 -36 12.5t-13 32.5t13 33t36 13q20 0 33 -13t13 -33t-13 -32.5t-33 -12.5z" />
    <glyph glyph-name="periodcentered.case" horiz-adv-x="219" 
d="M110 279q-29 0 -48.5 19.5t-19.5 48.5t19.5 48.5t48.5 19.5t48.5 -19.5t19.5 -48.5t-19.5 -48.5t-48.5 -19.5z" />
    <glyph glyph-name="period.numerator" horiz-adv-x="173" 
d="M88 304q-23 0 -36 12.5t-13 32.5t13 33t36 13q20 0 33 -13t13 -33t-13 -32.5t-33 -12.5z" />
    <glyph glyph-name="period.denominator" horiz-adv-x="173" 
d="M88 -10q-23 0 -36 12.5t-13 32.5t13 33t36 13q20 0 33 -13t13 -33t-13 -32.5t-33 -12.5z" />
    <glyph glyph-name="Tilde" 
d="M68 774q0 52 27.5 86t81.5 34q22 0 41.5 -9t37.5 -20.5t34.5 -20.5t34.5 -9q20 0 32 14t12 40h64q0 -52 -27.5 -86t-81.5 -34q-24 0 -45 9t-39 20.5t-34 20.5t-30 9q-20 0 -32 -14t-12 -40h-64z" />
    <glyph glyph-name="Cedilla" 
d="M267 -33l63 -52l-106 -120l-54 43z" />
    <glyph glyph-name="Breve" 
d="M176 898q0 -16 4 -31t12.5 -26.5t22 -18.5t31.5 -7q39 0 59 25t20 58h65q0 -74 -40 -111.5t-102 -37.5q-69 0 -103 41t-34 108h65z" />
    <glyph glyph-name="parenright.numerator" horiz-adv-x="200" 
d="M24 263q32 62 47 126t15 120t-16.5 119.5t-45.5 121.5l52 16q33 -59 54 -125.5t21 -132.5q0 -58 -17.5 -126t-56.5 -137z" />
    <glyph glyph-name="parenright.denominator" horiz-adv-x="200" 
d="M24 -51q32 62 47 126t15 120t-16.5 119.5t-45.5 121.5l52 16q33 -59 54 -125.5t21 -132.5q0 -58 -17.5 -126t-56.5 -137z" />
    <glyph glyph-name="parenright.case" horiz-adv-x="275" 
d="M23 -97q23 49 42.5 105t33 113t21 113.5t7.5 107.5t-6.5 107t-19.5 114t-32.5 116t-44.5 113l66 27q60 -120 87 -242.5t27 -231.5q0 -125 -32 -244.5t-83 -221.5z" />
    <glyph glyph-name="Macron" 
d="M124 790v71h253v-71h-253z" />
    <glyph glyph-name="Dotaccent" 
d="M318 836q0 -29 -19.5 -48.5t-48.5 -19.5t-48.5 19.5t-19.5 48.5t19.5 48.5t48.5 19.5t48.5 -19.5t19.5 -48.5z" />
    <glyph glyph-name="parenleft.numerator" horiz-adv-x="200" 
d="M123 245q-40 69 -57 137t-17 126q0 66 20.5 132.5t54.5 125.5l52 -16q-29 -58 -45.5 -121.5t-16.5 -119.5t15 -120t47 -126z" />
    <glyph glyph-name="parenleft.denominator" horiz-adv-x="200" 
d="M123 -69q-40 69 -57 137t-17 126q0 66 20.5 132.5t54.5 125.5l52 -16q-29 -58 -45.5 -121.5t-16.5 -119.5t15 -120t47 -126z" />
    <glyph glyph-name="parenleft.case" horiz-adv-x="275" 
d="M185 -121q-60 120 -87 242.5t-27 231.5q0 125 32 244.5t83 221.5l66 -24q-23 -50 -42.5 -105.5t-33 -112.5t-21 -113.5t-7.5 -107.5t6.5 -107.5t19.5 -114t32 -115.5t45 -113l-66 -27v0z" />
    <glyph glyph-name="Commaaccent" 
d="M313 -98q0 -36 -26 -72t-72 -67l-28 29q20 18 32.5 34t12.5 31q0 7 -4 13.5l-8.5 13.5t-8 15t-3.5 19q0 20 13.5 33.5t37.5 13.5q26 0 40 -19t14 -44z" />
    <glyph glyph-name="one.numerator" horiz-adv-x="258" 
d="M106 640h-76v69h150v-395h-74v326z" />
    <glyph glyph-name="one.lf" horiz-adv-x="346" 
d="M180 625h-130v84h216v-709h-86v625z" />
    <glyph glyph-name="one.denominator" horiz-adv-x="258" 
d="M106 326h-76v69h150v-395h-74v326z" />
    <glyph glyph-name="Caron.alt" 
d="M313 658q0 -36 -26 -72t-72 -67l-28 29q20 18 32.5 34t12.5 31q0 7 -4 13.5l-8.5 13.5t-8 15t-3.5 19q0 20 13.5 33.5t37.5 13.5q26 0 40 -19t14 -44z" />
    <glyph glyph-name="Hungarumlaut" 
d="M295 743l-45 35l106 143l64 -48zM125 743l-45 35l95 146l64 -48z" />
    <glyph glyph-name="minus.case" horiz-adv-x="680" 
d="M55 377h570v-80h-570v80z" />
    <glyph glyph-name="Ring" 
d="M250 732q-40 0 -68 27t-28 67q0 19 7.5 36.5t21 30t30.5 20t37 7.5q40 0 68 -27t28 -67q0 -20 -7.5 -37t-21 -29.5t-31 -20t-36.5 -7.5zM250 779q20 0 33 13.5t13 33.5q0 19 -13.5 33t-32.5 14q-20 0 -33 -13.5t-13 -33.5q0 -19 13.5 -33t32.5 -14z" />
    <glyph glyph-name="caron.alt" horiz-adv-x="340" 
d="M238 748q0 -36 -26 -72t-72 -67l-28 29q20 18 32.5 34t12.5 31q0 7 -4 13.5l-8.5 13.5t-8 15t-3.5 19q0 20 13.5 33.5t37.5 13.5q26 0 40 -19t14 -44z" />
    <glyph glyph-name="nine.numerator" horiz-adv-x="351" 
d="M175 529q36 0 53 18.5t17 47.5q0 24 -17.5 43.5t-54.5 19.5q-32 0 -49.5 -19.5t-17.5 -46.5q0 -25 17 -44t52 -19zM66 314q30 27 55.5 54t45 50t32.5 40.5t19 26.5q-6 -4 -15 -8q-8 -3 -18 -5t-22 -2q-27 0 -51 9t-42 25.5t-28 39t-10 48.5q0 27 10.5 49.5t29.5 39
t45.5 26t57.5 9.5q27 0 53.5 -7t46.5 -22t32.5 -38t12.5 -55q0 -42 -14.5 -79.5t-38 -72.5t-52.5 -66.5l-57 -61.5h-92z" />
    <glyph glyph-name="nine.lf" horiz-adv-x="524" 
d="M107 0q14 15 31 35.5l35 43l36.5 46l35.5 44.5q32 39 61.5 81.5t46.5 71.5q-24 -14 -53.5 -22t-57.5 -8q-42 0 -79 15.5t-64.5 42.5t-44 64.5t-16.5 82.5q0 48 17 88.5t47 70.5t71 46.5t89 16.5q54 0 95 -18.5t69.5 -48.5t43 -68.5t14.5 -79.5q0 -56 -11 -101t-30 -84.5
t-44 -76l-53 -75.5l-68.5 -95t-58.5 -72h-112zM261 365q28 0 52.5 10.5t42.5 28.5t28 43.5t10 55.5q0 29 -10.5 54t-28.5 44t-43 29.5t-54 10.5q-27 0 -50.5 -10.5t-41 -29t-28 -45t-10.5 -58.5q0 -27 10 -51t28 -42.5t42.5 -29t52.5 -10.5z" />
    <glyph glyph-name="nine.denominator" horiz-adv-x="351" 
d="M175 215q36 0 53 18.5t17 47.5q0 24 -17.5 43.5t-54.5 19.5q-32 0 -49.5 -19.5t-17.5 -46.5q0 -25 17 -44t52 -19zM66 0q30 27 55.5 54t45 50t32.5 40.5t19 26.5q-6 -4 -15 -8q-8 -3 -18 -5t-22 -2q-27 0 -51 9t-42 25.5t-28 39t-10 48.5q0 27 10.5 49.5t29.5 39t45.5 26
t57.5 9.5q27 0 53.5 -7t46.5 -22t32.5 -38t12.5 -55q0 -42 -14.5 -79.5t-38 -72.5t-52.5 -66.5l-57 -61.5h-92z" />
    <glyph glyph-name="minus.denominator" horiz-adv-x="389" 
d="M40 196h309v-59h-309v59z" />
    <glyph glyph-name="minus.numerator" horiz-adv-x="389" 
d="M40 510h309v-59h-309v59z" />
    <glyph glyph-name="minusinferior" horiz-adv-x="389" 
d="M40 -5h309v-59h-309v59z" />
    <glyph glyph-name="cyrbreve" horiz-adv-x="340" 
d="M96 683q0 -16 4 -31t12.5 -26.5t22 -18.5t31.5 -7q39 0 59 25t20 58h65q0 -74 -40 -111.5t-102 -37.5q-69 0 -103 41t-34 108h65z" />
    <glyph glyph-name="cyrBreve" 
d="M176 898q0 -16 4 -31t12.5 -26.5t22 -18.5t31.5 -7q39 0 59 25t20 58h65q0 -74 -40 -111.5t-102 -37.5q-69 0 -103 41t-34 108h65z" />
    <glyph glyph-name="Tonos" horiz-adv-x="148" 
d="M30 709h88l-15 -191h-58z" />
    <glyph glyph-name="commaaccent" horiz-adv-x="340" 
d="M238 -98q0 -36 -26 -72t-72 -67l-28 29q20 18 32.5 34t12.5 31q0 7 -4 13.5l-8.5 13.5t-8 15t-3.5 19q0 20 13.5 33.5t37.5 13.5q26 0 40 -19t14 -44z" />
    <glyph glyph-name="five.denominator" horiz-adv-x="335" 
d="M72 91q30 -37 77 -37q30 0 52 18t22 54q0 38 -23 56t-59 18q-41 0 -86 -15l22 210h199v-64h-141l-8 -77q5 0 11 1q5 0 11 0.5t11 0.5q64 0 102 -35.5t38 -92.5q0 -61 -41 -98t-110 -37q-76 0 -121 48z" />
    </font>
</defs>
</svg>
