<?xml version="1.0" standalone="no"?>
<!DOCTYPE svg PUBLIC "-//W3C//DTD SVG 1.1//EN" "http://www.w3.org/Graphics/SVG/1.1/DTD/svg11.dtd" >
<svg>
<metadata>
Created by FontForge 20090622 at Tue Feb  6 15:57:33 2018
 By deploy user
Copyright 2006 Volkswagen AG.
</metadata>
<defs>
<font id="VWHeadlineOT-Semibold" horiz-adv-x="580" >
  <font-face 
    font-family="VW Headline OT-Semibold"
    font-weight="600"
    font-stretch="normal"
    units-per-em="1000"
    panose-1="2 11 7 3 0 0 0 2 0 3"
    ascent="800"
    descent="-200"
    x-height="438"
    cap-height="709"
    bbox="-154 -277 1116 1007"
    underline-thickness="50"
    underline-position="-150"
    unicode-range="U+0020-U+FB04"
  />
<missing-glyph horiz-adv-x="308" 
 />
    <glyph glyph-name="ff" unicode="ff" horiz-adv-x="612" 
d="M78 349h-62v89h62v131q0 42 6.5 76t24 57.5t47 36.5t75.5 13q20 0 41.5 -2t38.5 -7l-12 -96q-23 5 -46 5q-28 0 -41 -12q-11 -11 -15.5 -29t-4.5 -56v-117h183v135q0 42 6.5 76t24 58t47 37t75.5 13q20 0 39 -2t33 -5v-97q-11 2 -23.5 3t-23.5 1q-31 0 -44 -12
q-11 -11 -15.5 -29t-4.5 -57v-121h106v-89h-106v-349h-114v349h-183v-349h-114v349z" />
    <glyph glyph-name="fi" unicode="fi" horiz-adv-x="549" 
d="M425 540q-30 0 -52 21.5t-22 51.5q0 31 22 52.5t52 21.5t52 -21.5t22 -52.5q0 -30 -22 -51.5t-52 -21.5zM78 349h-62v89h62v135q0 42 6.5 76t24 58t47 37t75.5 13q19 0 41 -2.5t41 -7.5l-15 -96q-10 2 -22 4t-24 2q-24 0 -39 -12q-11 -10 -16 -28t-5 -58v-121h290v-438
h-114v349h-176v-349h-114v349z" />
    <glyph glyph-name="fl" unicode="fl" horiz-adv-x="548" 
d="M78 349h-62v89h62v108q0 106 55.5 157.5t161.5 51.5q14 0 35.5 -1.5t38.5 -4.5h114v-749h-114v650q-35 8 -73 8q-27 0 -46.5 -6t-32 -20.5t-19 -39t-6.5 -62.5v-92h106v-89h-106v-349h-114v349z" />
    <glyph glyph-name="ffi" unicode="ffi" horiz-adv-x="855" 
d="M730 537q-30 0 -51.5 21.5t-21.5 52.5q0 30 21.5 51.5t51.5 21.5q31 0 52.5 -21.5t21.5 -51.5q0 -31 -21.5 -52.5t-52.5 -21.5zM78 349h-62v89h62v131q0 42 6.5 76t24 57.5t47 36.5t75.5 13q19 0 41 -2t39 -7l-13 -96q-23 5 -46 5q-25 0 -40 -12q-11 -10 -15.5 -28
t-4.5 -57v-117h184v135q0 42 6.5 76t24 58t47 37t75.5 13q19 0 41 -2.5t41 -7.5l-15 -96l-22.5 4t-23.5 2q-25 0 -40 -13q-11 -10 -15.5 -28t-4.5 -57v-121h297v-438h-114v349h-183v-349h-114v349h-184v-349h-114v349z" />
    <glyph glyph-name="ffl" unicode="ffl" horiz-adv-x="844" 
d="M78 349h-62v89h62v131q0 42 6.5 76t24 57.5t47 36.5t75.5 13q19 0 41 -2t39 -7l-13 -96q-23 5 -46 5q-27 0 -40 -12q-11 -10 -15.5 -28t-4.5 -57v-117h183v108q0 106 54.5 157.5t161.5 51.5q14 0 35.5 -1.5t38.5 -4.5h113v-749h-114v650q-34 8 -72 8q-27 0 -46.5 -6
t-32 -20.5t-18.5 -39t-6 -62.5v-92h106v-89h-106v-349h-114v349h-183v-349h-114v349z" />
    <glyph glyph-name=".notdef" horiz-adv-x="308" 
 />
    <glyph glyph-name=".null" horiz-adv-x="271" 
 />
    <glyph glyph-name="nonmarkingreturn" horiz-adv-x="271" 
 />
    <glyph glyph-name="space" unicode=" " horiz-adv-x="271" 
 />
    <glyph glyph-name="exclam" unicode="!" horiz-adv-x="324" 
d="M103 709h118v-501h-118v501zM162 -10q-16 0 -30 6t-24.5 16.5t-17 25t-6.5 30.5t6.5 30.5t17 25t24.5 16.5t30 6q32 0 55 -23t23 -55t-23 -55t-55 -23z" />
    <glyph glyph-name="quotedbl" unicode="&#x22;" horiz-adv-x="438" 
d="M257 727h123l-23 -295h-76zM59 727h123l-23 -295h-76z" />
    <glyph glyph-name="numbersign" unicode="#" horiz-adv-x="680" 
d="M154 197h-112v96h125l20 132h-113v96h126l26 188h106l-26 -188h132l26 188h106l-25 -188h97v-96h-111l-19 -132h98v-96h-112l-28 -197h-106l28 197h-132l-29 -197h-107zM406 293l19 132h-132l-20 -132h133z" />
    <glyph glyph-name="dollar" unicode="$" 
d="M268 -11q-65 5 -116 36.5t-83 83.5l78 71q20 -34 51.5 -57.5t69.5 -31.5v214q-35 16 -67 34t-56.5 43t-39 59t-14.5 81q0 34 12.5 66.5t36 59t56 44.5t72.5 24v89h59v-89q58 -5 100 -29t73 -66l-74 -70q-41 55 -99 66v-211q36 -16 69 -33.5t58.5 -41.5t40.5 -57t15 -79
q0 -39 -13 -73.5t-37 -61.5t-58 -45t-75 -24v-111h-59v109zM270 615q-32 -9 -48.5 -33.5t-16.5 -53.5q0 -33 17.5 -55t47.5 -39v181zM325 92q33 8 51 33t18 57q0 35 -18.5 57t-50.5 39v-186z" />
    <glyph glyph-name="percent" unicode="%" horiz-adv-x="849" 
d="M649 -13q-68 0 -110 52t-42 168q0 106 43.5 162.5t118.5 56.5q70 0 111 -52t41 -165q0 -111 -45.5 -166.5t-116.5 -55.5zM573 739l70 -32l-370 -740l-70 32zM187 279q-68 0 -110 52t-42 168q0 106 44 163t118 57q70 0 111 -52.5t41 -165.5q0 -111 -45.5 -166.5
t-116.5 -55.5zM654 69q32 0 48.5 32.5t16.5 105.5q0 69 -14.5 103.5t-49.5 34.5q-67 0 -67 -136q0 -75 16 -107.5t50 -32.5zM192 361q32 0 48.5 32.5t16.5 105.5q0 69 -14.5 103.5t-49.5 34.5q-67 0 -67 -136q0 -75 16 -107.5t50 -32.5z" />
    <glyph glyph-name="ampersand" unicode="&#x26;" horiz-adv-x="658" 
d="M444 81q-51 -45 -100 -68t-104 -23q-41 0 -77 13.5t-63 39t-42.5 62t-15.5 83.5q0 33 10.5 61t30 52t46.5 46.5t59 45.5q-38 45 -56.5 84t-18.5 77q0 34 12.5 63.5t35.5 52t55.5 35.5t72.5 13q43 0 75.5 -12.5t54.5 -34t33 -51t11 -62.5q0 -56 -34.5 -99t-91.5 -81
l120 -146q23 21 44.5 45l44.5 48l71 -80l-46 -48.5l-46 -45.5l95 -116v-35h-110zM275 452q30 21 53 46.5t23 57.5q0 29 -18.5 46.5t-44.5 17.5q-30 0 -48 -19t-18 -45t15 -51t38 -53zM250 318q-43 -29 -67 -56.5t-24 -67.5q0 -42 25.5 -70.5t69.5 -28.5q33 0 61.5 17
t63.5 48z" />
    <glyph glyph-name="quotesingle" unicode="'" horiz-adv-x="239" 
d="M59 727h123l-23 -295h-76z" />
    <glyph glyph-name="parenleft" unicode="(" horiz-adv-x="288" 
d="M178 -206q-64 120 -90.5 236t-26.5 232q0 129 30 247t89 233l87 -31q-51 -106 -79 -218t-28 -227q0 -116 27.5 -227t78.5 -211l-88 -34v0z" />
    <glyph glyph-name="parenright" unicode=")" horiz-adv-x="288" 
d="M22 -175q51 105 79.5 216t28.5 229q0 115 -28 229t-79 209l88 34q57 -106 87.5 -220.5t30.5 -247.5q0 -136 -31.5 -252t-88.5 -228z" />
    <glyph glyph-name="asterisk" unicode="*" horiz-adv-x="372" 
d="M18 494l102 54l-102 54l36 62l97 -65l-7 115h70l-6 -113l95 63l37 -60l-101 -55l102 -55l-37 -61l-95 63l6 -114h-72l7 115l-95 -64z" />
    <glyph glyph-name="plus" unicode="+" horiz-adv-x="675" 
d="M48 341h236v233h107v-233h236v-105h-236v-236h-107v236h-236v105z" />
    <glyph glyph-name="comma" unicode="," horiz-adv-x="246" 
d="M15 -128q29 26 46.5 50.5t17.5 50.5q0 16 -4 28t-8.5 22.5t-8.5 21t-4 24.5q0 29 20 49.5t51 20.5t53.5 -22.5t22.5 -67.5q0 -61 -39.5 -118t-105.5 -106z" />
    <glyph glyph-name="hyphen" unicode="-" horiz-adv-x="361" 
d="M43 312h275v-96h-275v96z" />
    <glyph glyph-name="period" unicode="." horiz-adv-x="236" 
d="M122 -14q-32 0 -54.5 22.5t-22.5 54.5t22.5 54.5t54.5 22.5t54.5 -22.5t22.5 -54.5t-22.5 -54.5t-54.5 -22.5z" />
    <glyph glyph-name="slash" unicode="/" horiz-adv-x="471" 
d="M385 709h90l-360 -709h-88z" />
    <glyph glyph-name="zero" unicode="0" 
d="M282 -14q-61 0 -107 25.5t-76.5 73t-46 115t-15.5 151.5t17 152.5t50 117t81 75t110 26.5q64 0 110.5 -27t77 -75.5t45.5 -115.5t15 -148q0 -72 -15 -139t-46.5 -118t-81 -82t-118.5 -31zM291 93q61 0 94 64t33 192q0 59 -6.5 108t-21.5 84.5t-40 55.5t-62 20
q-33 0 -57 -19t-39.5 -53.5t-22.5 -83t-7 -106.5q0 -59 7 -107t22.5 -82.5t40 -53.5t59.5 -19z" />
    <glyph glyph-name="one" unicode="1" 
d="M86 112h145v485h-136v112h258v-597h140v-112h-407v112z" />
    <glyph glyph-name="two" unicode="2" 
d="M59 50l192 211q38 42 64.5 74.5t43.5 60.5t25 53.5t8 52.5q0 48 -29 80t-84 32q-34 0 -56 -13t-35 -35t-17.5 -49.5t-2.5 -56.5h-121q-3 127 60.5 195t176.5 68q60 0 104 -18.5t73.5 -48.5t43.5 -68.5t14 -79.5q0 -78 -40.5 -146t-115.5 -143q-5 -9 -21 -25l-34 -33.5
l-34 -32.5l-22 -21q6 0 17 0.5l23 1t23.5 0.5h17.5h200v-109h-474v50z" />
    <glyph glyph-name="three" unicode="3" 
d="M169 211q0 -55 30 -88t85 -33q30 0 52 9.5t36.5 25t21.5 35.5t7 42q0 51 -34.5 82t-100.5 31h-37v103h32q57 0 88.5 27t31.5 75q0 44 -27.5 72t-71.5 28q-48 0 -74.5 -31t-24.5 -79h-117q-1 44 13.5 83t43 68t70 46t94.5 17q49 0 89.5 -15.5t69.5 -42t44.5 -62.5
t15.5 -77q0 -57 -26.5 -96t-71.5 -59q24 -6 46 -21.5t38.5 -37.5t26.5 -49t10 -56q0 -42 -16 -81.5t-46.5 -70.5t-76.5 -50t-106 -19q-49 0 -91.5 14.5t-74 43t-49.5 70.5t-18 96h118z" />
    <glyph glyph-name="four" unicode="4" 
d="M26 257l295 452h134v-447h98v-105h-98v-157h-121v157h-308v100zM335 261v165v31.5t0.5 42.5t1 41.5t1.5 28.5q-3 -7 -9.5 -18l-13 -23t-13 -22.5l-10.5 -16.5l-147 -229h190z" />
    <glyph glyph-name="five" unicode="5" 
d="M97 155q33 -30 76.5 -46t87.5 -16q61 0 100 37.5t39 99.5q0 27 -10 52t-31 44.5t-52.5 31t-74.5 11.5q-32 0 -69 -7t-66 -17l32 364h347v-109h-251l-11 -140q11 2 26.5 3.5t27.5 1.5q58 0 105.5 -16.5t81 -46.5t52 -71.5t18.5 -91.5t-18 -96t-52.5 -80.5t-85 -55
t-115.5 -20.5q-56 0 -108.5 17t-90.5 49z" />
    <glyph glyph-name="six" unicode="6" 
d="M452 709l-32.5 -37.5l-35.5 -43l-35.5 -44.5l-32.5 -41l-49.5 -69.5l-43.5 -63.5q26 15 50 21t52 6q43 0 81.5 -15.5t67 -43.5t45 -67t16.5 -85q0 -50 -19 -94t-52.5 -76t-79 -50.5t-98.5 -18.5q-55 0 -99.5 18t-76 49.5t-49 74t-17.5 92.5q0 64 26.5 132t83.5 154
q36 54 76 107l74 95h148zM292 92q25 0 47 10t38.5 27t26 41t9.5 51q0 25 -9.5 47.5t-26 39t-39 26.5t-48.5 10t-48.5 -9.5t-39 -26.5t-26 -40t-9.5 -50q0 -26 9.5 -49t26.5 -40t39.5 -27t49.5 -10z" />
    <glyph glyph-name="seven" unicode="7" 
d="M382 601h-335v108h485v-62l-309 -647h-138z" />
    <glyph glyph-name="eight" unicode="8" 
d="M287 -12q-48 0 -91 15t-75.5 43t-52 67.5t-19.5 88.5q0 60 33 106.5t91 66.5q-48 20 -74.5 61t-26.5 91q0 39 14.5 75t42.5 63t69 43.5t95 16.5q45 0 84.5 -13.5t69 -38.5t46.5 -60.5t17 -78.5q0 -54 -27.5 -92.5t-75.5 -61.5q54 -18 88.5 -64t34.5 -107q0 -45 -17.5 -85
t-50 -70t-77 -48t-98.5 -18zM290 424q48 0 77.5 29t29.5 71q0 41 -29 71t-79 30q-48 0 -76 -28.5t-28 -70.5q0 -20 7.5 -38.5t21 -32.5t33 -22.5t43.5 -8.5zM290 92q25 0 47 8.5t37.5 24t24.5 36.5t9 46q0 24 -9.5 44.5t-25.5 36t-37.5 24.5t-45.5 9t-45.5 -9t-37.5 -24
t-25.5 -36t-9.5 -45t9 -45t25 -36.5t37.5 -24.5t46.5 -9z" />
    <glyph glyph-name="nine" unicode="9" 
d="M124 0q32 35 65.5 77l62.5 80l56 74t48 69q-20 -13 -45 -20.5t-54 -7.5q-44 0 -82.5 15.5t-67.5 43.5t-45.5 67t-16.5 86q0 52 19.5 95.5t53 75t78 49.5t95.5 18q57 0 102 -18.5t76.5 -50t48 -74t16.5 -91.5q0 -39 -8.5 -75.5t-25 -74t-41 -78.5t-56.5 -87
q-8 -12 -26.5 -37.5l-39 -53l-38.5 -51.5t-24 -31h-151zM289 365q26 0 48 10t38.5 27t26 40t9.5 50q0 26 -9.5 49t-26.5 40t-39.5 26.5t-48.5 9.5q-25 0 -47 -9.5t-38.5 -27t-26.5 -41t-10 -50.5q0 -26 9.5 -48.5t26 -39t39 -26.5t49.5 -10z" />
    <glyph glyph-name="colon" unicode=":" horiz-adv-x="330" 
d="M165 258q-32 0 -54.5 22.5t-22.5 54.5t22.5 54t54.5 22t54.5 -22t22.5 -54t-22.5 -54.5t-54.5 -22.5zM165 -13q-32 0 -54.5 22t-22.5 54t22.5 54.5t54.5 22.5t54.5 -22.5t22.5 -54.5t-22.5 -54t-54.5 -22z" />
    <glyph glyph-name="semicolon" unicode=";" horiz-adv-x="330" 
d="M165 258q-32 0 -54.5 22.5t-22.5 54.5t22.5 54t54.5 22t54.5 -22t22.5 -54t-22.5 -54.5t-54.5 -22.5zM55 -128q29 26 46 50.5t17 50.5q0 16 -4 28t-8.5 22.5t-8 21t-3.5 24.5q0 29 20 49.5t51 20.5t53.5 -22.5t22.5 -67.5q0 -61 -39.5 -118t-105.5 -106z" />
    <glyph glyph-name="less" unicode="&#x3c;" horiz-adv-x="675" 
d="M47 366l565 242v-115l-425 -179l425 -177v-123l-565 241v111z" />
    <glyph glyph-name="equal" unicode="=" horiz-adv-x="675" 
d="M31 443h613v-104h-613v104zM31 240h613v-105h-613v105z" />
    <glyph glyph-name="greater" unicode="&#x3e;" horiz-adv-x="675" 
d="M612 255l-565 -241v123l425 177l-425 179v115l565 -242v-111z" />
    <glyph glyph-name="question" unicode="?" horiz-adv-x="538" 
d="M213 398h50q27 0 48.5 8.5t36 23.5t22.5 34.5t8 41.5q0 23 -8.5 43t-23 34.5t-34.5 23t-42 8.5t-42 -8.5t-34.5 -24t-22.5 -36.5t-7 -46h-105q-2 46 13.5 86t44 70t69 47t89.5 17q51 0 91.5 -16.5t69.5 -44.5t44.5 -66t15.5 -81q0 -40 -13 -73.5t-35.5 -59t-53 -42.5
t-66.5 -23v-109h-115v193zM273 -12q-32 0 -54.5 22.5t-22.5 54.5t22.5 54.5t54.5 22.5t54.5 -22.5t22.5 -54.5t-22.5 -54.5t-54.5 -22.5z" />
    <glyph glyph-name="at" unicode="@" horiz-adv-x="1050" 
d="M615 114q-23 -30 -58 -47.5t-82 -17.5q-44 0 -81 16.5t-64.5 46t-43 71t-15.5 91.5t16.5 93t45 74.5t66.5 49.5t82 18t78.5 -18t55.5 -49v56h108v-344q86 0 125.5 54t39.5 152q0 51 -21 105.5t-64.5 99t-109.5 73t-156 28.5q-80 0 -150 -31t-121.5 -84.5t-81.5 -124.5
t-30 -152q0 -82 30 -154t81.5 -125t121.5 -84t151 -31q69 0 138 21.5t125 57.5l43 -82q-64 -44 -143.5 -67t-163.5 -23q-101 0 -190 37.5t-155 103.5t-104 155t-38 191q0 100 38.5 188.5t104.5 154.5t154.5 104.5t189.5 38.5q108 0 193 -34t143.5 -90.5t89 -128.5t30.5 -147
q0 -64 -18 -119t-55 -95t-93.5 -63t-133.5 -23h-78v54zM502 141q27 0 49 10.5t37 28.5t23 42.5t8 52.5q0 29 -8.5 54t-24.5 43t-38 28t-49 10q-25 0 -46.5 -10t-37 -27.5t-24 -42t-8.5 -52.5t8.5 -53t24.5 -43.5t37.5 -29.5t48.5 -11z" />
    <glyph glyph-name="A" unicode="A" horiz-adv-x="701" 
d="M287 709h122l284 -709h-136l-62 165h-294l-61 -165h-131zM455 272l-62 166q-5 13 -12.5 35l-15.5 44l-18 53l-17 -53l-15.5 -43.5l-12.5 -35.5l-62 -166h215z" />
    <glyph glyph-name="B" unicode="B" horiz-adv-x="603" 
d="M82 709h202q62 0 103.5 -13t73.5 -46q22 -22 34 -52t12 -67q0 -52 -24 -88.5t-65 -59.5q28 -6 52 -21t42 -37t28.5 -51t10.5 -63q0 -89 -57 -146q-30 -30 -80.5 -47.5t-132.5 -17.5h-199v709zM270 419q56 0 85 28q13 13 21 30.5t8 40.5q0 17 -5 33t-18 29
q-14 14 -33 20.5t-51 6.5h-73v-188h66zM292 103q71 0 103.5 27t32.5 78q0 22 -6.5 42t-20.5 34q-18 18 -45.5 26t-66.5 8h-85v-215h88z" />
    <glyph glyph-name="C" unicode="C" horiz-adv-x="645" 
d="M596 31q-39 -20 -90 -31t-107 -11q-80 0 -145.5 28t-112.5 77t-72.5 115t-25.5 141q0 81 27 148.5t75 116.5t114.5 76.5t145.5 27.5q105 0 187 -38v-134q-35 26 -84.5 42.5t-102.5 16.5q-49 0 -91.5 -18t-73.5 -51t-49 -79.5t-18 -104.5q0 -52 16.5 -97.5t47.5 -79.5
t75.5 -53.5t99.5 -19.5q56 0 102.5 14.5t81.5 40.5v-127v0z" />
    <glyph glyph-name="D" unicode="D" horiz-adv-x="683" 
d="M82 709h187q85 0 154 -23.5t118 -71.5q48 -48 73 -110.5t25 -143.5q0 -161 -100 -261q-99 -99 -288 -99h-169v709zM256 104q65 0 110.5 15.5t75.5 45.5q32 31 49.5 78t17.5 112q0 59 -17 107t-49 80q-35 35 -81.5 49.5t-104.5 14.5h-52v-502h51z" />
    <glyph glyph-name="E" unicode="E" horiz-adv-x="544" 
d="M82 709h387v-113h-263v-176h255v-111h-255v-196h264v-113h-388v709z" />
    <glyph glyph-name="F" unicode="F" horiz-adv-x="514" 
d="M82 709h378v-113h-254v-179h249v-111h-249v-306h-124v709z" />
    <glyph glyph-name="G" unicode="G" horiz-adv-x="785" 
d="M430 373h325v-29q0 -74 -23.5 -139.5t-69 -114.5t-111 -77t-149.5 -28q-80 0 -146.5 28.5t-113.5 79t-73 118t-26 145.5q0 76 27.5 143.5t76.5 117.5t116.5 79t147.5 29q94 0 171.5 -38t131.5 -113l-98 -68q-78 106 -208 106q-56 0 -100 -20.5t-75 -55t-47.5 -80.5
t-16.5 -97q0 -54 16.5 -101.5t47.5 -83t75.5 -56.5t99.5 -21q44 0 80.5 12.5t64 35t45.5 53t24 66.5h-192v109z" />
    <glyph glyph-name="H" unicode="H" horiz-adv-x="715" 
d="M82 709h124v-282h303v282h124v-709h-124v315h-303v-315h-124v709z" />
    <glyph glyph-name="I" unicode="I" horiz-adv-x="288" 
d="M82 709h124v-709h-124v709z" />
    <glyph glyph-name="J" unicode="J" horiz-adv-x="434" 
d="M91 168q14 -29 35 -47.5t48 -18.5q11 0 20 4t15 10q12 12 17 32t5 56v505h123v-500q0 -64 -12.5 -104.5t-42.5 -70.5q-47 -47 -133 -47q-26 0 -51 8t-46.5 22.5t-39 34.5t-29.5 44z" />
    <glyph glyph-name="K" unicode="K" horiz-adv-x="649" 
d="M82 709h124v-316l248 316h149l-271 -332l285 -377h-157l-254 345v-345h-124v709z" />
    <glyph glyph-name="L" unicode="L" horiz-adv-x="472" 
d="M82 709h124v-596h240v-113h-364v709z" />
    <glyph glyph-name="M" unicode="M" horiz-adv-x="906" 
d="M139 709h129l138 -386q13 -36 25 -75.5t23 -80.5l22.5 78t22.5 70l142 394h124l98 -709h-121l-46 381q-5 35 -8 76.5t-5 83.5q-11 -41 -22.5 -78.5t-22.5 -68.5l-143 -394h-91l-141 391q-11 31 -22.5 69.5l-22.5 77.5q-2 -42 -5.5 -83.5t-8.5 -79.5l-45 -375h-120z" />
    <glyph glyph-name="N" unicode="N" horiz-adv-x="779" 
d="M82 709h114l293 -392l52 -72.5t46 -69.5q-2 61 -3.5 117.5t-1.5 116.5v300h114v-709h-112l-309 412l-43 60l-41 60q2 -50 3 -98t4 -98v-336h-116v709z" />
    <glyph glyph-name="O" unicode="O" horiz-adv-x="826" 
d="M412 -16q-78 0 -145.5 28.5t-118 78.5t-79.5 117.5t-29 144.5q0 76 29.5 143.5t80.5 118t119 80t145 29.5q78 0 146 -28.5t118.5 -78.5t79.5 -117.5t29 -145.5q0 -77 -30 -144t-81 -117.5t-119 -79.5t-145 -29zM413 102q53 0 98 19.5t78 53.5t51.5 80t18.5 99t-18 99.5
t-51 81t-78 54t-99 19.5q-53 0 -98 -20t-78 -54.5t-51.5 -80.5t-18.5 -98t19 -98t52 -80.5t78 -54.5t97 -20z" />
    <glyph glyph-name="P" unicode="P" horiz-adv-x="541" 
d="M82 709h181q66 0 115.5 -14t83.5 -48q55 -55 55 -148q0 -45 -15 -83t-43 -66q-34 -34 -85 -51t-114 -17h-55v-282h-123v709zM261 387q67 0 100 33q29 29 29 74q0 24 -7 44.5t-20 33.5q-15 15 -38 23t-60 8h-60v-216h56z" />
    <glyph glyph-name="Q" unicode="Q" horiz-adv-x="826" 
d="M577 23q-35 -17 -76 -28t-89 -11q-78 0 -145.5 28.5t-118 78.5t-79.5 117.5t-29 144.5q0 76 29.5 143.5t80.5 118t119 80t145 29.5q78 0 146 -28.5t118.5 -78.5t79.5 -117.5t29 -145.5q0 -85 -34 -154t-88 -117l98 -123l-113 -28zM403 241l113 29l74 -93q30 32 49.5 76
t19.5 101q0 53 -18 99.5t-51 81t-78 54t-99 19.5q-53 0 -98 -20t-78 -54.5t-51.5 -80.5t-18.5 -98t18.5 -98t51.5 -80.5t78 -54.5t97 -20q47 0 89 16z" />
    <glyph glyph-name="R" unicode="R" horiz-adv-x="579" 
d="M82 709h199q62 0 110.5 -14.5t79.5 -45.5q29 -30 41.5 -64t12.5 -76q0 -39 -12.5 -72t-35.5 -59t-56 -42.5t-73 -22.5l216 -313h-148l-199 308h-12v-308h-123v709zM260 398q42 0 69 7.5t42 23.5q15 15 21.5 33t6.5 41q0 20 -5.5 38.5t-21.5 34.5q-17 17 -43 24t-61 7h-63
v-209h55z" />
    <glyph glyph-name="S" unicode="S" horiz-adv-x="531" 
d="M120 182q10 -18 23.5 -34t30.5 -29t37 -20.5t44 -7.5q46 0 73.5 28t27.5 70q0 36 -22 59t-54.5 41.5t-71 36.5t-71 43t-54.5 62t-22 93q0 43 17 79.5t46 63.5t68 42t83 15q64 0 115 -27.5t83 -76.5l-84 -73q-19 34 -48 53.5t-64 19.5q-41 0 -66 -25.5t-25 -64.5
q0 -35 22 -57t55 -40t71.5 -35.5t71.5 -42.5t55 -61.5t22 -91.5q0 -48 -18 -88t-49 -68.5t-74 -44.5t-92 -16q-75 0 -130 33t-88 87z" />
    <glyph glyph-name="T" unicode="T" horiz-adv-x="470" 
d="M174 597h-163v112h449v-111h-163v-598h-123v597z" />
    <glyph glyph-name="U" unicode="U" horiz-adv-x="713" 
d="M80 709h124v-435q0 -50 9 -82t33 -56q19 -19 46.5 -30t65.5 -11q36 0 63.5 10.5t46.5 28.5q21 21 32.5 52t11.5 80v443h121v-431q0 -75 -19.5 -128.5t-56.5 -91.5q-38 -38 -90.5 -54.5t-111.5 -16.5q-63 0 -115.5 18t-90.5 56q-32 31 -50.5 79.5t-18.5 123.5v445z" />
    <glyph glyph-name="V" unicode="V" horiz-adv-x="683" 
d="M9 709h136l150 -418l23.5 -71l22.5 -71q10 35 22.5 71.5l23.5 67.5l153 421h133l-272 -709h-124z" />
    <glyph glyph-name="W" unicode="W" horiz-adv-x="1025" 
d="M20 709h130l125 -417q9 -31 17 -67.5t14 -72.5l14.5 73t16.5 70l113 414h127l114 -418q8 -30 16.5 -65.5t15.5 -73.5l16 73t16 65l124 419h126l-226 -709h-122l-115 417q-8 29 -15.5 64.5l-15.5 75.5l-15 -77t-15 -64l-113 -416h-122z" />
    <glyph glyph-name="X" unicode="X" horiz-adv-x="640" 
d="M255 369l-219 340h145l142 -241l144 241h144l-223 -338l235 -371h-143l-162 271l-160 -271h-142z" />
    <glyph glyph-name="Y" unicode="Y" horiz-adv-x="604" 
d="M239 317l-230 392h142l154 -288l154 288h137l-233 -388v-321h-124v317z" />
    <glyph glyph-name="Z" unicode="Z" horiz-adv-x="572" 
d="M349 600h-302v109h502l-345 -597h345v-112h-546z" />
    <glyph glyph-name="bracketleft" unicode="[" horiz-adv-x="345" 
d="M92 733h217v-87h-112v-753h113v-89h-218v929z" />
    <glyph glyph-name="backslash" unicode="\" horiz-adv-x="361" 
d="M16 709h105l227 -718h-106z" />
    <glyph glyph-name="bracketright" unicode="]" horiz-adv-x="345" 
d="M34 -107h114v753h-113v87h217v-929h-218v89z" />
    <glyph glyph-name="asciicircum" unicode="^" horiz-adv-x="737" 
d="M327 709h92l188 -385h-119l-117 246l-123 -246h-118z" />
    <glyph glyph-name="underscore" unicode="_" horiz-adv-x="506" 
d="M-8 -124h521v-106h-521v106z" />
    <glyph glyph-name="grave" unicode="`" horiz-adv-x="470" 
d="M212 705l135 -150l-65 -46l-159 127z" />
    <glyph glyph-name="a" unicode="a" 
d="M401 54q-25 -30 -62.5 -48t-86.5 -18q-47 0 -86 17t-66.5 47t-43 71.5t-15.5 90.5q0 51 16 94t44.5 74.5t68.5 49.5t88 18q46 0 83.5 -18.5t59.5 -49.5v56h113v-438h-113v54zM283 81q28 0 51 10.5t39 28.5t24.5 42.5t8.5 52.5q0 59 -35 97t-91 38q-26 0 -48 -10
t-38.5 -27.5t-26 -42t-9.5 -52.5t9.5 -53t26 -43.5t39.5 -29.5t50 -11z" />
    <glyph glyph-name="b" unicode="b" horiz-adv-x="579" 
d="M66 749h113v-371q25 33 62 52t86 19q45 0 83.5 -16.5t67 -46.5t44.5 -71.5t16 -90.5q0 -53 -17 -96.5t-46.5 -74t-69 -47.5t-84.5 -17q-89 0 -142 65v-54h-113v749zM298 84q27 0 49 10.5t38.5 29t25.5 43t9 51.5q0 26 -8.5 50t-24.5 42t-39 29t-51 11q-56 0 -89.5 -37
t-33.5 -96q0 -27 8.5 -51t24 -42t38.5 -29t53 -11z" />
    <glyph glyph-name="c" unicode="c" horiz-adv-x="441" 
d="M398 13q-23 -10 -56.5 -17.5t-69.5 -7.5q-57 0 -100 19t-72 51t-44 73t-15 85q0 45 16.5 87.5t47 74.5t75 51.5t100.5 19.5q31 0 62.5 -6t55.5 -17v-107q-20 12 -49 20.5t-58 8.5q-28 0 -52 -9.5t-41 -26.5t-27 -40.5t-10 -51.5q0 -27 9 -50.5t26 -41.5t41 -28.5
t54 -10.5q29 0 57 8t50 24v-108v0z" />
    <glyph glyph-name="d" unicode="d" 
d="M401 59q-25 -30 -62 -49.5t-89 -19.5q-47 0 -85.5 17.5t-66 48.5t-42.5 72t-15 89t16 89.5t45 73t69 49.5t88 18q44 0 80.5 -15.5t61.5 -44.5v361h113v-748h-113v59zM281 86q28 0 50.5 10.5t39 29t25.5 43t9 52.5q0 30 -9.5 54t-26 41t-39 26t-47.5 9q-27 0 -49.5 -10.5
t-39 -28.5t-25.5 -42.5t-9 -51.5q0 -30 10 -54t26.5 -41.5t38.5 -27t46 -9.5z" />
    <glyph glyph-name="e" unicode="e" horiz-adv-x="520" 
d="M471 85q-38 -49 -88 -73.5t-119 -24.5q-46 0 -86.5 15.5t-71 44.5t-48 72t-17.5 98q0 52 17 95t47 74t70.5 48t87.5 17q48 0 87.5 -15.5t68.5 -44.5t45 -71t16 -94q0 -9 -0.5 -18t-0.5 -19h-325q1 -24 10.5 -44.5t25.5 -36t37.5 -24t47.5 -8.5q38 0 68 16.5t53 45.5z
M364 265q0 20 -7 38t-20.5 32t-32.5 22.5t-43 8.5q-46 0 -74 -30t-32 -71h209z" />
    <glyph glyph-name="f" unicode="f" horiz-adv-x="315" 
d="M78 349h-62v89h62v135q0 42 6.5 76t24 58t47 37t75.5 13q20 0 39 -2t33 -5v-97q-11 2 -23.5 3t-23.5 1q-30 0 -43 -12q-12 -10 -16.5 -28.5t-4.5 -57.5v-121h106v-89h-106v-349h-114v349z" />
    <glyph glyph-name="g" unicode="g" horiz-adv-x="573" 
d="M174 -44q2 -35 30 -59t74 -24q60 0 88 30t28 99v64q-26 -32 -63 -48t-81 -16q-49 0 -87.5 17t-65.5 47t-41.5 69.5t-14.5 84.5q0 49 16.5 90.5t45 72.5t67 48.5t82.5 17.5q45 0 82 -16.5t60 -49.5v55h113v-407q0 -67 -12.5 -110.5t-44.5 -74.5q-32 -32 -75.5 -46
t-102.5 -14q-99 0 -152.5 47.5t-56.5 122.5h111zM279 93q27 0 49 10t37.5 28t24 42t8.5 51q0 25 -8 48.5t-24 40.5t-38.5 27.5t-50.5 10.5q-26 0 -48 -10t-38 -27.5t-25 -40.5t-9 -50q0 -56 34 -93t88 -37z" />
    <glyph glyph-name="h" unicode="h" horiz-adv-x="537" 
d="M66 749h113v-367q20 26 55.5 46.5t86.5 20.5q32 0 61 -10t49 -30q42 -42 42 -128v-281h-113v257q0 45 -19.5 69t-61.5 24q-41 0 -69 -28q-31 -31 -31 -88v-234h-113v749z" />
    <glyph glyph-name="i" unicode="i" horiz-adv-x="248" 
d="M124 537q-30 0 -52 21.5t-22 52.5q0 30 22 51.5t52 21.5t51.5 -21.5t21.5 -51.5q0 -31 -21.5 -52.5t-51.5 -21.5zM67 438h114v-438h-114v438z" />
    <glyph glyph-name="j" unicode="j" horiz-adv-x="248" 
d="M124 537q-30 0 -52 21.5t-22 52.5q0 30 22 51.5t52 21.5t51.5 -21.5t21.5 -51.5q0 -31 -21.5 -52.5t-51.5 -21.5zM67 438h114v-639h-114v639z" />
    <glyph glyph-name="k" unicode="k" horiz-adv-x="486" 
d="M66 749h113v-493l150 182h143l-179 -201l191 -237h-150l-155 209v-209h-113v749z" />
    <glyph glyph-name="l" unicode="l" horiz-adv-x="245" 
d="M66 749h113v-749h-113v749z" />
    <glyph glyph-name="m" unicode="m" horiz-adv-x="803" 
d="M66 438h111v-62q20 31 52.5 51.5t80.5 20.5q90 0 132 -76q23 30 59 52.5t88 22.5q33 0 60.5 -9.5t47.5 -30t31.5 -53t11.5 -78.5v-276h-114v252q0 43 -15.5 70.5t-58.5 27.5q-17 0 -33 -6t-29.5 -19.5t-21.5 -34t-8 -49.5v-241h-114v252q0 43 -16 70.5t-58 27.5
q-17 0 -33.5 -6.5t-29.5 -20t-21.5 -34t-8.5 -49.5v-240h-113v438z" />
    <glyph glyph-name="n" unicode="n" horiz-adv-x="538" 
d="M66 438h112v-58q18 24 51.5 45.5t88.5 21.5q41 0 69 -12t47 -30q22 -22 31.5 -53t9.5 -76v-276h-114v252q0 43 -18 70.5t-62 27.5q-17 0 -35 -6.5t-33 -20t-24.5 -34t-9.5 -49.5v-240h-113v438z" />
    <glyph glyph-name="o" unicode="o" horiz-adv-x="561" 
d="M276 -13q-50 0 -93 17t-74.5 48t-49.5 73.5t-18 92.5q0 48 18 90t50 73.5t76 50t96 18.5q51 0 95 -17.5t76 -48t50 -73t18 -92.5q0 -46 -17.5 -88t-49.5 -74t-77 -51t-100 -19zM281 88q27 0 49.5 10.5t39 28.5t25.5 41.5t9 49.5q0 28 -9.5 52t-26.5 41.5t-40 27.5t-49 10
q-27 0 -49.5 -10.5t-39 -28t-25.5 -41t-9 -50.5q0 -28 10 -52t27 -41.5t39.5 -27.5t48.5 -10z" />
    <glyph glyph-name="p" unicode="p" 
d="M66 438h113v-59q24 33 61.5 51.5t88.5 18.5q46 0 84.5 -17.5t66.5 -48t43.5 -72.5t15.5 -90q0 -46 -15.5 -88t-43.5 -74t-68.5 -51t-89.5 -19q-47 0 -83.5 17t-59.5 46v-253h-113v639zM298 82q28 0 50.5 11t38 29.5t24 42.5t8.5 51t-8.5 51t-24 42.5t-38.5 29.5t-51 11
t-50.5 -10.5t-38.5 -29t-24.5 -43t-8.5 -52.5q0 -59 34 -96t89 -37z" />
    <glyph glyph-name="q" unicode="q" 
d="M401 54q-23 -30 -59 -47.5t-84 -17.5q-50 0 -90.5 18t-68.5 49t-43 72.5t-15 87.5q0 49 16.5 91t45.5 73t68.5 49t86.5 18t83.5 -18t59.5 -49v58h114v-639h-114v255zM282 83q52 0 88 35.5t36 97.5q0 28 -9 52.5t-25 42.5t-38.5 28.5t-50.5 10.5q-27 0 -49.5 -10
t-38.5 -28t-25 -42.5t-9 -52.5q0 -27 9 -51.5t24.5 -42.5t38 -29t49.5 -11z" />
    <glyph glyph-name="r" unicode="r" horiz-adv-x="347" 
d="M66 438h112v-69q19 35 49 57t77 22q8 0 17 -0.5t15 -2.5l-4 -117q-26 15 -64 15q-39 0 -63.5 -33t-24.5 -99v-211h-114v438z" />
    <glyph glyph-name="s" unicode="s" horiz-adv-x="408" 
d="M128 125q11 -21 29.5 -34.5t43.5 -13.5q23 0 38.5 10t15.5 31q0 19 -15 30t-38 20l-49 18.5t-49 25t-38 39.5t-15 62q0 28 11 52.5t31.5 43.5t49.5 30t66 11q55 0 92.5 -21t59.5 -66l-91 -41q-11 22 -28 32t-37 10q-19 0 -33 -11t-14 -30q0 -20 15.5 -32t38.5 -21
l49.5 -18.5t49.5 -24.5t38.5 -38.5t15.5 -61.5q0 -30 -12 -55.5t-34 -44t-53 -28.5t-68 -10q-63 0 -101 21.5t-61 66.5z" />
    <glyph glyph-name="t" unicode="t" horiz-adv-x="282" 
d="M79 349h-64v89h64v159h114v-159h85v-89h-85v-349h-114v349z" />
    <glyph glyph-name="u" unicode="u" horiz-adv-x="540" 
d="M63 438h114v-229q0 -26 3.5 -48.5t14 -39t29 -26.5t48.5 -10t47.5 10.5t27.5 28t13 39t3 43.5v232h114v-229q0 -54 -10.5 -96t-40.5 -72q-29 -29 -69 -41.5t-88 -12.5q-100 0 -157 57q-26 26 -37.5 64.5t-11.5 93.5v236z" />
    <glyph glyph-name="v" unicode="v" horiz-adv-x="508" 
d="M3 438h129l87 -215q9 -23 19.5 -53t18.5 -58q8 28 18.5 57t20.5 54l85 215h124l-192 -438h-117z" />
    <glyph glyph-name="w" unicode="w" horiz-adv-x="778" 
d="M8 438h122l83 -223q8 -20 14.5 -43t11.5 -44l10.5 44t11.5 40l74 226h112l71 -217q8 -24 14.5 -46.5t11.5 -45.5q6 23 14 47t15 43l79 219h118l-179 -438h-106l-75 227l-11 36.5t-11 43.5l-10.5 -44t-10.5 -37l-73 -226h-110z" />
    <glyph glyph-name="x" unicode="x" horiz-adv-x="497" 
d="M180 224l-165 214h138l51.5 -72.5l45.5 -69.5l47.5 71l50.5 71h136l-164 -212l175 -226h-138l-55 79.5t-52 78.5q-24 -39 -53.5 -80l-57.5 -78h-137z" />
    <glyph glyph-name="y" unicode="y" horiz-adv-x="510" 
d="M202 21l-200 417h132l79 -177l20 -44l16.5 -39.5l14.5 -34.5l22.5 54.5l22.5 54.5l79 186h120l-290 -639h-120z" />
    <glyph glyph-name="z" unicode="z" horiz-adv-x="463" 
d="M249 347h-205v91h399l-234 -347h221v-91h-413z" />
    <glyph glyph-name="braceleft" unicode="{" horiz-adv-x="379" 
d="M128 98q0 73 -17 106.5t-71 33.5v84q27 0 44 7t26.5 22.5t13.5 40.5t4 60v96q0 97 43 141t137 44h36v-79q-57 0 -82.5 -24.5t-25.5 -80.5v-81q0 -47 -4 -79t-14.5 -53.5t-28.5 -34.5t-47 -22q29 -9 47.5 -23t29 -36t14.5 -52.5t4 -73.5v-90q0 -32 4.5 -54t16.5 -35
t33 -18.5t53 -5.5v-87h-47q-47 0 -79 10t-52 33t-29 60.5t-9 93.5v97z" />
    <glyph glyph-name="bar" unicode="|" horiz-adv-x="235" 
d="M65 775h105v-1002h-105v1002z" />
    <glyph glyph-name="braceright" unicode="}" horiz-adv-x="379" 
d="M32 -118q59 0 83.5 26t24.5 84v71q0 50 3.5 84t14 56.5t29 36t47.5 22.5q-29 9 -47 23t-29 34.5t-15 49t-4 68.5v100q0 31 -5 52t-17.5 33.5t-33 17.5t-51.5 5v87h41q95 0 135.5 -43t40.5 -137v-113q0 -69 16.5 -101.5t70.5 -32.5v-85q-26 0 -43 -7t-27 -23t-13.5 -42
t-3.5 -63v-80q0 -57 -10 -95.5t-31.5 -62t-54.5 -34t-78 -10.5h-43v79z" />
    <glyph glyph-name="asciitilde" unicode="~" horiz-adv-x="737" 
d="M111 305q10 14 25 28.5t34.5 26.5t42.5 19.5t49 7.5q30 0 57.5 -11t54.5 -24t52.5 -24t50.5 -11q29 0 56 15.5t47 41.5l46 -90q-31 -34 -70 -55t-82 -21q-29 0 -56.5 11t-53.5 24t-51 24t-49 11q-29 0 -54.5 -16.5t-49.5 -45.5z" />
    <glyph glyph-name="nonbreakingspace" unicode="&#xa0;" horiz-adv-x="271" 
 />
    <glyph glyph-name="exclamdown" unicode="&#xa1;" horiz-adv-x="291" 
d="M162 563q-16 0 -30 6t-24.5 16.5t-17 25t-6.5 30.5t6.5 30.5t17 25t24.5 16.5t30 6q32 0 55 -23t23 -55t-23 -55t-55 -23zM103 501h118v-501h-118v501z" />
    <glyph glyph-name="cent" unicode="&#xa2;" 
d="M326 110q-52 3 -94 23t-71.5 52t-45.5 74t-16 90q0 45 15 87.5t44 76t71.5 55t96.5 26.5v115h62v-116q25 -3 47.5 -9t42.5 -14v-107q-18 9 -41 17t-49 11v-280q27 4 50 13t42 20v-106q-42 -20 -92 -26v-112h-62v110zM326 487q-48 -11 -76.5 -47t-28.5 -87t28.5 -89
t76.5 -49v272z" />
    <glyph glyph-name="sterling" unicode="&#xa3;" 
d="M40 84q55 31 84 67t29 83q0 22 -6 43.5t-15 42.5h-88v78h55q-14 33 -22 64t-8 61q0 38 14.5 74t43 64t71 45t99.5 17q89 0 144 -39.5t81 -111.5l-108 -45q-30 100 -122 100q-44 0 -71 -27t-27 -74q0 -33 10 -61.5t27 -66.5h157v-78h-128q13 -37 13 -72q0 -31 -12 -61.5
t-37 -53.5q25 -1 43 -7t35.5 -13t36.5 -12.5t45 -5.5q33 0 57.5 10.5t45.5 27.5l53 -94q-25 -17 -65 -34.5t-95 -17.5q-32 0 -57 7t-47.5 15t-44.5 15t-47 7q-28 0 -54.5 -10t-46.5 -27z" />
    <glyph glyph-name="currency" unicode="&#xa4;" horiz-adv-x="680" 
d="M24 107l91 91q-20 29 -31 66t-11 75t10 74.5t33 68.5l-91 91l77 78l91 -92q27 19 62.5 30.5t79.5 11.5q42 0 77 -11t64 -31l92 92l78 -78l-92 -90q19 -29 30 -64.5t11 -77.5q0 -40 -11.5 -77t-31.5 -65l94 -94l-78 -76l-93 93q-29 -20 -64.5 -31t-77.5 -11t-77 11t-64 30
l-91 -91zM335 183q32 0 60 12.5t49 33.5t33 50t12 62t-12 62t-33 50.5t-49.5 34t-61.5 12.5q-32 0 -60 -12.5t-48.5 -33.5t-32.5 -50t-12 -62t12 -62t33 -50.5t49 -34t61 -12.5z" />
    <glyph glyph-name="yen" unicode="&#xa5;" 
d="M62 162h167v78h-167v83h164l-227 386h142l152 -285l152 285h137l-232 -386h159v-83h-160v-78h160v-84h-160v-78h-120v78h-167v84z" />
    <glyph glyph-name="brokenbar" unicode="&#xa6;" horiz-adv-x="240" 
d="M67 692h106v-383h-106v383zM67 191h106v-383h-106v383z" />
    <glyph glyph-name="section" unicode="&#xa7;" horiz-adv-x="537" 
d="M177 10q0 -39 23 -61.5t66 -22.5q41 0 61 22.5t20 51.5t-23.5 48.5t-65.5 36.5l-50 20q-30 12 -57.5 28.5t-48.5 39.5t-33.5 54.5t-12.5 73.5q0 27 7.5 53.5t21.5 48.5t35 39t47 25q-41 22 -63.5 54t-22.5 78q0 33 12.5 63.5t36.5 53.5t59.5 36.5t82.5 13.5q94 0 146 -45
t51 -142h-113q2 45 -19.5 69.5t-65.5 24.5q-30 0 -54.5 -18.5t-24.5 -55.5q0 -29 23 -49t78 -44l54 -24q27 -12 51 -29t41.5 -39t27.5 -50t10 -63q0 -57 -28 -99t-80 -66q47 -19 70.5 -55.5t23.5 -79.5q0 -37 -14 -68.5t-40 -54.5t-63.5 -36t-85.5 -13q-54 0 -92 15
t-62.5 40t-36 57.5t-11.5 68.5h119zM266 202q20 0 38 7.5t31.5 21t21.5 31.5t8 39q0 20 -8 38t-21.5 31.5t-31.5 21t-38 7.5t-38 -7.5t-31.5 -21t-21.5 -31.5t-8 -38q0 -21 8 -39t21.5 -31.5t31.5 -21t38 -7.5z" />
    <glyph glyph-name="dieresis" unicode="&#xa8;" horiz-adv-x="470" 
d="M335 541q-29 0 -49.5 20.5t-20.5 49.5t20.5 49t49.5 20t49 -20t20 -49t-20 -49.5t-49 -20.5zM134 541q-29 0 -49 20.5t-20 49.5t20 49t49 20t49.5 -20t20.5 -49t-20.5 -49.5t-49.5 -20.5z" />
    <glyph glyph-name="copyright" unicode="&#xa9;" horiz-adv-x="842" 
d="M421 -19q-77 0 -145 29.5t-118.5 80t-80 118.5t-29.5 145q0 78 29.5 146t80 118.5t118.5 80t145 29.5t145 -29.5t118.5 -80t80 -118.5t29.5 -146q0 -77 -29.5 -145t-80 -118.5t-118.5 -80t-145 -29.5zM421 35q66 0 124 25t101.5 68.5t68.5 101.5t25 124t-25 124.5
t-68.5 102t-101.5 68.5t-124 25t-124.5 -25t-101.5 -68.5t-68 -102t-25 -124.5t25 -124t68 -101.5t101.5 -68.5t124.5 -25zM621 199q-34 -38 -82 -62.5t-110 -24.5q-52 0 -97 17t-78 48.5t-52 77t-19 101.5q0 50 17.5 94.5t49.5 77.5t77 52.5t101 19.5q60 0 106 -20t87 -65
l-72 -71q-20 24 -50 41t-72 17q-27 0 -52.5 -9.5t-45 -27.5t-31 -45.5t-11.5 -63.5q0 -32 10.5 -58.5t29.5 -46t45.5 -30.5t57.5 -11q38 0 67 15t52 41z" />
    <glyph glyph-name="ordfeminine" unicode="&#xaa;" horiz-adv-x="569" 
d="M358 392q-20 -26 -49.5 -36.5t-67.5 -10.5q-40 0 -72 15t-54 40.5t-34 59.5t-12 72q0 42 13 77t36 59.5t54.5 38t69.5 13.5q78 0 116 -52v45h103v-358h-103v37zM90 296h381v-96h-381v96zM268 430q45 0 68 29.5t23 70.5q0 48 -27 74.5t-66 26.5q-40 0 -65.5 -29t-25.5 -70
q0 -45 26.5 -73.5t66.5 -28.5z" />
    <glyph glyph-name="guillemotleft" unicode="&#xab;" horiz-adv-x="440" 
d="M203 228l142 206l70 -45l-113 -159l114 -152l-72 -46zM24 226l146 213l67 -48l-113 -163l114 -155l-72 -46z" />
    <glyph glyph-name="logicalnot" unicode="&#xac;" horiz-adv-x="675" 
d="M26 343h612v-307h-106v202h-506v105z" />
    <glyph glyph-name="uni00AD" unicode="&#xad;" horiz-adv-x="361" 
d="M43 312h275v-96h-275v96z" />
    <glyph glyph-name="registered" unicode="&#xae;" horiz-adv-x="842" 
d="M412 131q-67 0 -126 25.5t-103 69.5t-69.5 103t-25.5 126t25.5 126t69.5 103t103 69.5t126 25.5t126 -25.5t103 -69.5t69.5 -103t25.5 -126t-25.5 -126t-69.5 -103t-103 -69.5t-126 -25.5zM412 193q54 0 102 20.5t84 56t56.5 83.5t20.5 102t-20.5 102t-56.5 83.5t-84 56
t-102 20.5t-101.5 -20.5t-83.5 -56t-56.5 -83.5t-20.5 -102t20.5 -102t56.5 -83.5t83.5 -56t101.5 -20.5zM291 651h119q71 0 106 -31t35 -76q0 -84 -92 -107l106 -169h-95l-94 161h-5v-161h-80v383zM393 485q31 0 51.5 10.5t20.5 44.5q0 51 -65 51h-29v-106h22z" />
    <glyph glyph-name="macron" unicode="&#xaf;" horiz-adv-x="470" 
d="M92 650h285v-94h-285v94z" />
    <glyph glyph-name="degree" unicode="&#xb0;" horiz-adv-x="369" 
d="M184 418q-35 0 -66.5 13t-54.5 35.5t-36.5 53t-13.5 65.5t13.5 66t37 54t55 36t66.5 13t66 -13t54 -35.5t36.5 -53.5t13.5 -66t-13.5 -65.5t-37 -53.5t-54.5 -36t-66 -13zM185 514q29 0 49.5 21t20.5 50q0 30 -21 51t-50 21q-30 0 -50.5 -20.5t-20.5 -50.5
q0 -29 21 -50.5t51 -21.5z" />
    <glyph glyph-name="plusminus" unicode="&#xb1;" horiz-adv-x="675" 
d="M51 473h233v208h107v-208h233v-104h-233v-210h-107v210h-233v104zM51 105h573v-105h-573v105z" />
    <glyph glyph-name="twosuperior" unicode="&#xb2;" horiz-adv-x="368" 
d="M39 359l107 99q24 22 41 39t27.5 30.5t15.5 25.5t5 26q0 26 -14.5 42.5t-43.5 16.5q-35 0 -47.5 -24t-10.5 -57h-87q-2 73 37.5 115.5t110.5 42.5q37 0 64.5 -11t45.5 -29.5t26.5 -42.5t8.5 -49q0 -27 -10 -51.5t-28 -47t-43.5 -44.5t-56.5 -45h145v-81h-293v45z" />
    <glyph glyph-name="threesuperior" unicode="&#xb3;" horiz-adv-x="354" 
d="M118 439q2 -62 57 -62q27 0 41.5 15.5t14.5 37.5q0 23 -15.5 39t-54.5 16h-21v64h18q34 0 48.5 14.5t14.5 34.5q0 21 -13 33.5t-34 12.5q-24 0 -37 -14t-11 -41h-84q1 57 35.5 92t99.5 35q63 0 97.5 -33.5t34.5 -81.5q0 -54 -47 -79q26 -9 43 -35t17 -54q0 -24 -9.5 -47
t-28 -41t-46 -28.5t-64.5 -10.5q-63 0 -101.5 36t-40.5 97h86z" />
    <glyph glyph-name="acute" unicode="&#xb4;" horiz-adv-x="470" 
d="M257 705l90 -68l-159 -128l-65 47z" />
    <glyph glyph-name="mu" unicode="&#xb5;" horiz-adv-x="548" 
d="M66 438h113v-224q0 -54 23 -89.5t73 -35.5q25 0 42.5 11t29 29t17 41t5.5 47v221h113v-438h-109v53q-11 -24 -35.5 -45t-64.5 -21q-39 0 -61.5 19t-32.5 38v-245h-113v639z" />
    <glyph glyph-name="paragraph" unicode="&#xb6;" horiz-adv-x="664" 
d="M253 303q-38 7 -69 25t-53.5 45t-35 60.5t-12.5 70.5q0 42 16 79.5t44 65.5t66 44t81 16h294v-80h-61v-797h-92v797h-86v-797h-92v471z" />
    <glyph glyph-name="periodcentered" unicode="&#xb7;" horiz-adv-x="236" 
d="M117 211q-33 0 -56.5 23.5t-23.5 56.5q0 34 23.5 57t56.5 23t56.5 -23t23.5 -57q0 -33 -23.5 -56.5t-56.5 -23.5z" />
    <glyph glyph-name="cedilla" unicode="&#xb8;" horiz-adv-x="470" 
d="M242 -35l88 -52l-122 -135l-67 53z" />
    <glyph glyph-name="onesuperior" unicode="&#xb9;" horiz-adv-x="235" 
d="M94 628h-76v81h167v-395h-91v314z" />
    <glyph glyph-name="ordmasculine" unicode="&#xba;" horiz-adv-x="574" 
d="M276 343q-41 0 -76.5 14t-61.5 39.5t-41 60t-15 75.5q0 39 15 74t41.5 60.5t62.5 40.5t78 15t78 -14.5t63 -39.5t42 -60t15 -75q0 -38 -14.5 -72.5t-41 -60.5t-63.5 -41.5t-82 -15.5zM90 296h381v-96h-381v96zM280 433q41 0 67 29.5t26 69.5q0 21 -7.5 39t-20 31.5
t-30 21.5t-37.5 8q-42 0 -67.5 -29.5t-25.5 -70.5q0 -21 7.5 -39t20.5 -31.5t30 -21t37 -7.5z" />
    <glyph glyph-name="guillemotright" unicode="&#xbb;" horiz-adv-x="440" 
d="M314 239l-114 156l71 45l143 -201l-144 -211l-69 48zM137 239l-114 151l71 45l141 -196l-141 -207l-72 47z" />
    <glyph glyph-name="onequarter" unicode="&#xbc;" horiz-adv-x="793" 
d="M413 141l152 254h110v-249h58v-76h-58v-70h-86v70h-176v71zM527 734l63 -32l-399 -731l-62 34zM133 628h-78v81h167v-395h-89v314zM589 145v152l-88 -152h88z" />
    <glyph glyph-name="onehalf" unicode="&#xbd;" horiz-adv-x="826" 
d="M462 44l107 100l41 38.5t27.5 30t15.5 26t5 26.5q0 25 -15 41.5t-44 16.5q-34 0 -46.5 -24t-10.5 -57h-87q-2 74 37.5 116t109.5 42q37 0 64.5 -11t45.5 -29.5t27 -42t9 -48.5q0 -27 -10 -51.5t-28 -47t-43.5 -44.5t-56.5 -45h145v-81h-293v44zM527 734l63 -32l-399 -731
l-62 34zM133 628h-78v81h167v-395h-89v314z" />
    <glyph glyph-name="threequarters" unicode="&#xbe;" horiz-adv-x="890" 
d="M513 141l152 254h109v-249h58v-76h-58v-70h-86v70h-175v71zM625 734l62 -32l-398 -731l-62 34zM142 438q0 -61 57 -61q27 0 41 15t14 37q0 23 -15 39.5t-54 16.5h-22v63h19q34 0 48 14.5t14 35.5q0 20 -13 32.5t-34 12.5q-50 0 -48 -55h-83q1 57 35.5 92.5t98.5 35.5
q63 0 98 -33.5t35 -81.5q0 -53 -48 -80q27 -9 43.5 -34.5t16.5 -54.5q0 -24 -9.5 -47t-28 -40.5t-46 -28.5t-63.5 -11q-63 0 -101.5 36.5t-40.5 96.5h86zM689 145v152l-88 -152h88z" />
    <glyph glyph-name="questiondown" unicode="&#xbf;" horiz-adv-x="538" 
d="M278 567q-32 0 -54.5 22.5t-22.5 54.5t22.5 54.5t54.5 22.5t54.5 -22.5t22.5 -54.5t-22.5 -54.5t-54.5 -22.5zM491 209q1 -46 -14 -86t-43.5 -70t-69 -47t-89.5 -17q-51 0 -91.5 16.5t-69 44.5t-44 66t-15.5 82q0 39 12.5 72.5t35 59t53 42.5t66.5 23v109h115v-193h-50
q-27 0 -48 -8.5t-36 -23.5t-22.5 -34.5t-7.5 -41.5q0 -23 8.5 -42.5t22.5 -34.5t33.5 -23.5t42.5 -8.5q22 0 42 8.5t34.5 24t22.5 36.5t7 46h105z" />
    <glyph glyph-name="Agrave" unicode="&#xc0;" horiz-adv-x="701" 
d="M287 709h122l284 -709h-136l-62 165h-294l-61 -165h-131zM455 272l-62 166q-5 13 -12.5 35l-15.5 44l-18 53l-17 -53l-15.5 -43.5l-12.5 -35.5l-62 -166h215zM301 921l144 -120l-56 -56l-176 102z" />
    <glyph glyph-name="Aacute" unicode="&#xc1;" horiz-adv-x="701" 
d="M287 709h122l284 -709h-136l-62 165h-294l-61 -165h-131zM455 272l-62 166q-5 13 -12.5 35l-15.5 44l-18 53l-17 -53l-15.5 -43.5l-12.5 -35.5l-62 -166h215zM263 800l142 120l88 -74l-175 -103z" />
    <glyph glyph-name="Acircumflex" unicode="&#xc2;" horiz-adv-x="701" 
d="M287 709h122l284 -709h-136l-62 165h-294l-61 -165h-131zM455 272l-62 166q-5 13 -12.5 35l-15.5 44l-18 53l-17 -53l-15.5 -43.5l-12.5 -35.5l-62 -166h215zM179 814l172 91l172 -89l-43 -70l-129 61l-130 -61z" />
    <glyph glyph-name="Atilde" unicode="&#xc3;" horiz-adv-x="701" 
d="M287 709h122l284 -709h-136l-62 165h-294l-61 -165h-131zM455 272l-62 166q-5 13 -12.5 35l-15.5 44l-18 53l-17 -53l-15.5 -43.5l-12.5 -35.5l-62 -166h215zM152 765q0 57 31 94.5t85 37.5q25 0 44.5 -8t37.5 -18t34.5 -18t35.5 -8q18 0 29 12.5t11 34.5h84
q0 -60 -33 -96.5t-87 -36.5q-24 0 -44.5 8.5t-39 18l-35 18t-32.5 8.5q-17 0 -28 -13.5t-11 -33.5h-82z" />
    <glyph glyph-name="Adieresis" unicode="&#xc4;" horiz-adv-x="701" 
d="M287 709h122l284 -709h-136l-62 165h-294l-61 -165h-131zM455 272l-62 166q-5 13 -12.5 35l-15.5 44l-18 53l-17 -53l-15.5 -43.5l-12.5 -35.5l-62 -166h215zM449 757q-29 0 -49.5 20.5t-20.5 49.5t20.5 49t49.5 20t49 -20t20 -49t-20 -49.5t-49 -20.5zM248 757
q-29 0 -49 20.5t-20 49.5t20 49t49 20t49.5 -20t20.5 -49t-20.5 -49.5t-49.5 -20.5z" />
    <glyph glyph-name="Aring" unicode="&#xc5;" horiz-adv-x="701" 
d="M279 688q-19 14 -30 35.5t-11 47.5q0 22 8.5 42t23.5 34t35 22.5t43 8.5t43 -8.5t35 -22.5t23.5 -34t8.5 -42q0 -26 -11 -47.5t-30 -36.5l276 -687h-136l-62 165h-294l-61 -165h-131zM348 723q20 0 33.5 14t13.5 34t-13.5 33.5t-33.5 13.5t-33.5 -13.5t-13.5 -33.5
t13.5 -34t33.5 -14zM455 272l-62 166q-5 13 -12.5 35l-15.5 44l-18 53l-17 -53l-15.5 -43.5l-12.5 -35.5l-62 -166h215z" />
    <glyph glyph-name="AE" unicode="&#xc6;" horiz-adv-x="926" 
d="M312 709h385l37 -113h-253l55 -176h244l35 -111h-243l62 -196h255l37 -113h-389l-49 162h-285l-66 -162h-132zM456 269l-52 169l-15 49l-12.5 42t-10.5 37l-25 -65.5l-25 -62.5l-69 -169h209z" />
    <glyph glyph-name="Ccedilla" unicode="&#xc7;" horiz-adv-x="645" 
d="M596 31q-39 -20 -90 -31t-107 -11q-80 0 -145.5 28t-112.5 77t-72.5 115t-25.5 141q0 81 27 148.5t75 116.5t114.5 76.5t145.5 27.5q105 0 187 -38v-134q-35 26 -84.5 42.5t-102.5 16.5q-49 0 -91.5 -18t-73.5 -51t-49 -79.5t-18 -104.5q0 -52 16.5 -97.5t47.5 -79.5
t75.5 -53.5t99.5 -19.5q56 0 102.5 14.5t81.5 40.5v-127v0zM338 -35l88 -52l-122 -135l-67 53z" />
    <glyph glyph-name="Egrave" unicode="&#xc8;" horiz-adv-x="544" 
d="M82 709h387v-113h-263v-176h255v-111h-255v-196h264v-113h-388v709zM218 921l144 -120l-56 -56l-176 102z" />
    <glyph glyph-name="Eacute" unicode="&#xc9;" horiz-adv-x="544" 
d="M82 709h387v-113h-263v-176h255v-111h-255v-196h264v-113h-388v709zM214 800l142 120l88 -74l-175 -103z" />
    <glyph glyph-name="Ecircumflex" unicode="&#xca;" horiz-adv-x="544" 
d="M82 709h387v-113h-263v-176h255v-111h-255v-196h264v-113h-388v709zM113 814l172 91l172 -89l-43 -70l-129 61l-130 -61z" />
    <glyph glyph-name="Edieresis" unicode="&#xcb;" horiz-adv-x="544" 
d="M82 709h387v-113h-263v-176h255v-111h-255v-196h264v-113h-388v709zM385 757q-29 0 -49.5 20.5t-20.5 49.5t20.5 49t49.5 20t49 -20t20 -49t-20 -49.5t-49 -20.5zM184 757q-29 0 -49 20.5t-20 49.5t20 49t49 20t49.5 -20t20.5 -49t-20.5 -49.5t-49.5 -20.5z" />
    <glyph glyph-name="Igrave" unicode="&#xcc;" horiz-adv-x="288" 
d="M82 709h124v-709h-124v709zM81 921l144 -120l-56 -56l-176 102z" />
    <glyph glyph-name="Iacute" unicode="&#xcd;" horiz-adv-x="288" 
d="M82 709h124v-709h-124v709zM65 800l142 120l88 -74l-175 -103z" />
    <glyph glyph-name="Icircumflex" unicode="&#xce;" horiz-adv-x="288" 
d="M82 709h124v-709h-124v709zM-24 814l172 91l172 -89l-43 -70l-129 61l-130 -61z" />
    <glyph glyph-name="Idieresis" unicode="&#xcf;" horiz-adv-x="288" 
d="M82 709h124v-709h-124v709zM246 757q-29 0 -49.5 20.5t-20.5 49.5t20.5 49t49.5 20t49 -20t20 -49t-20 -49.5t-49 -20.5zM45 757q-29 0 -49 20.5t-20 49.5t20 49t49 20t49.5 -20t20.5 -49t-20.5 -49.5t-49.5 -20.5z" />
    <glyph glyph-name="Eth" unicode="&#xd0;" horiz-adv-x="693" 
d="M93 312h-64v100h64v297h186q177 0 272 -95q48 -48 73 -110.5t25 -143.5t-26 -146.5t-75 -114.5q-99 -99 -287 -99h-168v312zM267 104q125 0 186 61q31 31 48.5 78t17.5 112q0 59 -17 107t-49 80q-35 35 -81 49.5t-105 14.5h-52v-194h73v-100h-73v-208h52z" />
    <glyph glyph-name="Ntilde" unicode="&#xd1;" horiz-adv-x="779" 
d="M82 709h114l293 -392l52 -72.5t46 -69.5q-2 61 -3.5 117.5t-1.5 116.5v300h114v-709h-112l-309 412l-43 60l-41 60q2 -50 3 -98t4 -98v-336h-116v709zM199 765q0 57 31 94.5t85 37.5q25 0 44.5 -8t37.5 -18t34.5 -18t35.5 -8q18 0 29 12.5t11 34.5h84q0 -60 -33 -96.5
t-87 -36.5q-24 0 -44.5 8.5t-39 18l-35 18t-32.5 8.5q-17 0 -28 -13.5t-11 -33.5h-82z" />
    <glyph glyph-name="Ograve" unicode="&#xd2;" horiz-adv-x="826" 
d="M412 -16q-78 0 -145.5 28.5t-118 78.5t-79.5 117.5t-29 144.5q0 76 29.5 143.5t80.5 118t119 80t145 29.5q78 0 146 -28.5t118.5 -78.5t79.5 -117.5t29 -145.5q0 -77 -30 -144t-81 -117.5t-119 -79.5t-145 -29zM413 102q53 0 98 19.5t78 53.5t51.5 80t18.5 99t-18 99.5
t-51 81t-78 54t-99 19.5q-53 0 -98 -20t-78 -54.5t-51.5 -80.5t-18.5 -98t19 -98t52 -80.5t78 -54.5t97 -20zM369 921l144 -120l-56 -56l-176 102z" />
    <glyph glyph-name="Oacute" unicode="&#xd3;" horiz-adv-x="826" 
d="M412 -16q-78 0 -145.5 28.5t-118 78.5t-79.5 117.5t-29 144.5q0 76 29.5 143.5t80.5 118t119 80t145 29.5q78 0 146 -28.5t118.5 -78.5t79.5 -117.5t29 -145.5q0 -77 -30 -144t-81 -117.5t-119 -79.5t-145 -29zM413 102q53 0 98 19.5t78 53.5t51.5 80t18.5 99t-18 99.5
t-51 81t-78 54t-99 19.5q-53 0 -98 -20t-78 -54.5t-51.5 -80.5t-18.5 -98t19 -98t52 -80.5t78 -54.5t97 -20zM312 800l142 120l88 -74l-175 -103z" />
    <glyph glyph-name="Ocircumflex" unicode="&#xd4;" horiz-adv-x="826" 
d="M412 -16q-78 0 -145.5 28.5t-118 78.5t-79.5 117.5t-29 144.5q0 76 29.5 143.5t80.5 118t119 80t145 29.5q78 0 146 -28.5t118.5 -78.5t79.5 -117.5t29 -145.5q0 -77 -30 -144t-81 -117.5t-119 -79.5t-145 -29zM413 102q53 0 98 19.5t78 53.5t51.5 80t18.5 99t-18 99.5
t-51 81t-78 54t-99 19.5q-53 0 -98 -20t-78 -54.5t-51.5 -80.5t-18.5 -98t19 -98t52 -80.5t78 -54.5t97 -20zM245 814l172 91l172 -89l-43 -70l-129 61l-130 -61z" />
    <glyph glyph-name="Otilde" unicode="&#xd5;" horiz-adv-x="826" 
d="M412 -16q-78 0 -145.5 28.5t-118 78.5t-79.5 117.5t-29 144.5q0 76 29.5 143.5t80.5 118t119 80t145 29.5q78 0 146 -28.5t118.5 -78.5t79.5 -117.5t29 -145.5q0 -77 -30 -144t-81 -117.5t-119 -79.5t-145 -29zM413 102q53 0 98 19.5t78 53.5t51.5 80t18.5 99t-18 99.5
t-51 81t-78 54t-99 19.5q-53 0 -98 -20t-78 -54.5t-51.5 -80.5t-18.5 -98t19 -98t52 -80.5t78 -54.5t97 -20zM214 765q0 57 31 94.5t85 37.5q25 0 44.5 -8t37.5 -18t34.5 -18t35.5 -8q18 0 29 12.5t11 34.5h84q0 -60 -33 -96.5t-87 -36.5q-24 0 -44.5 8.5t-39 18l-35 18
t-32.5 8.5q-17 0 -28 -13.5t-11 -33.5h-82z" />
    <glyph glyph-name="Odieresis" unicode="&#xd6;" horiz-adv-x="826" 
d="M412 -16q-78 0 -145.5 28.5t-118 78.5t-79.5 117.5t-29 144.5q0 76 29.5 143.5t80.5 118t119 80t145 29.5q78 0 146 -28.5t118.5 -78.5t79.5 -117.5t29 -145.5q0 -77 -30 -144t-81 -117.5t-119 -79.5t-145 -29zM413 102q53 0 98 19.5t78 53.5t51.5 80t18.5 99t-18 99.5
t-51 81t-78 54t-99 19.5q-53 0 -98 -20t-78 -54.5t-51.5 -80.5t-18.5 -98t19 -98t52 -80.5t78 -54.5t97 -20zM514 757q-29 0 -49.5 20.5t-20.5 49.5t20.5 49t49.5 20t49 -20t20 -49t-20 -49.5t-49 -20.5zM313 757q-29 0 -49 20.5t-20 49.5t20 49t49 20t49.5 -20t20.5 -49
t-20.5 -49.5t-49.5 -20.5z" />
    <glyph glyph-name="multiply" unicode="&#xd7;" horiz-adv-x="675" 
d="M68 100l192 191l-192 192l73 72l192 -191l192 191l74 -72l-191 -192l191 -191l-74 -75l-192 191l-192 -191z" />
    <glyph glyph-name="Oslash" unicode="&#xd8;" horiz-adv-x="831" 
d="M123 120q-39 48 -60.5 106.5t-21.5 126.5q0 76 29.5 143.5t80.5 118t119 80t145 29.5q66 0 125.5 -21t107.5 -59l85 85l50 -49l-84 -84q42 -48 65.5 -109.5t23.5 -132.5q0 -77 -30 -144t-81 -117.5t-119 -79.5t-145 -29q-69 0 -130 22.5t-112 63.5l-91 -91l-49 49z
M564 561q-30 23 -67.5 36.5t-82.5 13.5q-54 0 -99.5 -20.5t-78.5 -55.5t-51.5 -81.5t-18.5 -98.5q0 -40 11.5 -77.5t33.5 -68.5zM257 156q32 -26 71.5 -41.5t85.5 -15.5q54 0 99.5 19.5t78.5 54t51.5 81t18.5 100.5q0 91 -49 157z" />
    <glyph glyph-name="Ugrave" unicode="&#xd9;" horiz-adv-x="713" 
d="M80 709h124v-435q0 -50 9 -82t33 -56q19 -19 46.5 -30t65.5 -11q36 0 63.5 10.5t46.5 28.5q21 21 32.5 52t11.5 80v443h121v-431q0 -75 -19.5 -128.5t-56.5 -91.5q-38 -38 -90.5 -54.5t-111.5 -16.5q-63 0 -115.5 18t-90.5 56q-32 31 -50.5 79.5t-18.5 123.5v445z
M269 921l144 -120l-56 -56l-176 102z" />
    <glyph glyph-name="Uacute" unicode="&#xda;" horiz-adv-x="713" 
d="M80 709h124v-435q0 -50 9 -82t33 -56q19 -19 46.5 -30t65.5 -11q36 0 63.5 10.5t46.5 28.5q21 21 32.5 52t11.5 80v443h121v-431q0 -75 -19.5 -128.5t-56.5 -91.5q-38 -38 -90.5 -54.5t-111.5 -16.5q-63 0 -115.5 18t-90.5 56q-32 31 -50.5 79.5t-18.5 123.5v445z
M258 800l142 120l88 -74l-175 -103z" />
    <glyph glyph-name="Ucircumflex" unicode="&#xdb;" horiz-adv-x="713" 
d="M80 709h124v-435q0 -50 9 -82t33 -56q19 -19 46.5 -30t65.5 -11q36 0 63.5 10.5t46.5 28.5q21 21 32.5 52t11.5 80v443h121v-431q0 -75 -19.5 -128.5t-56.5 -91.5q-38 -38 -90.5 -54.5t-111.5 -16.5q-63 0 -115.5 18t-90.5 56q-32 31 -50.5 79.5t-18.5 123.5v445z
M189 814l172 91l172 -89l-43 -70l-129 61l-130 -61z" />
    <glyph glyph-name="Udieresis" unicode="&#xdc;" horiz-adv-x="713" 
d="M80 709h124v-435q0 -50 9 -82t33 -56q19 -19 46.5 -30t65.5 -11q36 0 63.5 10.5t46.5 28.5q21 21 32.5 52t11.5 80v443h121v-431q0 -75 -19.5 -128.5t-56.5 -91.5q-38 -38 -90.5 -54.5t-111.5 -16.5q-63 0 -115.5 18t-90.5 56q-32 31 -50.5 79.5t-18.5 123.5v445z
M458 757q-29 0 -49.5 20.5t-20.5 49.5t20.5 49t49.5 20t49 -20t20 -49t-20 -49.5t-49 -20.5zM257 757q-29 0 -49 20.5t-20 49.5t20 49t49 20t49.5 -20t20.5 -49t-20.5 -49.5t-49.5 -20.5z" />
    <glyph glyph-name="Yacute" unicode="&#xdd;" horiz-adv-x="604" 
d="M239 317l-230 392h142l154 -288l154 288h137l-233 -388v-321h-124v317zM230 800l142 120l88 -74l-175 -103z" />
    <glyph glyph-name="Thorn" unicode="&#xde;" horiz-adv-x="544" 
d="M85 709h123v-138h57q66 0 116 -13.5t85 -48.5q26 -26 40 -64t14 -84q0 -45 -15 -83t-43 -66q-35 -35 -85.5 -52t-113.5 -17h-55v-143h-123v709zM264 249q67 0 100 33q14 14 21 33.5t7 40.5q0 23 -6 43.5t-19 33.5q-16 16 -38.5 24t-60.5 8h-60v-216h56z" />
    <glyph glyph-name="germandbls" unicode="&#xdf;" horiz-adv-x="550" 
d="M63 555q0 41 11 77t34.5 63t60.5 42.5t89 15.5q43 0 77.5 -12.5t57.5 -34.5t35.5 -52t12.5 -65q0 -38 -11.5 -62.5t-25 -44.5t-24.5 -39t-11 -44q0 -17 11 -30.5t27 -27t35.5 -28t35.5 -34t27 -45.5t11 -61q0 -42 -14 -75t-38 -56.5t-56.5 -35.5t-69.5 -12q-32 0 -59 7.5
t-49 21.5l39 91q26 -23 64 -23q25 0 45.5 18.5t20.5 53.5q0 24 -11 40.5t-27 30t-35 27t-35 30.5t-27 40t-11 57q0 36 11 60t24.5 44t25 40.5t11.5 49.5q0 30 -19 52.5t-54 22.5q-38 0 -56.5 -26t-18.5 -65v-566h-114v555z" />
    <glyph glyph-name="agrave" unicode="&#xe0;" 
d="M401 54q-25 -30 -62.5 -48t-86.5 -18q-47 0 -86 17t-66.5 47t-43 71.5t-15.5 90.5q0 51 16 94t44.5 74.5t68.5 49.5t88 18q46 0 83.5 -18.5t59.5 -49.5v56h113v-438h-113v54zM283 81q28 0 51 10.5t39 28.5t24.5 42.5t8.5 52.5q0 59 -35 97t-91 38q-26 0 -48 -10
t-38.5 -27.5t-26 -42t-9.5 -52.5t9.5 -53t26 -43.5t39.5 -29.5t50 -11zM225 705l135 -150l-65 -46l-159 127z" />
    <glyph glyph-name="aacute" unicode="&#xe1;" 
d="M401 54q-25 -30 -62.5 -48t-86.5 -18q-47 0 -86 17t-66.5 47t-43 71.5t-15.5 90.5q0 51 16 94t44.5 74.5t68.5 49.5t88 18q46 0 83.5 -18.5t59.5 -49.5v56h113v-438h-113v54zM283 81q28 0 51 10.5t39 28.5t24.5 42.5t8.5 52.5q0 59 -35 97t-91 38q-26 0 -48 -10
t-38.5 -27.5t-26 -42t-9.5 -52.5t9.5 -53t26 -43.5t39.5 -29.5t50 -11zM362 705l90 -68l-159 -128l-65 47z" />
    <glyph glyph-name="acircumflex" unicode="&#xe2;" 
d="M401 54q-25 -30 -62.5 -48t-86.5 -18q-47 0 -86 17t-66.5 47t-43 71.5t-15.5 90.5q0 51 16 94t44.5 74.5t68.5 49.5t88 18q46 0 83.5 -18.5t59.5 -49.5v56h113v-438h-113v54zM283 81q28 0 51 10.5t39 28.5t24.5 42.5t8.5 52.5q0 59 -35 97t-91 38q-26 0 -48 -10
t-38.5 -27.5t-26 -42t-9.5 -52.5t9.5 -53t26 -43.5t39.5 -29.5t50 -11zM128 576l169 135l159 -132l-54 -65l-109 85l-109 -86z" />
    <glyph glyph-name="atilde" unicode="&#xe3;" 
d="M401 54q-25 -30 -62.5 -48t-86.5 -18q-47 0 -86 17t-66.5 47t-43 71.5t-15.5 90.5q0 51 16 94t44.5 74.5t68.5 49.5t88 18q46 0 83.5 -18.5t59.5 -49.5v56h113v-438h-113v54zM283 81q28 0 51 10.5t39 28.5t24.5 42.5t8.5 52.5q0 59 -35 97t-91 38q-26 0 -48 -10
t-38.5 -27.5t-26 -42t-9.5 -52.5t9.5 -53t26 -43.5t39.5 -29.5t50 -11zM97 538q0 57 31 94.5t85 37.5q25 0 44.5 -8t37 -18t34.5 -18t35 -8q19 0 30 12.5t11 34.5h84q0 -60 -33 -96.5t-87 -36.5q-24 0 -44.5 8.5t-39 18l-35 18t-32.5 8.5q-17 0 -28 -13.5t-11 -33.5h-82v0z
" />
    <glyph glyph-name="adieresis" unicode="&#xe4;" 
d="M401 54q-25 -30 -62.5 -48t-86.5 -18q-47 0 -86 17t-66.5 47t-43 71.5t-15.5 90.5q0 51 16 94t44.5 74.5t68.5 49.5t88 18q46 0 83.5 -18.5t59.5 -49.5v56h113v-438h-113v54zM283 81q28 0 51 10.5t39 28.5t24.5 42.5t8.5 52.5q0 59 -35 97t-91 38q-26 0 -48 -10
t-38.5 -27.5t-26 -42t-9.5 -52.5t9.5 -53t26 -43.5t39.5 -29.5t50 -11zM399 541q-29 0 -49.5 20.5t-20.5 49.5t20.5 49t49.5 20t49 -20t20 -49t-20 -49.5t-49 -20.5zM198 541q-29 0 -49 20.5t-20 49.5t20 49t49 20t49.5 -20t20.5 -49t-20.5 -49.5t-49.5 -20.5z" />
    <glyph glyph-name="aring" unicode="&#xe5;" 
d="M401 54q-25 -30 -62.5 -48t-86.5 -18q-47 0 -86 17t-66.5 47t-43 71.5t-15.5 90.5q0 51 16 94t44.5 74.5t68.5 49.5t88 18q46 0 83.5 -18.5t59.5 -49.5v56h113v-438h-113v54zM283 81q28 0 51 10.5t39 28.5t24.5 42.5t8.5 52.5q0 59 -35 97t-91 38q-26 0 -48 -10
t-38.5 -27.5t-26 -42t-9.5 -52.5t9.5 -53t26 -43.5t39.5 -29.5t50 -11zM298 507q-23 0 -43 8t-35 22.5t-23.5 34t-8.5 42.5t8.5 42.5t23.5 34t35 23t43 8.5t43 -8.5t35 -23t23.5 -34t8.5 -42.5t-9 -42.5t-24 -33.5t-35 -22.5t-42 -8.5zM298 567q20 0 33.5 13.5t13.5 33.5
t-13.5 34t-33.5 14t-33.5 -14t-13.5 -34t13.5 -33.5t33.5 -13.5z" />
    <glyph glyph-name="ae" unicode="&#xe6;" horiz-adv-x="811" 
d="M49 371q32 33 79 56.5t111 23.5q53 0 93 -19t66 -48q29 32 68.5 49.5t87.5 17.5t88 -15.5t68.5 -44.5t44.5 -71t16 -94q0 -8 -0.5 -17.5t-0.5 -20.5h-325q3 -48 36.5 -80t85.5 -32q37 0 67 16t53 45l75 -53q-38 -48 -87.5 -72.5t-119.5 -24.5q-50 0 -93.5 20t-73.5 55
q-26 -32 -68 -53.5t-94 -21.5q-48 0 -84 11t-59 30.5t-34.5 45.5t-11.5 56q0 28 10 52.5t33 43t59 29t89 10.5h117q-2 19 -10 36.5t-22 31.5t-35 22.5t-48 8.5q-34 0 -61.5 -14t-46.5 -37zM656 266q0 19 -7.5 37.5t-21 32t-32.5 22t-43 8.5q-23 0 -41.5 -8t-32 -22t-22 -32
t-10.5 -38h210zM227 187q-42 0 -61.5 -15t-19.5 -40q0 -24 22 -41t61 -17q49 0 82.5 31t33.5 82h-118z" />
    <glyph glyph-name="ccedilla" unicode="&#xe7;" horiz-adv-x="441" 
d="M398 13q-23 -10 -56.5 -17.5t-69.5 -7.5q-57 0 -100 19t-72 51t-44 73t-15 85q0 45 16.5 87.5t47 74.5t75 51.5t100.5 19.5q31 0 62.5 -6t55.5 -17v-107q-20 12 -49 20.5t-58 8.5q-28 0 -52 -9.5t-41 -26.5t-27 -40.5t-10 -51.5q0 -27 9 -50.5t26 -41.5t41 -28.5
t54 -10.5q29 0 57 8t50 24v-108v0zM230 -35l88 -52l-122 -135l-67 53z" />
    <glyph glyph-name="egrave" unicode="&#xe8;" horiz-adv-x="520" 
d="M471 85q-38 -49 -88 -73.5t-119 -24.5q-46 0 -86.5 15.5t-71 44.5t-48 72t-17.5 98q0 52 17 95t47 74t70.5 48t87.5 17q48 0 87.5 -15.5t68.5 -44.5t45 -71t16 -94q0 -9 -0.5 -18t-0.5 -19h-325q1 -24 10.5 -44.5t25.5 -36t37.5 -24t47.5 -8.5q38 0 68 16.5t53 45.5z
M364 265q0 20 -7 38t-20.5 32t-32.5 22.5t-43 8.5q-46 0 -74 -30t-32 -71h209zM204 705l135 -150l-65 -46l-159 127z" />
    <glyph glyph-name="eacute" unicode="&#xe9;" horiz-adv-x="520" 
d="M471 85q-38 -49 -88 -73.5t-119 -24.5q-46 0 -86.5 15.5t-71 44.5t-48 72t-17.5 98q0 52 17 95t47 74t70.5 48t87.5 17q48 0 87.5 -15.5t68.5 -44.5t45 -71t16 -94q0 -9 -0.5 -18t-0.5 -19h-325q1 -24 10.5 -44.5t25.5 -36t37.5 -24t47.5 -8.5q38 0 68 16.5t53 45.5z
M364 265q0 20 -7 38t-20.5 32t-32.5 22.5t-43 8.5q-46 0 -74 -30t-32 -71h209zM320 705l90 -68l-159 -128l-65 47z" />
    <glyph glyph-name="ecircumflex" unicode="&#xea;" horiz-adv-x="520" 
d="M471 85q-38 -49 -88 -73.5t-119 -24.5q-46 0 -86.5 15.5t-71 44.5t-48 72t-17.5 98q0 52 17 95t47 74t70.5 48t87.5 17q48 0 87.5 -15.5t68.5 -44.5t45 -71t16 -94q0 -9 -0.5 -18t-0.5 -19h-325q1 -24 10.5 -44.5t25.5 -36t37.5 -24t47.5 -8.5q38 0 68 16.5t53 45.5z
M364 265q0 20 -7 38t-20.5 32t-32.5 22.5t-43 8.5q-46 0 -74 -30t-32 -71h209zM97 576l169 135l159 -132l-54 -65l-109 85l-109 -86z" />
    <glyph glyph-name="edieresis" unicode="&#xeb;" horiz-adv-x="520" 
d="M471 85q-38 -49 -88 -73.5t-119 -24.5q-46 0 -86.5 15.5t-71 44.5t-48 72t-17.5 98q0 52 17 95t47 74t70.5 48t87.5 17q48 0 87.5 -15.5t68.5 -44.5t45 -71t16 -94q0 -9 -0.5 -18t-0.5 -19h-325q1 -24 10.5 -44.5t25.5 -36t37.5 -24t47.5 -8.5q38 0 68 16.5t53 45.5z
M364 265q0 20 -7 38t-20.5 32t-32.5 22.5t-43 8.5q-46 0 -74 -30t-32 -71h209zM363 541q-29 0 -49.5 20.5t-20.5 49.5t20.5 49t49.5 20t49 -20t20 -49t-20 -49.5t-49 -20.5zM162 541q-29 0 -49 20.5t-20 49.5t20 49t49 20t49.5 -20t20.5 -49t-20.5 -49.5t-49.5 -20.5z" />
    <glyph glyph-name="igrave" unicode="&#xec;" horiz-adv-x="248" 
d="M67 438h114v-438h-114v438zM77 705l135 -150l-65 -46l-159 127z" />
    <glyph glyph-name="iacute" unicode="&#xed;" horiz-adv-x="248" 
d="M67 438h114v-438h-114v438zM179 705l90 -68l-159 -128l-65 47z" />
    <glyph glyph-name="icircumflex" unicode="&#xee;" horiz-adv-x="248" 
d="M67 438h114v-438h-114v438zM-41 576l169 135l159 -132l-54 -65l-109 85l-109 -86z" />
    <glyph glyph-name="idieresis" unicode="&#xef;" horiz-adv-x="248" 
d="M67 438h114v-438h-114v438zM227 541q-29 0 -49.5 20.5t-20.5 49.5t20.5 49t49.5 20t49 -20t20 -49t-20 -49.5t-49 -20.5zM26 541q-29 0 -49 20.5t-20 49.5t20 49t49 20t49.5 -20t20.5 -49t-20.5 -49.5t-49.5 -20.5z" />
    <glyph glyph-name="eth" unicode="&#xf0;" horiz-adv-x="574" 
d="M153 578l68 42q-26 14 -56 24t-65 16l15 98q116 -20 209 -77l94 58l47 -79l-64 -38q64 -63 97.5 -148t33.5 -188q0 -67 -19 -122t-53.5 -94t-82.5 -60t-107 -21q-51 0 -94 16.5t-74.5 47t-49 72.5t-17.5 93q0 47 16.5 89t45.5 73.5t70 50t89 18.5t84 -15t60 -43
q-10 50 -34.5 95.5t-61.5 77.5l-105 -64zM278 89q54 0 88 37t34 95q0 59 -34.5 94.5t-88.5 35.5q-26 0 -48.5 -10.5t-39 -28t-26 -41t-9.5 -50.5q0 -28 9.5 -52t26.5 -42t39.5 -28t48.5 -10z" />
    <glyph glyph-name="ntilde" unicode="&#xf1;" horiz-adv-x="538" 
d="M66 438h112v-58q18 24 51.5 45.5t88.5 21.5q41 0 69 -12t47 -30q22 -22 31.5 -53t9.5 -76v-276h-114v252q0 43 -18 70.5t-62 27.5q-17 0 -35 -6.5t-33 -20t-24.5 -34t-9.5 -49.5v-240h-113v438zM72 538q0 57 31 94.5t85 37.5q25 0 44.5 -8t37 -18t34.5 -18t35 -8
q19 0 30 12.5t11 34.5h84q0 -60 -33 -96.5t-87 -36.5q-24 0 -44.5 8.5t-39 18l-35 18t-32.5 8.5q-17 0 -28 -13.5t-11 -33.5h-82v0z" />
    <glyph glyph-name="ograve" unicode="&#xf2;" horiz-adv-x="561" 
d="M276 -13q-50 0 -93 17t-74.5 48t-49.5 73.5t-18 92.5q0 48 18 90t50 73.5t76 50t96 18.5q51 0 95 -17.5t76 -48t50 -73t18 -92.5q0 -46 -17.5 -88t-49.5 -74t-77 -51t-100 -19zM281 88q27 0 49.5 10.5t39 28.5t25.5 41.5t9 49.5q0 28 -9.5 52t-26.5 41.5t-40 27.5t-49 10
q-27 0 -49.5 -10.5t-39 -28t-25.5 -41t-9 -50.5q0 -28 10 -52t27 -41.5t39.5 -27.5t48.5 -10zM224 705l135 -150l-65 -46l-159 127z" />
    <glyph glyph-name="oacute" unicode="&#xf3;" horiz-adv-x="561" 
d="M276 -13q-50 0 -93 17t-74.5 48t-49.5 73.5t-18 92.5q0 48 18 90t50 73.5t76 50t96 18.5q51 0 95 -17.5t76 -48t50 -73t18 -92.5q0 -46 -17.5 -88t-49.5 -74t-77 -51t-100 -19zM281 88q27 0 49.5 10.5t39 28.5t25.5 41.5t9 49.5q0 28 -9.5 52t-26.5 41.5t-40 27.5t-49 10
q-27 0 -49.5 -10.5t-39 -28t-25.5 -41t-9 -50.5q0 -28 10 -52t27 -41.5t39.5 -27.5t48.5 -10zM343 705l90 -68l-159 -128l-65 47z" />
    <glyph glyph-name="ocircumflex" unicode="&#xf4;" horiz-adv-x="561" 
d="M276 -13q-50 0 -93 17t-74.5 48t-49.5 73.5t-18 92.5q0 48 18 90t50 73.5t76 50t96 18.5q51 0 95 -17.5t76 -48t50 -73t18 -92.5q0 -46 -17.5 -88t-49.5 -74t-77 -51t-100 -19zM281 88q27 0 49.5 10.5t39 28.5t25.5 41.5t9 49.5q0 28 -9.5 52t-26.5 41.5t-40 27.5t-49 10
q-27 0 -49.5 -10.5t-39 -28t-25.5 -41t-9 -50.5q0 -28 10 -52t27 -41.5t39.5 -27.5t48.5 -10zM114 576l169 135l159 -132l-54 -65l-109 85l-109 -86z" />
    <glyph glyph-name="otilde" unicode="&#xf5;" horiz-adv-x="561" 
d="M276 -13q-50 0 -93 17t-74.5 48t-49.5 73.5t-18 92.5q0 48 18 90t50 73.5t76 50t96 18.5q51 0 95 -17.5t76 -48t50 -73t18 -92.5q0 -46 -17.5 -88t-49.5 -74t-77 -51t-100 -19zM281 88q27 0 49.5 10.5t39 28.5t25.5 41.5t9 49.5q0 28 -9.5 52t-26.5 41.5t-40 27.5t-49 10
q-27 0 -49.5 -10.5t-39 -28t-25.5 -41t-9 -50.5q0 -28 10 -52t27 -41.5t39.5 -27.5t48.5 -10zM82 538q0 57 31 94.5t85 37.5q25 0 44.5 -8t37 -18t34.5 -18t35 -8q19 0 30 12.5t11 34.5h84q0 -60 -33 -96.5t-87 -36.5q-24 0 -44.5 8.5t-39 18l-35 18t-32.5 8.5
q-17 0 -28 -13.5t-11 -33.5h-82v0z" />
    <glyph glyph-name="odieresis" unicode="&#xf6;" horiz-adv-x="561" 
d="M276 -13q-50 0 -93 17t-74.5 48t-49.5 73.5t-18 92.5q0 48 18 90t50 73.5t76 50t96 18.5q51 0 95 -17.5t76 -48t50 -73t18 -92.5q0 -46 -17.5 -88t-49.5 -74t-77 -51t-100 -19zM281 88q27 0 49.5 10.5t39 28.5t25.5 41.5t9 49.5q0 28 -9.5 52t-26.5 41.5t-40 27.5t-49 10
q-27 0 -49.5 -10.5t-39 -28t-25.5 -41t-9 -50.5q0 -28 10 -52t27 -41.5t39.5 -27.5t48.5 -10zM379 541q-29 0 -49.5 20.5t-20.5 49.5t20.5 49t49.5 20t49 -20t20 -49t-20 -49.5t-49 -20.5zM178 541q-29 0 -49 20.5t-20 49.5t20 49t49 20t49.5 -20t20.5 -49t-20.5 -49.5
t-49.5 -20.5z" />
    <glyph glyph-name="divide" unicode="&#xf7;" horiz-adv-x="675" 
d="M337 424q-30 0 -51.5 21.5t-21.5 52.5q0 30 21.5 52t51.5 22q31 0 52.5 -22t21.5 -52q0 -31 -21.5 -52.5t-52.5 -21.5zM47 340h581v-105h-581v105zM337 3q-30 0 -51.5 21.5t-21.5 52.5q0 30 21.5 52t51.5 22q31 0 52.5 -22t21.5 -52q0 -31 -21.5 -52.5t-52.5 -21.5z" />
    <glyph glyph-name="oslash" unicode="&#xf8;" horiz-adv-x="563" 
d="M41 19l52 53q-24 29 -37.5 66t-13.5 80q0 48 18 90t50.5 73.5t76.5 50t96 18.5q41 0 77 -11t65 -31l54 55l44 -47l-51 -52q23 -29 36 -65.5t13 -79.5q0 -46 -17.5 -88t-49.5 -74t-77 -51t-100 -19q-79 0 -137 41l-55 -56zM350 334q-30 21 -70 21q-28 0 -51.5 -11
t-40 -29.5t-26 -43t-9.5 -52.5q0 -20 5 -37t13 -32zM215 103q30 -21 68 -21q28 0 51 11t40 29.5t26.5 43t9.5 52.5q0 37 -17 68z" />
    <glyph glyph-name="ugrave" unicode="&#xf9;" horiz-adv-x="540" 
d="M63 438h114v-229q0 -26 3.5 -48.5t14 -39t29 -26.5t48.5 -10t47.5 10.5t27.5 28t13 39t3 43.5v232h114v-229q0 -54 -10.5 -96t-40.5 -72q-29 -29 -69 -41.5t-88 -12.5q-100 0 -157 57q-26 26 -37.5 64.5t-11.5 93.5v236zM211 705l135 -150l-65 -46l-159 127z" />
    <glyph glyph-name="uacute" unicode="&#xfa;" horiz-adv-x="540" 
d="M63 438h114v-229q0 -26 3.5 -48.5t14 -39t29 -26.5t48.5 -10t47.5 10.5t27.5 28t13 39t3 43.5v232h114v-229q0 -54 -10.5 -96t-40.5 -72q-29 -29 -69 -41.5t-88 -12.5q-100 0 -157 57q-26 26 -37.5 64.5t-11.5 93.5v236zM339 705l90 -68l-159 -128l-65 47z" />
    <glyph glyph-name="ucircumflex" unicode="&#xfb;" horiz-adv-x="540" 
d="M63 438h114v-229q0 -26 3.5 -48.5t14 -39t29 -26.5t48.5 -10t47.5 10.5t27.5 28t13 39t3 43.5v232h114v-229q0 -54 -10.5 -96t-40.5 -72q-29 -29 -69 -41.5t-88 -12.5q-100 0 -157 57q-26 26 -37.5 64.5t-11.5 93.5v236zM104 576l169 135l159 -132l-54 -65l-109 85
l-109 -86z" />
    <glyph glyph-name="udieresis" unicode="&#xfc;" horiz-adv-x="540" 
d="M63 438h114v-229q0 -26 3.5 -48.5t14 -39t29 -26.5t48.5 -10t47.5 10.5t27.5 28t13 39t3 43.5v232h114v-229q0 -54 -10.5 -96t-40.5 -72q-29 -29 -69 -41.5t-88 -12.5q-100 0 -157 57q-26 26 -37.5 64.5t-11.5 93.5v236zM369 541q-29 0 -49.5 20.5t-20.5 49.5t20.5 49
t49.5 20t49 -20t20 -49t-20 -49.5t-49 -20.5zM168 541q-29 0 -49 20.5t-20 49.5t20 49t49 20t49.5 -20t20.5 -49t-20.5 -49.5t-49.5 -20.5z" />
    <glyph glyph-name="yacute" unicode="&#xfd;" horiz-adv-x="510" 
d="M202 21l-200 417h132l79 -177l20 -44l16.5 -39.5l14.5 -34.5l22.5 54.5l22.5 54.5l79 186h120l-290 -639h-120zM318 705l90 -68l-159 -128l-65 47z" />
    <glyph glyph-name="thorn" unicode="&#xfe;" horiz-adv-x="583" 
d="M67 749h114v-370q23 33 60.5 51.5t88.5 18.5q46 0 84.5 -17.5t66.5 -48.5t44 -72.5t16 -89.5q0 -46 -15.5 -88t-44 -74t-69 -51t-89.5 -19q-46 0 -82.5 17t-59.5 46v-253h-114v950zM299 82q28 0 50.5 11t38.5 29.5t25 43t9 50.5q0 27 -8.5 51t-24.5 42.5t-39 29.5t-52 11
q-28 0 -50.5 -10.5t-38.5 -29t-24.5 -43t-8.5 -52.5q0 -59 34 -96t89 -37z" />
    <glyph glyph-name="ydieresis" unicode="&#xff;" horiz-adv-x="510" 
d="M202 21l-200 417h132l79 -177l20 -44l16.5 -39.5l14.5 -34.5l22.5 54.5l22.5 54.5l79 186h120l-290 -639h-120zM360 541q-29 0 -49.5 20.5t-20.5 49.5t20.5 49t49.5 20t49 -20t20 -49t-20 -49.5t-49 -20.5zM159 541q-29 0 -49 20.5t-20 49.5t20 49t49 20t49.5 -20
t20.5 -49t-20.5 -49.5t-49.5 -20.5z" />
    <glyph glyph-name="Amacron" unicode="&#x100;" horiz-adv-x="701" 
d="M287 709h122l284 -709h-136l-62 165h-294l-61 -165h-131zM455 272l-62 166q-5 13 -12.5 35l-15.5 44l-18 53l-17 -53l-15.5 -43.5l-12.5 -35.5l-62 -166h215zM208 874h285v-94h-285v94z" />
    <glyph glyph-name="amacron" unicode="&#x101;" 
d="M401 54q-25 -30 -62.5 -48t-86.5 -18q-47 0 -86 17t-66.5 47t-43 71.5t-15.5 90.5q0 51 16 94t44.5 74.5t68.5 49.5t88 18q46 0 83.5 -18.5t59.5 -49.5v56h113v-438h-113v54zM283 81q28 0 51 10.5t39 28.5t24.5 42.5t8.5 52.5q0 59 -35 97t-91 38q-26 0 -48 -10
t-38.5 -27.5t-26 -42t-9.5 -52.5t9.5 -53t26 -43.5t39.5 -29.5t50 -11zM156 650h285v-94h-285v94z" />
    <glyph glyph-name="Abreve" unicode="&#x102;" horiz-adv-x="701" 
d="M287 709h122l284 -709h-136l-62 165h-294l-61 -165h-131zM455 272l-62 166q-5 13 -12.5 35l-15.5 44l-18 53l-17 -53l-15.5 -43.5l-12.5 -35.5l-62 -166h215zM283 930q0 -38 15 -56.5t50 -18.5q71 0 71 75h92q0 -47 -12.5 -80t-34 -53.5t-51.5 -30t-65 -9.5
q-157 0 -157 173h92z" />
    <glyph glyph-name="abreve" unicode="&#x103;" 
d="M401 54q-25 -30 -62.5 -48t-86.5 -18q-47 0 -86 17t-66.5 47t-43 71.5t-15.5 90.5q0 51 16 94t44.5 74.5t68.5 49.5t88 18q46 0 83.5 -18.5t59.5 -49.5v56h113v-438h-113v54zM283 81q28 0 51 10.5t39 28.5t24.5 42.5t8.5 52.5q0 59 -35 97t-91 38q-26 0 -48 -10
t-38.5 -27.5t-26 -42t-9.5 -52.5t9.5 -53t26 -43.5t39.5 -29.5t50 -11zM227 696q0 -38 15 -56.5t50 -18.5q71 0 71 75h92q0 -47 -12.5 -80t-34 -53.5t-51.5 -30t-65 -9.5q-157 0 -157 173h92z" />
    <glyph glyph-name="Aogonek" unicode="&#x104;" horiz-adv-x="701" 
d="M636 0q-21 -14 -37.5 -36t-16.5 -45q0 -53 62 -53q8 0 17.5 1t19.5 3l8 -74q-41 -12 -79 -12q-28 0 -52.5 6.5t-42.5 19.5t-28 32t-10 45q0 18 8 35t20 32t26 27t26 19l-62 165h-294l-61 -165h-131l278 709h122l284 -709h-57zM393 438q-5 13 -12.5 35l-15.5 44l-18 53
l-17 -53l-15.5 -43.5l-12.5 -35.5l-62 -166h215z" />
    <glyph glyph-name="aogonek" unicode="&#x105;" 
d="M533 -204q-41 -12 -79 -12q-28 0 -52.5 6.5t-42.5 19.5t-28 32t-10 45q0 18 8 35t20 32t26 27t26 19v54q-25 -30 -62.5 -48t-86.5 -18q-47 0 -86 17t-66.5 47t-43 71.5t-15.5 90.5q0 51 16 94t44.5 74.5t68.5 49.5t88 18q46 0 83.5 -18.5t59.5 -49.5v56h113v-438h-34
q-21 -14 -37.5 -36t-16.5 -45q0 -53 62 -53q8 0 17.5 1t19.5 3zM406 215q0 59 -35 97t-91 38q-26 0 -48 -10t-38.5 -27.5t-26 -42t-9.5 -52.5t9.5 -53t26 -43.5t39.5 -29.5t50 -11q28 0 51 10.5t39 28.5t24.5 42.5t8.5 52.5z" />
    <glyph glyph-name="Cacute" unicode="&#x106;" horiz-adv-x="645" 
d="M596 31q-39 -20 -90 -31t-107 -11q-80 0 -145.5 28t-112.5 77t-72.5 115t-25.5 141q0 81 27 148.5t75 116.5t114.5 76.5t145.5 27.5q105 0 187 -38v-134q-35 26 -84.5 42.5t-102.5 16.5q-49 0 -91.5 -18t-73.5 -51t-49 -79.5t-18 -104.5q0 -52 16.5 -97.5t47.5 -79.5
t75.5 -53.5t99.5 -19.5q56 0 102.5 14.5t81.5 40.5v-127v0zM265 800l142 120l88 -74l-175 -103z" />
    <glyph glyph-name="cacute" unicode="&#x107;" horiz-adv-x="441" 
d="M398 13q-23 -10 -56.5 -17.5t-69.5 -7.5q-57 0 -100 19t-72 51t-44 73t-15 85q0 45 16.5 87.5t47 74.5t75 51.5t100.5 19.5q31 0 62.5 -6t55.5 -17v-107q-20 12 -49 20.5t-58 8.5q-28 0 -52 -9.5t-41 -26.5t-27 -40.5t-10 -51.5q0 -27 9 -50.5t26 -41.5t41 -28.5
t54 -10.5q29 0 57 8t50 24v-108v0zM295 705l90 -68l-159 -128l-65 47z" />
    <glyph glyph-name="Cdotaccent" unicode="&#x10a;" horiz-adv-x="645" 
d="M596 31q-39 -20 -90 -31t-107 -11q-80 0 -145.5 28t-112.5 77t-72.5 115t-25.5 141q0 81 27 148.5t75 116.5t114.5 76.5t145.5 27.5q105 0 187 -38v-134q-35 26 -84.5 42.5t-102.5 16.5q-49 0 -91.5 -18t-73.5 -51t-49 -79.5t-18 -104.5q0 -52 16.5 -97.5t47.5 -79.5
t75.5 -53.5t99.5 -19.5q56 0 102.5 14.5t81.5 40.5v-127v0zM368 764q-33 0 -55.5 23t-22.5 55q0 33 22.5 55.5t55.5 22.5q32 0 55 -22.5t23 -55.5q0 -32 -23 -55t-55 -23z" />
    <glyph glyph-name="cdotaccent" unicode="&#x10b;" horiz-adv-x="441" 
d="M398 13q-23 -10 -56.5 -17.5t-69.5 -7.5q-57 0 -100 19t-72 51t-44 73t-15 85q0 45 16.5 87.5t47 74.5t75 51.5t100.5 19.5q31 0 62.5 -6t55.5 -17v-107q-20 12 -49 20.5t-58 8.5q-28 0 -52 -9.5t-41 -26.5t-27 -40.5t-10 -51.5q0 -27 9 -50.5t26 -41.5t41 -28.5
t54 -10.5q29 0 57 8t50 24v-108v0zM247 535q-33 0 -55.5 23t-22.5 55q0 33 22.5 55.5t55.5 22.5q32 0 55 -22.5t23 -55.5q0 -32 -23 -55t-55 -23z" />
    <glyph glyph-name="Ccaron" unicode="&#x10c;" horiz-adv-x="645" 
d="M596 31q-39 -20 -90 -31t-107 -11q-80 0 -145.5 28t-112.5 77t-72.5 115t-25.5 141q0 81 27 148.5t75 116.5t114.5 76.5t145.5 27.5q105 0 187 -38v-134q-35 26 -84.5 42.5t-102.5 16.5q-49 0 -91.5 -18t-73.5 -51t-49 -79.5t-18 -104.5q0 -52 16.5 -97.5t47.5 -79.5
t75.5 -53.5t99.5 -19.5q56 0 102.5 14.5t81.5 40.5v-127v0zM237 910l132 -61l128 61l43 -69l-172 -90l-173 93z" />
    <glyph glyph-name="ccaron" unicode="&#x10d;" horiz-adv-x="441" 
d="M398 13q-23 -10 -56.5 -17.5t-69.5 -7.5q-57 0 -100 19t-72 51t-44 73t-15 85q0 45 16.5 87.5t47 74.5t75 51.5t100.5 19.5q31 0 62.5 -6t55.5 -17v-107q-20 12 -49 20.5t-58 8.5q-28 0 -52 -9.5t-41 -26.5t-27 -40.5t-10 -51.5q0 -27 9 -50.5t26 -41.5t41 -28.5
t54 -10.5q29 0 57 8t50 24v-108v0zM129 701l109 -83l110 84l55 -64l-168 -131l-159 129z" />
    <glyph glyph-name="Dcaron" unicode="&#x10e;" horiz-adv-x="683" 
d="M82 709h187q85 0 154 -23.5t118 -71.5q48 -48 73 -110.5t25 -143.5q0 -161 -100 -261q-99 -99 -288 -99h-169v709zM256 104q65 0 110.5 15.5t75.5 45.5q32 31 49.5 78t17.5 112q0 59 -17 107t-49 80q-35 35 -81.5 49.5t-104.5 14.5h-52v-502h51zM210 910l132 -61l128 61
l43 -69l-172 -90l-173 93z" />
    <glyph glyph-name="dcaron" unicode="&#x10f;" 
d="M401 59q-25 -30 -62 -49.5t-89 -19.5q-47 0 -85.5 17.5t-66 48.5t-42.5 72t-15 89t16 89.5t45 73t69 49.5t88 18q44 0 80.5 -15.5t61.5 -44.5v361h113v-748h-113v59zM281 86q28 0 50.5 10.5t39 29t25.5 43t9 52.5q0 30 -9.5 54t-26 41t-39 26t-47.5 9q-27 0 -49.5 -10.5
t-39 -28.5t-25.5 -42.5t-9 -51.5q0 -30 10 -54t26.5 -41.5t38.5 -27t46 -9.5zM714 741q0 -44 -30.5 -84.5t-83.5 -75.5l-35 35q21 18 34 34.5t13 33.5q0 11 -4 19.5t-9.5 16t-9.5 16t-4 20.5q0 24 17.5 40t46.5 16t47 -20.5t18 -50.5z" />
    <glyph glyph-name="Dcroat" unicode="&#x110;" horiz-adv-x="693" 
d="M93 312h-64v100h64v297h186q177 0 272 -95q48 -48 73 -110.5t25 -143.5t-26 -146.5t-75 -114.5q-99 -99 -287 -99h-168v312zM267 104q125 0 186 61q31 31 48.5 78t17.5 112q0 59 -17 107t-49 80q-35 35 -81 49.5t-105 14.5h-52v-194h73v-100h-73v-208h52z" />
    <glyph glyph-name="dcroat" unicode="&#x111;" horiz-adv-x="583" 
d="M514 502v-502h-113v59q-25 -30 -62 -49.5t-89 -19.5q-47 0 -85.5 17.5t-66 48.5t-42.5 72t-15 89t16 89.5t45 73t69 49.5t88 18q44 0 80.5 -15.5t61.5 -44.5v115h-77v87h77v159h113v-159h61v-87h-61zM405 221q0 30 -9.5 54t-26 41t-39 26t-47.5 9q-27 0 -49.5 -10.5
t-39 -28.5t-25.5 -42.5t-9 -51.5q0 -30 10 -54t26.5 -41.5t38.5 -27t46 -9.5q28 0 50.5 10.5t39 29t25.5 43t9 52.5z" />
    <glyph glyph-name="Emacron" unicode="&#x112;" horiz-adv-x="544" 
d="M82 709h387v-113h-263v-176h255v-111h-255v-196h264v-113h-388v709zM130 874h285v-94h-285v94z" />
    <glyph glyph-name="emacron" unicode="&#x113;" horiz-adv-x="520" 
d="M471 85q-38 -49 -88 -73.5t-119 -24.5q-46 0 -86.5 15.5t-71 44.5t-48 72t-17.5 98q0 52 17 95t47 74t70.5 48t87.5 17q48 0 87.5 -15.5t68.5 -44.5t45 -71t16 -94q0 -9 -0.5 -18t-0.5 -19h-325q1 -24 10.5 -44.5t25.5 -36t37.5 -24t47.5 -8.5q38 0 68 16.5t53 45.5z
M364 265q0 20 -7 38t-20.5 32t-32.5 22.5t-43 8.5q-46 0 -74 -30t-32 -71h209zM120 650h285v-94h-285v94z" />
    <glyph glyph-name="Edotaccent" unicode="&#x116;" horiz-adv-x="544" 
d="M82 709h387v-113h-263v-176h255v-111h-255v-196h264v-113h-388v709zM274 764q-33 0 -55.5 23t-22.5 55q0 33 22.5 55.5t55.5 22.5q32 0 55 -22.5t23 -55.5q0 -32 -23 -55t-55 -23z" />
    <glyph glyph-name="edotaccent" unicode="&#x117;" horiz-adv-x="520" 
d="M471 85q-38 -49 -88 -73.5t-119 -24.5q-46 0 -86.5 15.5t-71 44.5t-48 72t-17.5 98q0 52 17 95t47 74t70.5 48t87.5 17q48 0 87.5 -15.5t68.5 -44.5t45 -71t16 -94q0 -9 -0.5 -18t-0.5 -19h-325q1 -24 10.5 -44.5t25.5 -36t37.5 -24t47.5 -8.5q38 0 68 16.5t53 45.5z
M364 265q0 20 -7 38t-20.5 32t-32.5 22.5t-43 8.5q-46 0 -74 -30t-32 -71h209zM260 535q-33 0 -55.5 23t-22.5 55q0 33 22.5 55.5t55.5 22.5q32 0 55 -22.5t23 -55.5q0 -32 -23 -55t-55 -23z" />
    <glyph glyph-name="Eogonek" unicode="&#x118;" horiz-adv-x="544" 
d="M477 -204q-41 -12 -79 -12q-28 0 -52.5 6.5t-42.5 19.5t-28 32t-10 45q0 18 8 35t20 32t26 27t26 19h-263v709h387v-113h-263v-176h255v-111h-255v-196h264v-113h-46q-21 -14 -37.5 -36t-16.5 -45q0 -53 62 -53q8 0 17.5 1t19.5 3l8 -74v0z" />
    <glyph glyph-name="eogonek" unicode="&#x119;" horiz-adv-x="520" 
d="M480 226q0 -9 -0.5 -18t-0.5 -19h-325q1 -24 10.5 -44.5t25.5 -36t37.5 -24t47.5 -8.5q38 0 68 16.5t53 45.5l75 -53q-14 -15 -34.5 -35t-40 -42t-33 -45t-13.5 -44q0 -53 62 -53q8 0 17.5 1t19.5 3l8 -74q-20 -6 -41.5 -9t-40.5 -3q-57 0 -93.5 26t-36.5 77
q0 24 16.5 53.5t43.5 56.5q-19 -8 -53 -8q-42 0 -80 15t-67 44t-46.5 71.5t-17.5 97.5q0 52 17 95t47 74t70.5 48t87.5 17q48 0 87.5 -15.5t68.5 -44.5t45 -71t16 -94zM364 265q0 20 -7 38t-20.5 32t-32.5 22.5t-43 8.5q-46 0 -74 -30t-32 -71h209z" />
    <glyph glyph-name="Ecaron" unicode="&#x11a;" horiz-adv-x="544" 
d="M82 709h387v-113h-263v-176h255v-111h-255v-196h264v-113h-388v709zM147 910l132 -61l128 61l43 -69l-172 -90l-173 93z" />
    <glyph glyph-name="ecaron" unicode="&#x11b;" horiz-adv-x="520" 
d="M471 85q-38 -49 -88 -73.5t-119 -24.5q-46 0 -86.5 15.5t-71 44.5t-48 72t-17.5 98q0 52 17 95t47 74t70.5 48t87.5 17q48 0 87.5 -15.5t68.5 -44.5t45 -71t16 -94q0 -9 -0.5 -18t-0.5 -19h-325q1 -24 10.5 -44.5t25.5 -36t37.5 -24t47.5 -8.5q38 0 68 16.5t53 45.5z
M364 265q0 20 -7 38t-20.5 32t-32.5 22.5t-43 8.5q-46 0 -74 -30t-32 -71h209zM157 701l109 -83l110 84l55 -64l-168 -131l-159 129z" />
    <glyph glyph-name="Gbreve" unicode="&#x11e;" horiz-adv-x="785" 
d="M430 373h325v-29q0 -74 -23.5 -139.5t-69 -114.5t-111 -77t-149.5 -28q-80 0 -146.5 28.5t-113.5 79t-73 118t-26 145.5q0 76 27.5 143.5t76.5 117.5t116.5 79t147.5 29q94 0 171.5 -38t131.5 -113l-98 -68q-78 106 -208 106q-56 0 -100 -20.5t-75 -55t-47.5 -80.5
t-16.5 -97q0 -54 16.5 -101.5t47.5 -83t75.5 -56.5t99.5 -21q44 0 80.5 12.5t64 35t45.5 53t24 66.5h-192v109zM326 930q0 -38 15 -56.5t50 -18.5q71 0 71 75h92q0 -47 -12.5 -80t-34 -53.5t-51.5 -30t-65 -9.5q-157 0 -157 173h92z" />
    <glyph glyph-name="gbreve" unicode="&#x11f;" horiz-adv-x="573" 
d="M174 -44q2 -35 30 -59t74 -24q60 0 88 30t28 99v64q-26 -32 -63 -48t-81 -16q-49 0 -87.5 17t-65.5 47t-41.5 69.5t-14.5 84.5q0 49 16.5 90.5t45 72.5t67 48.5t82.5 17.5q45 0 82 -16.5t60 -49.5v55h113v-407q0 -67 -12.5 -110.5t-44.5 -74.5q-32 -32 -75.5 -46
t-102.5 -14q-99 0 -152.5 47.5t-56.5 122.5h111zM279 93q27 0 49 10t37.5 28t24 42t8.5 51q0 25 -8 48.5t-24 40.5t-38.5 27.5t-50.5 10.5q-26 0 -48 -10t-38 -27.5t-25 -40.5t-9 -50q0 -56 34 -93t88 -37zM223 696q0 -38 15 -56.5t50 -18.5q71 0 71 75h92q0 -47 -12.5 -80
t-34 -53.5t-51.5 -30t-65 -9.5q-157 0 -157 173h92z" />
    <glyph glyph-name="Gdotaccent" unicode="&#x120;" horiz-adv-x="785" 
d="M430 373h325v-29q0 -74 -23.5 -139.5t-69 -114.5t-111 -77t-149.5 -28q-80 0 -146.5 28.5t-113.5 79t-73 118t-26 145.5q0 76 27.5 143.5t76.5 117.5t116.5 79t147.5 29q94 0 171.5 -38t131.5 -113l-98 -68q-78 106 -208 106q-56 0 -100 -20.5t-75 -55t-47.5 -80.5
t-16.5 -97q0 -54 16.5 -101.5t47.5 -83t75.5 -56.5t99.5 -21q44 0 80.5 12.5t64 35t45.5 53t24 66.5h-192v109zM393 764q-33 0 -55.5 23t-22.5 55q0 33 22.5 55.5t55.5 22.5q32 0 55 -22.5t23 -55.5q0 -32 -23 -55t-55 -23z" />
    <glyph glyph-name="gdotaccent" unicode="&#x121;" horiz-adv-x="573" 
d="M174 -44q2 -35 30 -59t74 -24q60 0 88 30t28 99v64q-26 -32 -63 -48t-81 -16q-49 0 -87.5 17t-65.5 47t-41.5 69.5t-14.5 84.5q0 49 16.5 90.5t45 72.5t67 48.5t82.5 17.5q45 0 82 -16.5t60 -49.5v55h113v-407q0 -67 -12.5 -110.5t-44.5 -74.5q-32 -32 -75.5 -46
t-102.5 -14q-99 0 -152.5 47.5t-56.5 122.5h111zM279 93q27 0 49 10t37.5 28t24 42t8.5 51q0 25 -8 48.5t-24 40.5t-38.5 27.5t-50.5 10.5q-26 0 -48 -10t-38 -27.5t-25 -40.5t-9 -50q0 -56 34 -93t88 -37zM288 535q-33 0 -55.5 23t-22.5 55q0 33 22.5 55.5t55.5 22.5
q32 0 55 -22.5t23 -55.5q0 -32 -23 -55t-55 -23z" />
    <glyph glyph-name="Gcommaaccent" unicode="&#x122;" horiz-adv-x="785" 
d="M430 373h325v-29q0 -74 -23.5 -139.5t-69 -114.5t-111 -77t-149.5 -28q-80 0 -146.5 28.5t-113.5 79t-73 118t-26 145.5q0 76 27.5 143.5t76.5 117.5t116.5 79t147.5 29q94 0 171.5 -38t131.5 -113l-98 -68q-78 106 -208 106q-56 0 -100 -20.5t-75 -55t-47.5 -80.5
t-16.5 -97q0 -54 16.5 -101.5t47.5 -83t75.5 -56.5t99.5 -21q44 0 80.5 12.5t64 35t45.5 53t24 66.5h-192v109zM470 -102q0 -44 -30.5 -84t-83.5 -75l-35 35q21 18 34 34.5t13 33.5q0 11 -4 19.5t-9 16t-9 16t-4 20.5q0 24 17 39.5t46 15.5t47 -20.5t18 -50.5z" />
    <glyph glyph-name="gcommaaccent" unicode="&#x123;" horiz-adv-x="573" 
d="M174 -44q2 -35 30 -59t74 -24q60 0 88 30t28 99v64q-26 -32 -63 -48t-81 -16q-49 0 -87.5 17t-65.5 47t-41.5 69.5t-14.5 84.5q0 49 16.5 90.5t45 72.5t67 48.5t82.5 17.5q45 0 82 -16.5t60 -49.5v55h113v-407q0 -67 -12.5 -110.5t-44.5 -74.5q-32 -32 -75.5 -46
t-102.5 -14q-99 0 -152.5 47.5t-56.5 122.5h111zM279 93q27 0 49 10t37.5 28t24 42t8.5 51q0 25 -8 48.5t-24 40.5t-38.5 27.5t-50.5 10.5q-26 0 -48 -10t-38 -27.5t-25 -40.5t-9 -50q0 -56 34 -93t88 -37zM224.019 604.994q0 43.9971 30.998 83.9941
q30.998 39.998 83.9951 74.9961l33.998 -34.998q-20.999 -17.999 -33.498 -34.498t-12.499 -33.498q0 -10.999 3.99902 -19.499q4 -8.49902 9 -15.999q5 -7.49902 8.99902 -15.999q4 -8.49902 4 -20.498q0 -23.999 -16.999 -39.498t-45.9971 -15.499t-47.4971 20.499
t-18.499 50.4971z" />
    <glyph glyph-name="Hbar" unicode="&#x126;" horiz-adv-x="735" 
d="M643 524v-524h-124v315h-303v-315h-124v524h-64v100h64v85h124v-85h303v85h124v-85h64v-100h-64zM519 524h-303v-97h303v97z" />
    <glyph glyph-name="hbar" unicode="&#x127;" horiz-adv-x="540" 
d="M363 0v257q0 45 -19.5 69t-61.5 24q-41 0 -69 -28q-31 -31 -31 -88v-234h-113v502h-61v87h61v160h113v-160h126v-87h-126v-120q20 26 55.5 46.5t86.5 20.5q32 0 61 -10t49 -30q42 -42 42 -128v-281h-113z" />
    <glyph glyph-name="Imacron" unicode="&#x12a;" horiz-adv-x="288" 
d="M82 709h124v-709h-124v709zM2 874h285v-94h-285v94z" />
    <glyph glyph-name="imacron" unicode="&#x12b;" horiz-adv-x="248" 
d="M67 438h114v-438h-114v438zM-18 650h285v-94h-285v94z" />
    <glyph glyph-name="Iogonek" unicode="&#x12e;" horiz-adv-x="288" 
d="M194 0q-21 -14 -37.5 -36t-16.5 -45q0 -53 62 -53q8 0 17.5 1t19.5 3l8 -74q-41 -12 -79 -12q-28 0 -52.5 6.5t-42.5 19.5t-28 32t-10 45q0 18 8 35t20 32t26 27t26 19h-33v709h124v-709h-12v0z" />
    <glyph glyph-name="iogonek" unicode="&#x12f;" horiz-adv-x="248" 
d="M197 611q0 -31 -21.5 -52.5t-51.5 -21.5t-52 21.5t-22 52.5q0 30 22 51.5t52 21.5t51.5 -21.5t21.5 -51.5zM230 -204q-41 -12 -79 -12q-28 0 -52.5 6.5t-42.5 19.5t-28 32t-10 45q0 18 8 35t20 32t26 27t26 19h-31v438h114v-438h-4q-21 -14 -37.5 -36t-16.5 -45
q0 -53 62 -53q8 0 17.5 1t19.5 3z" />
    <glyph glyph-name="Idotaccent" unicode="&#x130;" horiz-adv-x="288" 
d="M82 709h124v-709h-124v709zM145 764q-33 0 -55.5 23t-22.5 55q0 33 22.5 55.5t55.5 22.5q32 0 55 -22.5t23 -55.5q0 -32 -23 -55t-55 -23z" />
    <glyph glyph-name="dotlessi" unicode="&#x131;" horiz-adv-x="248" 
d="M67 438h114v-438h-114v438z" />
    <glyph glyph-name="Kcommaaccent" unicode="&#x136;" horiz-adv-x="649" 
d="M82 709h124v-316l248 316h149l-271 -332l285 -377h-157l-254 345v-345h-124v709zM389 -102q0 -44 -30.5 -84t-83.5 -75l-35 35q21 18 34 34.5t13 33.5q0 11 -4 19.5t-9 16t-9 16t-4 20.5q0 24 17 39.5t46 15.5t47 -20.5t18 -50.5z" />
    <glyph glyph-name="kcommaaccent" unicode="&#x137;" horiz-adv-x="486" 
d="M66 749h113v-493l150 182h143l-179 -201l191 -237h-150l-155 209v-209h-113v749zM313 -102q0 -44 -31 -84t-84 -75l-34 35q21 18 33.5 34.5t12.5 33.5q0 11 -4 19.5t-9 16t-9 16t-4 20.5q0 24 17 39.5t46 15.5t47.5 -20.5t18.5 -50.5z" />
    <glyph glyph-name="Lacute" unicode="&#x139;" horiz-adv-x="472" 
d="M82 709h124v-596h240v-113h-364v709zM139 800l142 120l88 -74l-175 -103z" />
    <glyph glyph-name="lacute" unicode="&#x13a;" horiz-adv-x="245" 
d="M66 749h113v-749h-113v749zM180 1007l90 -68l-159 -128l-65 47z" />
    <glyph glyph-name="Lcommaaccent" unicode="&#x13b;" horiz-adv-x="472" 
d="M82 709h124v-596h240v-113h-364v709zM304 -102q0 -44 -30.5 -84t-83.5 -75l-35 35q21 18 34 34.5t13 33.5q0 11 -4 19.5t-9 16t-9 16t-4 20.5q0 24 17 39.5t46 15.5t47 -20.5t18 -50.5z" />
    <glyph glyph-name="lcommaaccent" unicode="&#x13c;" horiz-adv-x="245" 
d="M66 749h113v-749h-113v749zM190 -102q0 -44 -31 -84t-84 -75l-34 35q21 18 33.5 34.5t12.5 33.5q0 11 -4 19.5t-9 16t-9 16t-4 20.5q0 24 17 39.5t46 15.5t47.5 -20.5t18.5 -50.5z" />
    <glyph glyph-name="Lcaron" unicode="&#x13d;" horiz-adv-x="472" 
d="M82 709h124v-596h240v-113h-364v709zM417 653q0 -44 -31 -84t-84 -75l-34 34q21 18 33.5 34.5t12.5 33.5q0 11 -4 19.5t-9 16t-9 16t-4 20.5q0 24 17 40t46 16t47.5 -20.5t18.5 -50.5z" />
    <glyph glyph-name="lcaron" unicode="&#x13e;" horiz-adv-x="245" 
d="M66 749h113v-749h-113v749zM379 741q0 -44 -30.5 -84.5t-83.5 -75.5l-35 35q21 18 34 34.5t13 33.5q0 11 -4 19.5t-9.5 16t-9.5 16t-4 20.5q0 24 17.5 40t46.5 16t47 -20.5t18 -50.5z" />
    <glyph glyph-name="Lslash" unicode="&#x141;" horiz-adv-x="491" 
d="M101 283l-41 -25l-49 82l90 54v315h124v-240l66 40l49 -82l-115 -70v-244h239v-113h-363v283z" />
    <glyph glyph-name="lslash" unicode="&#x142;" horiz-adv-x="308" 
d="M96 287l-51 -32l-50 82l101 61v351h114v-282l53 32l49 -82l-102 -61v-356h-114v287z" />
    <glyph glyph-name="Nacute" unicode="&#x143;" horiz-adv-x="779" 
d="M82 709h114l293 -392l52 -72.5t46 -69.5q-2 61 -3.5 117.5t-1.5 116.5v300h114v-709h-112l-309 412l-43 60l-41 60q2 -50 3 -98t4 -98v-336h-116v709zM293 800l142 120l88 -74l-175 -103z" />
    <glyph glyph-name="nacute" unicode="&#x144;" horiz-adv-x="538" 
d="M66 438h112v-58q18 24 51.5 45.5t88.5 21.5q41 0 69 -12t47 -30q22 -22 31.5 -53t9.5 -76v-276h-114v252q0 43 -18 70.5t-62 27.5q-17 0 -35 -6.5t-33 -20t-24.5 -34t-9.5 -49.5v-240h-113v438zM336 705l90 -68l-159 -128l-65 47z" />
    <glyph glyph-name="Ncommaaccent" unicode="&#x145;" horiz-adv-x="779" 
d="M82 709h114l293 -392l52 -72.5t46 -69.5q-2 61 -3.5 117.5t-1.5 116.5v300h114v-709h-112l-309 412l-43 60l-41 60q2 -50 3 -98t4 -98v-336h-116v709zM455 -102q0 -44 -30.5 -84t-83.5 -75l-35 35q21 18 34 34.5t13 33.5q0 11 -4 19.5t-9 16t-9 16t-4 20.5q0 24 17 39.5
t46 15.5t47 -20.5t18 -50.5z" />
    <glyph glyph-name="ncommaaccent" unicode="&#x146;" horiz-adv-x="538" 
d="M66 438h112v-58q18 24 51.5 45.5t88.5 21.5q41 0 69 -12t47 -30q22 -22 31.5 -53t9.5 -76v-276h-114v252q0 43 -18 70.5t-62 27.5q-17 0 -35 -6.5t-33 -20t-24.5 -34t-9.5 -49.5v-240h-113v438zM336 -102q0 -44 -31 -84t-84 -75l-34 35q21 18 33.5 34.5t12.5 33.5
q0 11 -4 19.5t-9 16t-9 16t-4 20.5q0 24 17 39.5t46 15.5t47.5 -20.5t18.5 -50.5z" />
    <glyph glyph-name="Ncaron" unicode="&#x147;" horiz-adv-x="779" 
d="M82 709h114l293 -392l52 -72.5t46 -69.5q-2 61 -3.5 117.5t-1.5 116.5v300h114v-709h-112l-309 412l-43 60l-41 60q2 -50 3 -98t4 -98v-336h-116v709zM265 910l132 -61l128 61l43 -69l-172 -90l-173 93z" />
    <glyph glyph-name="ncaron" unicode="&#x148;" horiz-adv-x="538" 
d="M66 438h112v-58q18 24 51.5 45.5t88.5 21.5q41 0 69 -12t47 -30q22 -22 31.5 -53t9.5 -76v-276h-114v252q0 43 -18 70.5t-62 27.5q-17 0 -35 -6.5t-33 -20t-24.5 -34t-9.5 -49.5v-240h-113v438zM159 701l109 -83l110 84l55 -64l-168 -131l-159 129z" />
    <glyph glyph-name="Omacron" unicode="&#x14c;" horiz-adv-x="826" 
d="M412 -16q-78 0 -145.5 28.5t-118 78.5t-79.5 117.5t-29 144.5q0 76 29.5 143.5t80.5 118t119 80t145 29.5q78 0 146 -28.5t118.5 -78.5t79.5 -117.5t29 -145.5q0 -77 -30 -144t-81 -117.5t-119 -79.5t-145 -29zM413 102q53 0 98 19.5t78 53.5t51.5 80t18.5 99t-18 99.5
t-51 81t-78 54t-99 19.5q-53 0 -98 -20t-78 -54.5t-51.5 -80.5t-18.5 -98t19 -98t52 -80.5t78 -54.5t97 -20zM271 874h285v-94h-285v94z" />
    <glyph glyph-name="omacron" unicode="&#x14d;" horiz-adv-x="561" 
d="M276 -13q-50 0 -93 17t-74.5 48t-49.5 73.5t-18 92.5q0 48 18 90t50 73.5t76 50t96 18.5q51 0 95 -17.5t76 -48t50 -73t18 -92.5q0 -46 -17.5 -88t-49.5 -74t-77 -51t-100 -19zM281 88q27 0 49.5 10.5t39 28.5t25.5 41.5t9 49.5q0 28 -9.5 52t-26.5 41.5t-40 27.5t-49 10
q-27 0 -49.5 -10.5t-39 -28t-25.5 -41t-9 -50.5q0 -28 10 -52t27 -41.5t39.5 -27.5t48.5 -10zM137 650h285v-94h-285v94z" />
    <glyph glyph-name="Ohungarumlaut" unicode="&#x150;" horiz-adv-x="826" 
d="M412 -16q-78 0 -145.5 28.5t-118 78.5t-79.5 117.5t-29 144.5q0 76 29.5 143.5t80.5 118t119 80t145 29.5q78 0 146 -28.5t118.5 -78.5t79.5 -117.5t29 -145.5q0 -77 -30 -144t-81 -117.5t-119 -79.5t-145 -29zM413 102q53 0 98 19.5t78 53.5t51.5 80t18.5 99t-18 99.5
t-51 81t-78 54t-99 19.5q-53 0 -98 -20t-78 -54.5t-51.5 -80.5t-18.5 -98t19 -98t52 -80.5t78 -54.5t97 -20zM359 950l88 -67l-126 -142l-63 46zM568 947l89 -67l-143 -141l-63 46z" />
    <glyph glyph-name="ohungarumlaut" unicode="&#x151;" horiz-adv-x="561" 
d="M276 -13q-50 0 -93 17t-74.5 48t-49.5 73.5t-18 92.5q0 48 18 90t50 73.5t76 50t96 18.5q51 0 95 -17.5t76 -48t50 -73t18 -92.5q0 -46 -17.5 -88t-49.5 -74t-77 -51t-100 -19zM281 88q27 0 49.5 10.5t39 28.5t25.5 41.5t9 49.5q0 28 -9.5 52t-26.5 41.5t-40 27.5t-49 10
q-27 0 -49.5 -10.5t-39 -28t-25.5 -41t-9 -50.5q0 -28 10 -52t27 -41.5t39.5 -27.5t48.5 -10zM222 714l88 -67l-126 -142l-63 46zM431 711l89 -67l-143 -141l-63 46z" />
    <glyph glyph-name="OE" unicode="&#x152;" horiz-adv-x="1122" 
d="M652 85q-49 -47 -110 -73.5t-130 -26.5q-77 0 -145 28.5t-118.5 78t-79.5 116.5t-29 145q0 75 29.5 142.5t80 118t118.5 80t145 29.5q76 0 133.5 -25t105.5 -70v81h383v-112h-262v-177h254v-111h-254v-196h264v-113h-385v85zM413 103q53 0 98 19.5t78 53t51.5 79.5
t18.5 99q0 55 -19 101t-52 80t-78 53t-97 19q-50 0 -95 -19t-78.5 -52.5t-53 -79.5t-19.5 -100q0 -53 19.5 -99.5t53 -80.5t78 -53.5t95.5 -19.5z" />
    <glyph glyph-name="oe" unicode="&#x153;" horiz-adv-x="883" 
d="M835 85q-38 -49 -87.5 -73.5t-119.5 -24.5q-52 0 -96.5 20t-75.5 64q-31 -40 -76.5 -62t-102.5 -22q-50 0 -92.5 17t-74.5 48t-50 73.5t-18 92.5q0 48 18 90t50.5 73.5t76.5 50t96 18.5q54 0 99 -20.5t77 -62.5q27 41 72 62.5t96 21.5q48 0 87.5 -15.5t68.5 -44.5t45 -71
t16 -94q0 -9 -0.5 -18t-0.5 -19h-325q3 -48 36.5 -80.5t84.5 -32.5q38 0 68 16.5t53 45.5zM728 265q0 20 -7 38t-20.5 32t-32.5 22.5t-43 8.5q-46 0 -74 -30t-32 -71h209zM283 88q27 0 49 10.5t38.5 28.5t25.5 41.5t9 49.5q0 28 -9.5 52t-26.5 41.5t-40 27.5t-49 10
q-27 0 -49.5 -10.5t-38.5 -28t-25 -41t-9 -50.5q0 -28 10 -52t27 -41.5t39.5 -27.5t48.5 -10z" />
    <glyph glyph-name="Racute" unicode="&#x154;" horiz-adv-x="579" 
d="M82 709h199q62 0 110.5 -14.5t79.5 -45.5q29 -30 41.5 -64t12.5 -76q0 -39 -12.5 -72t-35.5 -59t-56 -42.5t-73 -22.5l216 -313h-148l-199 308h-12v-308h-123v709zM260 398q42 0 69 7.5t42 23.5q15 15 21.5 33t6.5 41q0 20 -5.5 38.5t-21.5 34.5q-17 17 -43 24t-61 7h-63
v-209h55zM193 800l142 120l88 -74l-175 -103z" />
    <glyph glyph-name="racute" unicode="&#x155;" horiz-adv-x="347" 
d="M66 438h112v-69q19 35 49 57t77 22q8 0 17 -0.5t15 -2.5l-4 -117q-26 15 -64 15q-39 0 -63.5 -33t-24.5 -99v-211h-114v438zM262 705l90 -68l-159 -128l-65 47z" />
    <glyph glyph-name="Rcommaaccent" unicode="&#x156;" horiz-adv-x="579" 
d="M82 709h199q62 0 110.5 -14.5t79.5 -45.5q29 -30 41.5 -64t12.5 -76q0 -39 -12.5 -72t-35.5 -59t-56 -42.5t-73 -22.5l216 -313h-148l-199 308h-12v-308h-123v709zM260 398q42 0 69 7.5t42 23.5q15 15 21.5 33t6.5 41q0 20 -5.5 38.5t-21.5 34.5q-17 17 -43 24t-61 7h-63
v-209h55zM363 -102q0 -44 -30.5 -84t-83.5 -75l-35 35q21 18 34 34.5t13 33.5q0 11 -4 19.5t-9 16t-9 16t-4 20.5q0 24 17 39.5t46 15.5t47 -20.5t18 -50.5z" />
    <glyph glyph-name="rcommaaccent" unicode="&#x157;" horiz-adv-x="347" 
d="M66 438h112v-69q19 35 49 57t77 22q8 0 17 -0.5t15 -2.5l-4 -117q-26 15 -64 15q-39 0 -63.5 -33t-24.5 -99v-211h-114v438zM209 -102q0 -44 -31 -84t-84 -75l-34 35q21 18 33.5 34.5t12.5 33.5q0 11 -4 19.5t-9 16t-9 16t-4 20.5q0 24 17 39.5t46 15.5t47.5 -20.5
t18.5 -50.5z" />
    <glyph glyph-name="Rcaron" unicode="&#x158;" horiz-adv-x="579" 
d="M82 709h199q62 0 110.5 -14.5t79.5 -45.5q29 -30 41.5 -64t12.5 -76q0 -39 -12.5 -72t-35.5 -59t-56 -42.5t-73 -22.5l216 -313h-148l-199 308h-12v-308h-123v709zM260 398q42 0 69 7.5t42 23.5q15 15 21.5 33t6.5 41q0 20 -5.5 38.5t-21.5 34.5q-17 17 -43 24t-61 7h-63
v-209h55zM163 910l132 -61l128 61l43 -69l-172 -90l-173 93z" />
    <glyph glyph-name="rcaron" unicode="&#x159;" horiz-adv-x="347" 
d="M66 438h112v-69q19 35 49 57t77 22q8 0 17 -0.5t15 -2.5l-4 -117q-26 15 -64 15q-39 0 -63.5 -33t-24.5 -99v-211h-114v438zM81 701l109 -83l110 84l55 -64l-168 -131l-159 129z" />
    <glyph glyph-name="Sacute" unicode="&#x15a;" horiz-adv-x="531" 
d="M120 182q10 -18 23.5 -34t30.5 -29t37 -20.5t44 -7.5q46 0 73.5 28t27.5 70q0 36 -22 59t-54.5 41.5t-71 36.5t-71 43t-54.5 62t-22 93q0 43 17 79.5t46 63.5t68 42t83 15q64 0 115 -27.5t83 -76.5l-84 -73q-19 34 -48 53.5t-64 19.5q-41 0 -66 -25.5t-25 -64.5
q0 -35 22 -57t55 -40t71.5 -35.5t71.5 -42.5t55 -61.5t22 -91.5q0 -48 -18 -88t-49 -68.5t-74 -44.5t-92 -16q-75 0 -130 33t-88 87zM168 800l142 120l88 -74l-175 -103z" />
    <glyph glyph-name="sacute" unicode="&#x15b;" horiz-adv-x="408" 
d="M128 125q11 -21 29.5 -34.5t43.5 -13.5q23 0 38.5 10t15.5 31q0 19 -15 30t-38 20l-49 18.5t-49 25t-38 39.5t-15 62q0 28 11 52.5t31.5 43.5t49.5 30t66 11q55 0 92.5 -21t59.5 -66l-91 -41q-11 22 -28 32t-37 10q-19 0 -33 -11t-14 -30q0 -20 15.5 -32t38.5 -21
l49.5 -18.5t49.5 -24.5t38.5 -38.5t15.5 -61.5q0 -30 -12 -55.5t-34 -44t-53 -28.5t-68 -10q-63 0 -101 21.5t-61 66.5zM268 705l90 -68l-159 -128l-65 47z" />
    <glyph glyph-name="Scedilla" unicode="&#x15e;" horiz-adv-x="531" 
d="M120 182q10 -18 23.5 -34t30.5 -29t37 -20.5t44 -7.5q46 0 73.5 28t27.5 70q0 36 -22 59t-54.5 41.5t-71 36.5t-71 43t-54.5 62t-22 93q0 43 17 79.5t46 63.5t68 42t83 15q64 0 115 -27.5t83 -76.5l-84 -73q-19 34 -48 53.5t-64 19.5q-41 0 -66 -25.5t-25 -64.5
q0 -35 22 -57t55 -40t71.5 -35.5t71.5 -42.5t55 -61.5t22 -91.5q0 -48 -18 -88t-49 -68.5t-74 -44.5t-92 -16q-75 0 -130 33t-88 87zM265 -35l88 -52l-122 -135l-67 53z" />
    <glyph glyph-name="scedilla" unicode="&#x15f;" horiz-adv-x="408" 
d="M128 125q11 -21 29.5 -34.5t43.5 -13.5q23 0 38.5 10t15.5 31q0 19 -15 30t-38 20l-49 18.5t-49 25t-38 39.5t-15 62q0 28 11 52.5t31.5 43.5t49.5 30t66 11q55 0 92.5 -21t59.5 -66l-91 -41q-11 22 -28 32t-37 10q-19 0 -33 -11t-14 -30q0 -20 15.5 -32t38.5 -21
l49.5 -18.5t49.5 -24.5t38.5 -38.5t15.5 -61.5q0 -30 -12 -55.5t-34 -44t-53 -28.5t-68 -10q-63 0 -101 21.5t-61 66.5zM205 -35l88 -52l-122 -135l-67 53z" />
    <glyph glyph-name="Scaron" unicode="&#x160;" horiz-adv-x="531" 
d="M120 182q10 -18 23.5 -34t30.5 -29t37 -20.5t44 -7.5q46 0 73.5 28t27.5 70q0 36 -22 59t-54.5 41.5t-71 36.5t-71 43t-54.5 62t-22 93q0 43 17 79.5t46 63.5t68 42t83 15q64 0 115 -27.5t83 -76.5l-84 -73q-19 34 -48 53.5t-64 19.5q-41 0 -66 -25.5t-25 -64.5
q0 -35 22 -57t55 -40t71.5 -35.5t71.5 -42.5t55 -61.5t22 -91.5q0 -48 -18 -88t-49 -68.5t-74 -44.5t-92 -16q-75 0 -130 33t-88 87zM141 910l132 -61l128 61l43 -69l-172 -90l-173 93z" />
    <glyph glyph-name="scaron" unicode="&#x161;" horiz-adv-x="408" 
d="M128 125q11 -21 29.5 -34.5t43.5 -13.5q23 0 38.5 10t15.5 31q0 19 -15 30t-38 20l-49 18.5t-49 25t-38 39.5t-15 62q0 28 11 52.5t31.5 43.5t49.5 30t66 11q55 0 92.5 -21t59.5 -66l-91 -41q-11 22 -28 32t-37 10q-19 0 -33 -11t-14 -30q0 -20 15.5 -32t38.5 -21
l49.5 -18.5t49.5 -24.5t38.5 -38.5t15.5 -61.5q0 -30 -12 -55.5t-34 -44t-53 -28.5t-68 -10q-63 0 -101 21.5t-61 66.5zM95 701l109 -83l110 84l55 -64l-168 -131l-159 129z" />
    <glyph glyph-name="Tcedilla" unicode="&#x162;" horiz-adv-x="470" 
d="M174 597h-163v112h449v-111h-163v-598h-123v597zM235 -35l88 -52l-122 -135l-67 53z" />
    <glyph glyph-name="tcedilla" unicode="&#x163;" horiz-adv-x="282" 
d="M79 349h-64v89h64v159h114v-159h85v-89h-85v-349h-114v349zM140 -35l88 -52l-122 -135l-67 53z" />
    <glyph glyph-name="Tcaron" unicode="&#x164;" horiz-adv-x="470" 
d="M174 597h-163v112h449v-111h-163v-598h-123v597zM104 910l132 -61l128 61l43 -69l-172 -90l-173 93z" />
    <glyph glyph-name="tcaron" unicode="&#x165;" horiz-adv-x="282" 
d="M79 349h-64v89h64v159h114v-159h85v-89h-85v-349h-114v349zM393 684q0 -44 -30.5 -84.5t-83.5 -75.5l-35 35q21 18 34 34.5t13 33.5q0 11 -4 19.5t-9.5 16t-9.5 16t-4 20.5q0 24 17.5 40t46.5 16t47 -20.5t18 -50.5z" />
    <glyph glyph-name="Umacron" unicode="&#x16a;" horiz-adv-x="713" 
d="M80 709h124v-435q0 -50 9 -82t33 -56q19 -19 46.5 -30t65.5 -11q36 0 63.5 10.5t46.5 28.5q21 21 32.5 52t11.5 80v443h121v-431q0 -75 -19.5 -128.5t-56.5 -91.5q-38 -38 -90.5 -54.5t-111.5 -16.5q-63 0 -115.5 18t-90.5 56q-32 31 -50.5 79.5t-18.5 123.5v445z
M214 874h285v-94h-285v94z" />
    <glyph glyph-name="umacron" unicode="&#x16b;" horiz-adv-x="540" 
d="M63 438h114v-229q0 -26 3.5 -48.5t14 -39t29 -26.5t48.5 -10t47.5 10.5t27.5 28t13 39t3 43.5v232h114v-229q0 -54 -10.5 -96t-40.5 -72q-29 -29 -69 -41.5t-88 -12.5q-100 0 -157 57q-26 26 -37.5 64.5t-11.5 93.5v236zM127 650h285v-94h-285v94z" />
    <glyph glyph-name="Uring" unicode="&#x16e;" horiz-adv-x="713" 
d="M80 709h124v-435q0 -50 9 -82t33 -56q19 -19 46.5 -30t65.5 -11q36 0 63.5 10.5t46.5 28.5q21 21 32.5 52t11.5 80v443h121v-431q0 -75 -19.5 -128.5t-56.5 -91.5q-38 -38 -90.5 -54.5t-111.5 -16.5q-63 0 -115.5 18t-90.5 56q-32 31 -50.5 79.5t-18.5 123.5v445z
M357 717q-23 0 -43 8t-35 22.5t-23.5 34t-8.5 42.5t8.5 42.5t23.5 34t35 23t43 8.5t43 -8.5t35 -23t23.5 -34t8.5 -42.5t-9 -42.5t-24 -33.5t-35 -22.5t-42 -8.5zM357 777q20 0 33.5 13.5t13.5 33.5t-13.5 34t-33.5 14t-33.5 -14t-13.5 -34t13.5 -33.5t33.5 -13.5z" />
    <glyph glyph-name="uring" unicode="&#x16f;" horiz-adv-x="540" 
d="M63 438h114v-229q0 -26 3.5 -48.5t14 -39t29 -26.5t48.5 -10t47.5 10.5t27.5 28t13 39t3 43.5v232h114v-229q0 -54 -10.5 -96t-40.5 -72q-29 -29 -69 -41.5t-88 -12.5q-100 0 -157 57q-26 26 -37.5 64.5t-11.5 93.5v236zM269 507q-23 0 -43 8t-35 22.5t-23.5 34
t-8.5 42.5t8.5 42.5t23.5 34t35 23t43 8.5t43 -8.5t35 -23t23.5 -34t8.5 -42.5t-9 -42.5t-24 -33.5t-35 -22.5t-42 -8.5zM269 567q20 0 33.5 13.5t13.5 33.5t-13.5 34t-33.5 14t-33.5 -14t-13.5 -34t13.5 -33.5t33.5 -13.5z" />
    <glyph glyph-name="Uhungarumlaut" unicode="&#x170;" horiz-adv-x="713" 
d="M80 709h124v-435q0 -50 9 -82t33 -56q19 -19 46.5 -30t65.5 -11q36 0 63.5 10.5t46.5 28.5q21 21 32.5 52t11.5 80v443h121v-431q0 -75 -19.5 -128.5t-56.5 -91.5q-38 -38 -90.5 -54.5t-111.5 -16.5q-63 0 -115.5 18t-90.5 56q-32 31 -50.5 79.5t-18.5 123.5v445z
M303 950l88 -67l-126 -142l-63 46zM512 947l89 -67l-143 -141l-63 46z" />
    <glyph glyph-name="uhungarumlaut" unicode="&#x171;" horiz-adv-x="540" 
d="M63 438h114v-229q0 -26 3.5 -48.5t14 -39t29 -26.5t48.5 -10t47.5 10.5t27.5 28t13 39t3 43.5v232h114v-229q0 -54 -10.5 -96t-40.5 -72q-29 -29 -69 -41.5t-88 -12.5q-100 0 -157 57q-26 26 -37.5 64.5t-11.5 93.5v236zM217 714l88 -67l-126 -142l-63 46zM426 711
l89 -67l-143 -141l-63 46z" />
    <glyph glyph-name="Uogonek" unicode="&#x172;" horiz-adv-x="713" 
d="M633 278q0 -75 -20.5 -128.5t-54.5 -91.5q-11 -12 -24 -29.5t-24.5 -37t-19.5 -38.5t-8 -34q0 -53 62 -53q8 0 17.5 1t19.5 3l8 -74q-41 -12 -79 -12q-28 0 -52.5 6.5t-42.5 19.5t-28 32t-10 45q0 49 60 121q-21 -12 -40.5 -16.5t-41.5 -4.5q-63 0 -115.5 18t-90.5 56
q-32 31 -50.5 79.5t-18.5 123.5v445h124v-435q0 -50 9 -82t33 -56q19 -19 46.5 -30t65.5 -11q36 0 63.5 10.5t46.5 28.5q21 21 32.5 52t11.5 80v443h121v-431v0z" />
    <glyph glyph-name="uogonek" unicode="&#x173;" horiz-adv-x="540" 
d="M477 209q0 -54 -11 -95t-40 -73q-12 -13 -24 -29t-21 -32.5t-15 -32.5t-6 -28q0 -53 62 -53q8 0 17.5 1t19.5 3l8 -74q-41 -12 -79 -12q-28 0 -52.5 6.5t-42.5 19.5t-28 32t-10 45q0 23 15 53.5t42 62.5q-12 -6 -24.5 -10t-29.5 -4q-42 0 -79.5 13t-66.5 42
q-26 26 -37.5 64.5t-11.5 93.5v236h114v-229q0 -26 3.5 -48.5t14 -39t29 -26.5t48.5 -10t47.5 10.5t27.5 28t13 39t3 43.5v232h114v-229v0z" />
    <glyph glyph-name="Ydieresis" unicode="&#x178;" horiz-adv-x="604" 
d="M239 317l-230 392h142l154 -288l154 288h137l-233 -388v-321h-124v317zM400 757q-29 0 -49.5 20.5t-20.5 49.5t20.5 49t49.5 20t49 -20t20 -49t-20 -49.5t-49 -20.5zM199 757q-29 0 -49 20.5t-20 49.5t20 49t49 20t49.5 -20t20.5 -49t-20.5 -49.5t-49.5 -20.5z" />
    <glyph glyph-name="Zacute" unicode="&#x179;" horiz-adv-x="572" 
d="M349 600h-302v109h502l-345 -597h345v-112h-546zM189 800l142 120l88 -74l-175 -103z" />
    <glyph glyph-name="zacute" unicode="&#x17a;" horiz-adv-x="463" 
d="M249 347h-205v91h399l-234 -347h221v-91h-413zM300 705l90 -68l-159 -128l-65 47z" />
    <glyph glyph-name="Zdotaccent" unicode="&#x17b;" horiz-adv-x="572" 
d="M349 600h-302v109h502l-345 -597h345v-112h-546zM285 764q-33 0 -55.5 23t-22.5 55q0 33 22.5 55.5t55.5 22.5q32 0 55 -22.5t23 -55.5q0 -32 -23 -55t-55 -23z" />
    <glyph glyph-name="zdotaccent" unicode="&#x17c;" horiz-adv-x="463" 
d="M249 347h-205v91h399l-234 -347h221v-91h-413zM232 535q-33 0 -55.5 23t-22.5 55q0 33 22.5 55.5t55.5 22.5q32 0 55 -22.5t23 -55.5q0 -32 -23 -55t-55 -23z" />
    <glyph glyph-name="Zcaron" unicode="&#x17d;" horiz-adv-x="572" 
d="M349 600h-302v109h502l-345 -597h345v-112h-546zM152 910l132 -61l128 61l43 -69l-172 -90l-173 93z" />
    <glyph glyph-name="zcaron" unicode="&#x17e;" horiz-adv-x="463" 
d="M249 347h-205v91h399l-234 -347h221v-91h-413zM125 701l109 -83l110 84l55 -64l-168 -131l-159 129z" />
    <glyph glyph-name="florin" unicode="&#x192;" 
d="M66 -98q22 -3 44 -3q37 0 52 22.5t23 75.5l51 323h-85l12 78h85l22 141q6 42 17.5 76t31 58t49.5 37t75 13q27 0 49 -2t36 -5l-16 -97q-11 2 -23.5 3t-26.5 1q-20 0 -33 -5.5t-21 -17.5t-12.5 -30.5t-8.5 -44.5l-20 -127h99l-12 -78h-99l-53 -337q-7 -42 -18.5 -76
t-31 -58t-49.5 -37t-74 -13q-51 0 -78 6z" />
    <glyph glyph-name="Scommaaccent" unicode="&#x218;" horiz-adv-x="531" 
d="M120 182q10 -18 23.5 -34t30.5 -29t37 -20.5t44 -7.5q46 0 73.5 28t27.5 70q0 36 -22 59t-54.5 41.5t-71 36.5t-71 43t-54.5 62t-22 93q0 43 17 79.5t46 63.5t68 42t83 15q64 0 115 -27.5t83 -76.5l-84 -73q-19 34 -48 53.5t-64 19.5q-41 0 -66 -25.5t-25 -64.5
q0 -35 22 -57t55 -40t71.5 -35.5t71.5 -42.5t55 -61.5t22 -91.5q0 -48 -18 -88t-49 -68.5t-74 -44.5t-92 -16q-75 0 -130 33t-88 87zM333 -102q0 -44 -30.5 -84t-83.5 -75l-35 35q21 18 34 34.5t13 33.5q0 11 -4 19.5t-9 16t-9 16t-4 20.5q0 24 17 39.5t46 15.5t47 -20.5
t18 -50.5z" />
    <glyph glyph-name="scommaaccent" unicode="&#x219;" horiz-adv-x="408" 
d="M128 125q11 -21 29.5 -34.5t43.5 -13.5q23 0 38.5 10t15.5 31q0 19 -15 30t-38 20l-49 18.5t-49 25t-38 39.5t-15 62q0 28 11 52.5t31.5 43.5t49.5 30t66 11q55 0 92.5 -21t59.5 -66l-91 -41q-11 22 -28 32t-37 10q-19 0 -33 -11t-14 -30q0 -20 15.5 -32t38.5 -21
l49.5 -18.5t49.5 -24.5t38.5 -38.5t15.5 -61.5q0 -30 -12 -55.5t-34 -44t-53 -28.5t-68 -10q-63 0 -101 21.5t-61 66.5zM272 -102q0 -44 -31 -84t-84 -75l-34 35q21 18 33.5 34.5t12.5 33.5q0 11 -4 19.5t-9 16t-9 16t-4 20.5q0 24 17 39.5t46 15.5t47.5 -20.5t18.5 -50.5z
" />
    <glyph glyph-name="Tcommaaccent" unicode="&#x21a;" horiz-adv-x="470" 
d="M174 597h-163v112h449v-111h-163v-598h-123v597zM303 -102q0 -44 -30.5 -84t-83.5 -75l-35 35q21 18 34 34.5t13 33.5q0 11 -4 19.5t-9 16t-9 16t-4 20.5q0 24 17 39.5t46 15.5t47 -20.5t18 -50.5z" />
    <glyph glyph-name="tcommaaccent" unicode="&#x21b;" horiz-adv-x="282" 
d="M79 349h-64v89h64v159h114v-159h85v-89h-85v-349h-114v349zM209 -102q0 -44 -31 -84t-84 -75l-34 35q21 18 33.5 34.5t12.5 33.5q0 11 -4 19.5t-9 16t-9 16t-4 20.5q0 24 17 39.5t46 15.5t47.5 -20.5t18.5 -50.5z" />
    <glyph glyph-name="circumflex" unicode="&#x2c6;" horiz-adv-x="470" 
d="M71 576l169 135l159 -132l-54 -65l-109 85l-109 -86z" />
    <glyph glyph-name="caron" unicode="&#x2c7;" horiz-adv-x="470" 
d="M124 701l109 -83l110 84l55 -64l-168 -131l-159 129z" />
    <glyph glyph-name="breve" unicode="&#x2d8;" horiz-adv-x="470" 
d="M167 696q0 -38 15 -56.5t50 -18.5q71 0 71 75h92q0 -47 -12.5 -80t-34 -53.5t-51.5 -30t-65 -9.5q-157 0 -157 173h92z" />
    <glyph glyph-name="dotaccent" unicode="&#x2d9;" horiz-adv-x="340" 
d="M170 535q-33 0 -55.5 23t-22.5 55q0 33 22.5 55.5t55.5 22.5q32 0 55 -22.5t23 -55.5q0 -32 -23 -55t-55 -23z" />
    <glyph glyph-name="ring" unicode="&#x2da;" horiz-adv-x="470" 
d="M235 507q-23 0 -43 8t-35 22.5t-23.5 34t-8.5 42.5t8.5 42.5t23.5 34t35 23t43 8.5t43 -8.5t35 -23t23.5 -34t8.5 -42.5t-9 -42.5t-24 -33.5t-35 -22.5t-42 -8.5zM235 567q20 0 33.5 13.5t13.5 33.5t-13.5 34t-33.5 14t-33.5 -14t-13.5 -34t13.5 -33.5t33.5 -13.5z" />
    <glyph glyph-name="ogonek" unicode="&#x2db;" horiz-adv-x="470" 
d="M294 0q-21 -14 -37.5 -36t-16.5 -45q0 -53 62 -53q8 0 17.5 1t19.5 3l8 -74q-41 -12 -79 -12q-28 0 -52.5 6.5t-42.5 19.5t-28 32t-10 45q0 18 8 35t20 32t26 27t26 19h79z" />
    <glyph glyph-name="tilde" unicode="&#x2dc;" horiz-adv-x="470" 
d="M39 538q0 57 31 94.5t85 37.5q25 0 44.5 -8t37 -18t34.5 -18t35 -8q19 0 30 12.5t11 34.5h84q0 -60 -33 -96.5t-87 -36.5q-24 0 -44.5 8.5t-39 18l-35 18t-32.5 8.5q-17 0 -28 -13.5t-11 -33.5h-82v0z" />
    <glyph glyph-name="hungarumlaut" unicode="&#x2dd;" horiz-adv-x="470" 
d="M136 714l88 -67l-126 -142l-63 46zM345 711l89 -67l-143 -141l-63 46z" />
    <glyph glyph-name="tonos" unicode="&#x384;" horiz-adv-x="400" 
d="M230 705l90 -68l-159 -128l-65 47z" />
    <glyph glyph-name="dieresistonos" unicode="&#x385;" horiz-adv-x="553" 
d="M112 543q-28 0 -48 19.5t-20 48.5q0 28 20 47.5t48 19.5t48 -19.5t20 -47.5q0 -29 -20 -48.5t-48 -19.5zM221 767h111l-18 -211h-75zM441 543q-28 0 -48 19.5t-20 48.5q0 28 20 47.5t48 19.5t48 -19.5t20 -47.5q0 -29 -20 -48.5t-48 -19.5z" />
    <glyph glyph-name="Alphatonos" unicode="&#x386;" horiz-adv-x="722" 
d="M308 709h122l284 -709h-136l-62 165h-294l-61 -165h-131zM476 272l-62 166q-5 13 -12.5 35l-15.5 44l-18 53l-17 -53l-15.5 -43.5l-12.5 -35.5l-62 -166h215zM25 709h111l-18 -211h-75z" />
    <glyph glyph-name="Epsilontonos" unicode="&#x388;" horiz-adv-x="705" 
d="M243 709h387v-113h-263v-176h255v-111h-255v-196h264v-113h-388v709zM23 709h111l-18 -211h-75z" />
    <glyph glyph-name="Etatonos" unicode="&#x389;" horiz-adv-x="876" 
d="M242 709h124v-282h303v282h124v-709h-124v315h-303v-315h-124v709zM23 709h111l-18 -211h-75z" />
    <glyph glyph-name="Iotatonos" unicode="&#x38a;" horiz-adv-x="449" 
d="M242 709h124v-709h-124v709zM23 709h111l-18 -211h-75z" />
    <glyph glyph-name="Omicrontonos" unicode="&#x38c;" horiz-adv-x="967" 
d="M553 -16q-78 0 -145.5 28.5t-118 78.5t-79.5 117.5t-29 144.5q0 76 29.5 143.5t80.5 118t119 80t145 29.5q78 0 146 -28.5t118.5 -78.5t79.5 -117.5t29 -145.5q0 -77 -30 -144t-81 -117.5t-119 -79.5t-145 -29zM554 102q53 0 98 19.5t78 53.5t51.5 80t18.5 99t-18 99.5
t-51 81t-78 54t-99 19.5q-53 0 -98 -20t-78 -54.5t-51.5 -80.5t-18.5 -98t19 -98t52 -80.5t78 -54.5t97 -20zM23 709h111l-18 -211h-75z" />
    <glyph glyph-name="Upsilontonos" unicode="&#x38e;" horiz-adv-x="793" 
d="M428 317l-230 392h142l154 -288l154 288h137l-233 -388v-321h-124v317zM23 709h111l-18 -211h-75z" />
    <glyph glyph-name="Omegatonos" unicode="&#x38f;" horiz-adv-x="962" 
d="M790 366q0 51 -17.5 95t-49 77t-75.5 51.5t-97 18.5q-52 0 -96 -18.5t-75.5 -51t-49 -76.5t-17.5 -94q0 -44 13 -81t34.5 -66t50 -50.5t58.5 -33.5v-137h-267v111h127q-28 19 -54 45.5t-46 59t-32 71.5t-12 84q0 75 29.5 139.5t79.5 112t116.5 74.5t141.5 27
q78 0 144.5 -26.5t116 -74t77.5 -112.5t28 -141q0 -44 -13 -82.5t-34 -71.5t-48.5 -59.5t-55.5 -45.5h134v-111h-268v137q31 12 59 33t50 50t35 65.5t13 80.5zM23 709h111l-18 -211h-75z" />
    <glyph glyph-name="iotadieresistonos" unicode="&#x390;" horiz-adv-x="248" 
d="M67 438h114v-438h-114v438zM-39 543q-28 0 -48 19.5t-20 48.5q0 28 20 47.5t48 19.5t48 -19.5t20 -47.5q0 -29 -20 -48.5t-48 -19.5zM70 767h111l-18 -211h-75zM290 543q-28 0 -48 19.5t-20 48.5q0 28 20 47.5t48 19.5t48 -19.5t20 -47.5q0 -29 -20 -48.5t-48 -19.5z" />
    <glyph glyph-name="Alpha" unicode="&#x391;" horiz-adv-x="701" 
d="M287 709h122l284 -709h-136l-62 165h-294l-61 -165h-131zM455 272l-62 166q-5 13 -12.5 35l-15.5 44l-18 53l-17 -53l-15.5 -43.5l-12.5 -35.5l-62 -166h215z" />
    <glyph glyph-name="Beta" unicode="&#x392;" horiz-adv-x="603" 
d="M82 709h202q62 0 103.5 -13t73.5 -46q22 -22 34 -52t12 -67q0 -52 -24 -88.5t-65 -59.5q28 -6 52 -21t42 -37t28.5 -51t10.5 -63q0 -89 -57 -146q-30 -30 -80.5 -47.5t-132.5 -17.5h-199v709zM270 419q56 0 85 28q13 13 21 30.5t8 40.5q0 17 -5 33t-18 29
q-14 14 -33 20.5t-51 6.5h-73v-188h66zM292 103q71 0 103.5 27t32.5 78q0 22 -6.5 42t-20.5 34q-18 18 -45.5 26t-66.5 8h-85v-215h88z" />
    <glyph glyph-name="Gamma" unicode="&#x393;" horiz-adv-x="464" 
d="M446 709v-113h-240v-596h-124v709h364z" />
    <glyph glyph-name="uni0394" unicode="&#x394;" horiz-adv-x="709" 
d="M290 709h124l286 -709h-691zM184 113h335l-123 321l-12 32l-13.5 38l-12 35.5l-8.5 25.5q-2 -9 -7.5 -25.5l-12 -35l-13.5 -37.5l-12 -33z" />
    <glyph glyph-name="Epsilon" unicode="&#x395;" horiz-adv-x="544" 
d="M82 709h387v-113h-263v-176h255v-111h-255v-196h264v-113h-388v709z" />
    <glyph glyph-name="Zeta" unicode="&#x396;" horiz-adv-x="572" 
d="M349 600h-302v109h502l-345 -597h345v-112h-546z" />
    <glyph glyph-name="Eta" unicode="&#x397;" horiz-adv-x="715" 
d="M82 709h124v-282h303v282h124v-709h-124v315h-303v-315h-124v709z" />
    <glyph glyph-name="Theta" unicode="&#x398;" horiz-adv-x="826" 
d="M590 412v-110h-360v110h360zM412 -16q-78 0 -145.5 28.5t-118 78.5t-79.5 117.5t-29 144.5q0 76 29.5 143.5t80.5 118t119 80t145 29.5q78 0 146 -28.5t118.5 -78.5t79.5 -117.5t29 -145.5q0 -77 -30 -144t-81 -117.5t-119 -79.5t-145 -29zM413 102q53 0 98 19.5t78 53.5
t51.5 80t18.5 99t-18 99.5t-51 81t-78 54t-99 19.5q-53 0 -98 -20t-78 -54.5t-51.5 -80.5t-18.5 -98t19 -98t52 -80.5t78 -54.5t97 -20z" />
    <glyph glyph-name="Iota" unicode="&#x399;" horiz-adv-x="288" 
d="M82 709h124v-709h-124v709z" />
    <glyph glyph-name="Kappa" unicode="&#x39a;" horiz-adv-x="649" 
d="M82 709h124v-316l248 316h149l-271 -332l285 -377h-157l-254 345v-345h-124v709z" />
    <glyph glyph-name="Lambda" unicode="&#x39b;" horiz-adv-x="686" 
d="M144 0h-133l272 709h124l268 -709h-136l-150 418l-23.5 71l-22.5 71q-10 -35 -22.5 -71.5l-23.5 -67.5z" />
    <glyph glyph-name="Mu" unicode="&#x39c;" horiz-adv-x="906" 
d="M139 709h129l138 -386q13 -36 25 -75.5t23 -80.5l22.5 78t22.5 70l142 394h124l98 -709h-121l-46 381q-5 35 -8 76.5t-5 83.5q-11 -41 -22.5 -78.5t-22.5 -68.5l-143 -394h-91l-141 391q-11 31 -22.5 69.5l-22.5 77.5q-2 -42 -5.5 -83.5t-8.5 -79.5l-45 -375h-120z" />
    <glyph glyph-name="Nu" unicode="&#x39d;" horiz-adv-x="779" 
d="M82 709h114l293 -392l52 -72.5t46 -69.5q-2 61 -3.5 117.5t-1.5 116.5v300h114v-709h-112l-309 412l-43 60l-41 60q2 -50 3 -98t4 -98v-336h-116v709z" />
    <glyph glyph-name="Xi" unicode="&#x39e;" horiz-adv-x="637" 
d="M51 709h536v-114h-536v114zM588 113v-113h-539v113h539zM92 419h454v-111h-454v111z" />
    <glyph glyph-name="Omicron" unicode="&#x39f;" horiz-adv-x="826" 
d="M412 -16q-78 0 -145.5 28.5t-118 78.5t-79.5 117.5t-29 144.5q0 76 29.5 143.5t80.5 118t119 80t145 29.5q78 0 146 -28.5t118.5 -78.5t79.5 -117.5t29 -145.5q0 -77 -30 -144t-81 -117.5t-119 -79.5t-145 -29zM413 102q53 0 98 19.5t78 53.5t51.5 80t18.5 99t-18 99.5
t-51 81t-78 54t-99 19.5q-53 0 -98 -20t-78 -54.5t-51.5 -80.5t-18.5 -98t19 -98t52 -80.5t78 -54.5t97 -20z" />
    <glyph glyph-name="Pi" unicode="&#x3a0;" horiz-adv-x="715" 
d="M509 0v595h-303v-595h-124v709h551v-709h-124z" />
    <glyph glyph-name="Rho" unicode="&#x3a1;" horiz-adv-x="541" 
d="M82 709h181q66 0 115.5 -14t83.5 -48q55 -55 55 -148q0 -45 -15 -83t-43 -66q-34 -34 -85 -51t-114 -17h-55v-282h-123v709zM261 387q67 0 100 33q29 29 29 74q0 24 -7 44.5t-20 33.5q-15 15 -38 23t-60 8h-60v-216h56z" />
    <glyph glyph-name="Sigma" unicode="&#x3a3;" horiz-adv-x="610" 
d="M223 113h337v-113h-536l217 359l-107.5 175l-107.5 175h527v-110h-318l141 -231z" />
    <glyph glyph-name="Tau" unicode="&#x3a4;" horiz-adv-x="470" 
d="M174 597h-163v112h449v-111h-163v-598h-123v597z" />
    <glyph glyph-name="Upsilon" unicode="&#x3a5;" horiz-adv-x="604" 
d="M239 317l-230 392h142l154 -288l154 288h137l-233 -388v-321h-124v317z" />
    <glyph glyph-name="Phi" unicode="&#x3a6;" horiz-adv-x="817" 
d="M346 0v87h-26q-67 0 -120 19.5t-90 54t-57 83t-20 106.5q0 60 19.5 110t58 86.5t94.5 56.5t128 20h13v86h122v-86h30q66 0 119 -19t90 -53.5t57 -83t20 -107.5q0 -61 -20.5 -111t-58.5 -86t-94 -56t-126 -20h-17v-87h-122zM468 191h20q87 0 127.5 42.5t40.5 122.5
t-45 121.5t-123 41.5h-20v-328zM346 519h-16q-169 0 -169 -164q0 -81 46 -122.5t123 -41.5h16v328z" />
    <glyph glyph-name="Chi" unicode="&#x3a7;" horiz-adv-x="640" 
d="M255 369l-219 340h145l142 -241l144 241h144l-223 -338l235 -371h-143l-162 271l-160 -271h-142z" />
    <glyph glyph-name="Psi" unicode="&#x3a8;" horiz-adv-x="811" 
d="M342 172h-23q-57 0 -104.5 16t-81 49.5t-52.5 85.5t-19 125v261h124v-250q0 -53 11 -87.5t29.5 -54.5t42.5 -28t50 -8h23v428h124v-428h24q24 0 48.5 6.5t43.5 25t31 52.5t12 88v256h124v-256q0 -78 -20.5 -131.5t-56 -87t-83 -48t-100.5 -14.5h-23v-172h-124v172z" />
    <glyph glyph-name="uni03A9" unicode="&#x3a9;" horiz-adv-x="821" 
d="M649 366q0 51 -17.5 95t-49 77t-75.5 51.5t-97 18.5q-52 0 -96 -18.5t-75.5 -51t-49 -76.5t-17.5 -94q0 -44 13 -81t34.5 -66t50 -50.5t58.5 -33.5v-137h-267v111h127q-28 19 -54 45.5t-46 59t-32 71.5t-12 84q0 75 29.5 139.5t79.5 112t116.5 74.5t141.5 27
q78 0 144.5 -26.5t116 -74t77.5 -112.5t28 -141q0 -44 -13 -82.5t-34 -71.5t-48.5 -59.5t-55.5 -45.5h134v-111h-268v137q31 12 59 33t50 50t35 65.5t13 80.5z" />
    <glyph glyph-name="Iotadieresis" unicode="&#x3aa;" horiz-adv-x="288" 
d="M82 709h124v-709h-124v709zM245 757q-29 0 -49.5 20.5t-20.5 49.5t20.5 49t49.5 20t49 -20t20 -49t-20 -49.5t-49 -20.5zM44 757q-29 0 -49 20.5t-20 49.5t20 49t49 20t49.5 -20t20.5 -49t-20.5 -49.5t-49.5 -20.5z" />
    <glyph glyph-name="Upsilondieresis" unicode="&#x3ab;" horiz-adv-x="604" 
d="M239 317l-230 392h142l154 -288l154 288h137l-233 -388v-321h-124v317zM400 757q-29 0 -49.5 20.5t-20.5 49.5t20.5 49t49.5 20t49 -20t20 -49t-20 -49.5t-49 -20.5zM199 757q-29 0 -49 20.5t-20 49.5t20 49t49 20t49.5 -20t20.5 -49t-20.5 -49.5t-49.5 -20.5z" />
    <glyph glyph-name="alphatonos" unicode="&#x3ac;" 
d="M401 54q-25 -30 -62.5 -48t-86.5 -18q-47 0 -86 17t-66.5 47t-43 71.5t-15.5 90.5q0 51 16 94t44.5 74.5t68.5 49.5t88 18q46 0 83.5 -18.5t59.5 -49.5v56h113v-438h-113v54zM283 81q28 0 51 10.5t39 28.5t24.5 42.5t8.5 52.5q0 59 -35 97t-91 38q-26 0 -48 -10
t-38.5 -27.5t-26 -42t-9.5 -52.5t9.5 -53t26 -43.5t39.5 -29.5t50 -11zM362 705l90 -68l-159 -128l-65 47z" />
    <glyph glyph-name="epsilontonos" unicode="&#x3ad;" horiz-adv-x="429" 
d="M355 334q-4 3 -14.5 7.5t-24.5 9t-32 7.5t-37 3q-29 0 -50 -11t-21 -34q0 -26 19.5 -38t51.5 -12h85v-81h-92q-37 0 -57 -14t-20 -43q0 -24 22 -36.5t59 -12.5q21 0 40.5 3t35 7.5t27 9t15.5 7.5l38 -79q-7 -4 -21.5 -10.5t-36.5 -13t-51 -11t-64 -4.5q-90 0 -138 36
t-48 100q0 24 9 42t22 31t28.5 21.5t28.5 11.5q-12 4 -25 12t-23.5 20t-17.5 28.5t-7 36.5q0 30 14 52.5t38.5 38.5t58.5 24t73 8q31 0 56 -5t44.5 -12t33 -14.5l20.5 -11.5zM286 705l90 -68l-159 -128l-65 47z" />
    <glyph glyph-name="etatonos" unicode="&#x3ae;" horiz-adv-x="538" 
d="M66 438h112v-58q18 24 51.5 45.5t88.5 21.5q41 0 69 -12t47 -30q22 -22 31.5 -53t9.5 -76v-477h-114v453q0 43 -18 70.5t-62 27.5q-17 0 -35 -6.5t-33 -20t-24.5 -34t-9.5 -49.5v-240h-113v438zM337 705l90 -68l-159 -128l-65 47z" />
    <glyph glyph-name="iotatonos" unicode="&#x3af;" horiz-adv-x="248" 
d="M67 438h114v-438h-114v438zM179 705l90 -68l-159 -128l-65 47z" />
    <glyph glyph-name="upsilondieresistonos" unicode="&#x3b0;" horiz-adv-x="540" 
d="M63 438h114v-229q0 -26 3.5 -48.5t14 -39t29 -26.5t48.5 -10t47.5 10.5t27.5 28t13 39t3 43.5v232h114v-229q0 -54 -10.5 -96t-40.5 -72q-29 -29 -69 -41.5t-88 -12.5q-100 0 -157 57q-26 26 -37.5 64.5t-11.5 93.5v236zM107 543q-28 0 -48 19.5t-20 48.5q0 28 20 47.5
t48 19.5t48 -19.5t20 -47.5q0 -29 -20 -48.5t-48 -19.5zM216 767h111l-18 -211h-75zM436 543q-28 0 -48 19.5t-20 48.5q0 28 20 47.5t48 19.5t48 -19.5t20 -47.5q0 -29 -20 -48.5t-48 -19.5z" />
    <glyph glyph-name="alpha" unicode="&#x3b1;" 
d="M401 54q-25 -30 -62.5 -48t-86.5 -18q-47 0 -86 17t-66.5 47t-43 71.5t-15.5 90.5q0 51 16 94t44.5 74.5t68.5 49.5t88 18q46 0 83.5 -18.5t59.5 -49.5v56h113v-438h-113v54zM283 81q28 0 51 10.5t39 28.5t24.5 42.5t8.5 52.5q0 59 -35 97t-91 38q-26 0 -48 -10
t-38.5 -27.5t-26 -42t-9.5 -52.5t9.5 -53t26 -43.5t39.5 -29.5t50 -11z" />
    <glyph glyph-name="beta" unicode="&#x3b2;" horiz-adv-x="571" 
d="M66 539q0 43 12 82t37 69t63 48t89 18q50 0 87 -15.5t62 -42t37 -62.5t12 -76q0 -38 -10 -64t-24 -43t-28.5 -25.5t-23.5 -10.5q10 -3 34.5 -12t50 -31t45 -59t19.5 -96q0 -45 -15.5 -87t-43.5 -73.5t-68.5 -50.5t-89.5 -19q-29 0 -52.5 6.5t-40 15t-26.5 17t-13 12.5
v-241h-113v740zM179 147q3 -6 10.5 -17t20.5 -21.5t32 -18.5t45 -8q28 0 50.5 11t38 29t24 42t8.5 50t-9 50.5t-26 43t-41 30t-54 11.5h-54v89h26q46 0 71.5 28.5t25.5 84.5q0 51 -22.5 79.5t-61.5 28.5q-42 0 -63 -26.5t-21 -69.5v-416z" />
    <glyph glyph-name="gamma" unicode="&#x3b3;" horiz-adv-x="508" 
d="M505 438l-97 -221.5l-98 -219.5v-198h-113v199l-194 440h129l87 -215q10 -24 20 -53.5t18 -57.5q8 28 18.5 57t20.5 54l85 215h124v0z" />
    <glyph glyph-name="delta" unicode="&#x3b4;" horiz-adv-x="565" 
d="M277 -13q-50 0 -93 17t-74.5 47.5t-50 73t-18.5 92.5q0 49 19 91.5t50 73t70.5 48t80.5 17.5q15 0 26 -2t16 -4l-156 248v58h314v-94h-161l168 -268q25 -39 40.5 -78t15.5 -86t-17.5 -89.5t-49.5 -74.5t-77.5 -51t-102.5 -19zM155 219q0 -28 10 -52t27.5 -41t41 -27
t49.5 -10q27 0 50 9.5t39.5 27t26 40.5t9.5 50q0 29 -9 54t-26 43.5t-41 29t-53 10.5q-27 0 -50 -10.5t-39.5 -28.5t-25.5 -42.5t-9 -52.5z" />
    <glyph glyph-name="epsilon" unicode="&#x3b5;" horiz-adv-x="429" 
d="M355 334q-4 3 -14.5 7.5t-24.5 9t-32 7.5t-37 3q-29 0 -50 -11t-21 -34q0 -26 19.5 -38t51.5 -12h85v-81h-92q-37 0 -57 -14t-20 -43q0 -24 22 -36.5t59 -12.5q21 0 40.5 3t35 7.5t27 9t15.5 7.5l38 -79q-7 -4 -21.5 -10.5t-36.5 -13t-51 -11t-64 -4.5q-90 0 -138 36
t-48 100q0 24 9 42t22 31t28.5 21.5t28.5 11.5q-12 4 -25 12t-23.5 20t-17.5 28.5t-7 36.5q0 30 14 52.5t38.5 38.5t58.5 24t73 8q31 0 56 -5t44.5 -12t33 -14.5l20.5 -11.5z" />
    <glyph glyph-name="zeta" unicode="&#x3b6;" horiz-adv-x="453" 
d="M45 202q0 27 7 54t17.5 52t22.5 46t23 37l182 259h-201v97h345v-70l-226 -327q-17 -23 -33 -57.5t-16 -76.5q0 -44 21 -69t52.5 -40t68.5 -26.5t68.5 -28.5t52.5 -46t21 -79q0 -40 -15.5 -72.5t-38.5 -67.5l-87 52q18 29 26 44.5t8 29.5q0 23 -22 36.5t-55 26l-72 27
t-72 39t-55 63t-22 97.5z" />
    <glyph glyph-name="eta" unicode="&#x3b7;" horiz-adv-x="538" 
d="M66 438h112v-58q18 24 51.5 45.5t88.5 21.5q41 0 69 -12t47 -30q22 -22 31.5 -53t9.5 -76v-477h-114v453q0 43 -18 70.5t-62 27.5q-17 0 -35 -6.5t-33 -20t-24.5 -34t-9.5 -49.5v-240h-113v438z" />
    <glyph glyph-name="theta" unicode="&#x3b8;" horiz-adv-x="594" 
d="M292 -13q-67 0 -113 30t-74.5 81.5t-41.5 121t-13 147.5q0 80 14.5 151t44.5 124t77 84t113 31q68 0 115 -30t76 -81.5t41.5 -120.5t12.5 -147q0 -80 -15 -151.5t-45.5 -124.5t-78 -84t-113.5 -31zM297 88q34 0 57 20t38 54t22 78t9 92h-254q2 -52 9 -96.5t22 -77.5
t38.5 -51.5t58.5 -18.5zM293 656q-32 0 -54 -19t-37 -51t-22.5 -75t-9.5 -91h252q-2 51 -9.5 94t-22.5 74.5t-38.5 49.5t-58.5 18z" />
    <glyph glyph-name="iota" unicode="&#x3b9;" horiz-adv-x="248" 
d="M67 438h114v-438h-114v438z" />
    <glyph glyph-name="kappa" unicode="&#x3ba;" horiz-adv-x="487" 
d="M333 0l-154 203v-203h-113v438h113v-188l153 188h143l-182 -206l190 -232h-150z" />
    <glyph glyph-name="lambda" unicode="&#x3bb;" horiz-adv-x="534" 
d="M93 749h123l313 -749h-126l-87 216q-11 26 -21.5 54l-19.5 54q-5 -14 -12.5 -32.5t-16 -37.5l-16 -36.5l-12.5 -29.5l-82 -188h-133l213 457z" />
    <glyph glyph-name="uni03BC" unicode="&#x3bc;" horiz-adv-x="548" 
d="M66 438h113v-224q0 -54 23 -89.5t73 -35.5q25 0 42.5 11t29 29t17 41t5.5 47v221h113v-438h-109v53q-11 -24 -35.5 -45t-64.5 -21q-39 0 -61.5 19t-32.5 38v-245h-113v639z" />
    <glyph glyph-name="nu" unicode="&#x3bd;" horiz-adv-x="508" 
d="M3 438h129l87 -215q9 -23 19.5 -53t18.5 -58q8 28 18.5 57t20.5 54l85 215h124l-192 -438h-117z" />
    <glyph glyph-name="xi" unicode="&#x3be;" horiz-adv-x="451" 
d="M305 -161q17 27 25.5 43t8.5 32q0 22 -22 35.5t-54.5 26.5l-70.5 28.5t-70.5 41t-54.5 64t-22 97.5q0 51 20 87t45.5 58.5t50.5 34t35 13.5q-10 3 -27.5 14t-34 30.5t-28.5 47.5t-12 66q0 45 17 81.5t46.5 62.5t69 40t83.5 14q46 0 76.5 -9.5t43.5 -14.5v-99
q-11 6 -40.5 16.5t-76.5 10.5q-23 0 -42.5 -8.5t-33.5 -23.5t-22 -34.5t-8 -41.5q0 -24 9.5 -45t25.5 -36t36.5 -24t42.5 -9h90v-91h-101q-33 0 -60 -10t-46.5 -28t-30 -42.5t-10.5 -52.5q0 -44 21 -69t52.5 -40t68 -25.5t68 -27.5t52.5 -46t21 -79q0 -39 -15.5 -72.5
t-38.5 -67.5z" />
    <glyph glyph-name="omicron" unicode="&#x3bf;" horiz-adv-x="561" 
d="M276 -13q-50 0 -93 17t-74.5 48t-49.5 73.5t-18 92.5q0 48 18 90t50 73.5t76 50t96 18.5q51 0 95 -17.5t76 -48t50 -73t18 -92.5q0 -46 -17.5 -88t-49.5 -74t-77 -51t-100 -19zM281 88q27 0 49.5 10.5t39 28.5t25.5 41.5t9 49.5q0 28 -9.5 52t-26.5 41.5t-40 27.5t-49 10
q-27 0 -49.5 -10.5t-39 -28t-25.5 -41t-9 -50.5q0 -28 10 -52t27 -41.5t39.5 -27.5t48.5 -10z" />
    <glyph glyph-name="pi" unicode="&#x3c0;" horiz-adv-x="597" 
d="M103 342h-78v96h547v-96h-78v-342h-113v342h-165v-342h-113v342z" />
    <glyph glyph-name="rho" unicode="&#x3c1;" horiz-adv-x="576" 
d="M63 210q0 49 15 93t45 76.5t74 51.5t102 19q52 0 95.5 -17.5t74.5 -48.5t48.5 -73t17.5 -90q0 -46 -15.5 -88t-43.5 -74t-68 -51t-89 -19q-47 0 -83.5 17t-59.5 46v-253h-113v411zM295 82q28 0 50.5 11t38 29.5t24 42.5t8.5 51t-8.5 51t-24 42.5t-38.5 29.5t-51 11
t-50.5 -10.5t-38.5 -29t-24.5 -43t-8.5 -52.5q0 -59 34 -96t89 -37z" />
    <glyph glyph-name="sigma1" unicode="&#x3c2;" horiz-adv-x="431" 
d="M161 220q0 -54 29 -85t69 -49q30 -14 59 -25.5t51 -28t35.5 -41t13.5 -64.5t-15.5 -72.5t-38.5 -67.5l-87 52q18 29 26 44.5t8 29.5q0 16 -10 27t-28.5 20t-44 19t-56.5 25q-26 13 -50 33.5t-42 47t-28.5 59.5t-10.5 72q0 45 16.5 87.5t47 74.5t75 51.5t100.5 19.5
q31 0 62.5 -6t55.5 -17v-108q-20 13 -48.5 21.5t-57.5 8.5t-53 -9.5t-41 -26.5t-27 -40.5t-10 -51.5z" />
    <glyph glyph-name="sigma" unicode="&#x3c3;" horiz-adv-x="571" 
d="M279 -13q-50 0 -93.5 17t-75.5 48t-50.5 73.5t-18.5 92.5q0 48 18.5 90t51.5 73.5t78 49.5t97 18q26 0 49 -1.5t46.5 -4t48.5 -4t55 -1.5h46v-94h-30q-22 0 -41 2t-30 4q12 -8 27 -21t28.5 -32t22.5 -43t9 -52q0 -45 -16.5 -84.5t-47.5 -68.5t-75 -45.5t-99 -16.5z
M281 88q27 0 49.5 9t39 25t25.5 37.5t9 47.5q0 27 -10 52t-27 44.5t-39.5 31t-48.5 11.5t-48.5 -10t-39 -27.5t-26 -40.5t-9.5 -50t9.5 -50.5t26.5 -41t40 -28t49 -10.5z" />
    <glyph glyph-name="tau" unicode="&#x3c4;" horiz-adv-x="397" 
d="M386 342h-131v-342h-113v342h-131v96h375v-96z" />
    <glyph glyph-name="upsilon" unicode="&#x3c5;" horiz-adv-x="540" 
d="M63 438h114v-229q0 -26 3.5 -48.5t14 -39t29 -26.5t48.5 -10t47.5 10.5t27.5 28t13 39t3 43.5v232h114v-229q0 -54 -10.5 -96t-40.5 -72q-29 -29 -69 -41.5t-88 -12.5q-100 0 -157 57q-26 26 -37.5 64.5t-11.5 93.5v236z" />
    <glyph glyph-name="phi" unicode="&#x3c6;" horiz-adv-x="757" 
d="M306 0h-21q-57 0 -102 16t-75.5 44.5t-47 67.5t-16.5 84q0 42 12.5 77t31 63.5t39 49.5t37.5 36h107q-17 -18 -36 -42t-35.5 -52t-27.5 -59t-11 -63q0 -29 10 -53.5t28.5 -42.5t45.5 -27t61 -7v144q0 43 12.5 82t37.5 68t62.5 46t87.5 17q55 0 94.5 -17t64.5 -47
t36.5 -71.5t11.5 -90.5q0 -53 -19.5 -94t-53 -70t-80 -44t-100.5 -15h-41v-201h-113v201zM469 92q27 0 50 8t40.5 24t27.5 39.5t10 54.5q0 62 -21.5 99.5t-76.5 37.5q-25 0 -40.5 -9.5t-24.5 -25t-12 -35t-3 -39.5v-154h50z" />
    <glyph glyph-name="chi" unicode="&#x3c7;" horiz-adv-x="497" 
d="M180 224l-165 214h138l51.5 -72.5l45.5 -69.5l47.5 71l50.5 71h136l-164 -212l175 -226h-138l-55 79.5t-52 78.5q-24 -39 -53.5 -80l-57.5 -78h-137z" />
    <glyph glyph-name="psi" unicode="&#x3c8;" horiz-adv-x="693" 
d="M290 0h-27q-63 0 -102 19t-60.5 50t-29.5 69t-8 76v224h114v-219q0 -23 3 -45t12 -39t26 -27.5t46 -10.5h26v461h114v-461h27q28 0 45 11t26 28.5t11.5 38.5t2.5 42v221h114v-217q0 -41 -8 -80.5t-29.5 -70.5t-61 -50.5t-102.5 -19.5h-25v-201h-114v201z" />
    <glyph glyph-name="omega" unicode="&#x3c9;" horiz-adv-x="758" 
d="M378 82q-16 -44 -50 -69.5t-88 -25.5t-91 16.5t-60.5 45t-34 67t-10.5 81.5q0 48 15.5 89.5t35.5 73t39 52t25 26.5h108q-17 -21 -35.5 -48t-33.5 -58t-24.5 -63.5t-9.5 -64.5q0 -24 4 -45.5t14 -38.5t26 -27t40 -10q41 0 58 34.5t17 83.5v147h110v-145q0 -25 4 -46.5
t13 -38t24 -26t37 -9.5q24 0 39.5 10.5t25.5 27t14 38t4 43.5q0 31 -10 64t-25 64.5t-33.5 59t-35.5 48.5h110q6 -6 24.5 -26.5t38.5 -51.5t35.5 -72t15.5 -88q0 -44 -11 -83t-34.5 -68t-61.5 -45.5t-92 -16.5q-55 0 -88.5 26t-48.5 69z" />
    <glyph glyph-name="iotadieresis" unicode="&#x3ca;" horiz-adv-x="248" 
d="M67 438h114v-438h-114v438zM227 541q-29 0 -49.5 20.5t-20.5 49.5t20.5 49t49.5 20t49 -20t20 -49t-20 -49.5t-49 -20.5zM26 541q-29 0 -49 20.5t-20 49.5t20 49t49 20t49.5 -20t20.5 -49t-20.5 -49.5t-49.5 -20.5z" />
    <glyph glyph-name="upsilondieresis" unicode="&#x3cb;" horiz-adv-x="540" 
d="M63 438h114v-229q0 -26 3.5 -48.5t14 -39t29 -26.5t48.5 -10t47.5 10.5t27.5 28t13 39t3 43.5v232h114v-229q0 -54 -10.5 -96t-40.5 -72q-29 -29 -69 -41.5t-88 -12.5q-100 0 -157 57q-26 26 -37.5 64.5t-11.5 93.5v236zM369 541q-29 0 -49.5 20.5t-20.5 49.5t20.5 49
t49.5 20t49 -20t20 -49t-20 -49.5t-49 -20.5zM168 541q-29 0 -49 20.5t-20 49.5t20 49t49 20t49.5 -20t20.5 -49t-20.5 -49.5t-49.5 -20.5z" />
    <glyph glyph-name="omicrontonos" unicode="&#x3cc;" horiz-adv-x="561" 
d="M276 -13q-50 0 -93 17t-74.5 48t-49.5 73.5t-18 92.5q0 48 18 90t50 73.5t76 50t96 18.5q51 0 95 -17.5t76 -48t50 -73t18 -92.5q0 -46 -17.5 -88t-49.5 -74t-77 -51t-100 -19zM281 88q27 0 49.5 10.5t39 28.5t25.5 41.5t9 49.5q0 28 -9.5 52t-26.5 41.5t-40 27.5t-49 10
q-27 0 -49.5 -10.5t-39 -28t-25.5 -41t-9 -50.5q0 -28 10 -52t27 -41.5t39.5 -27.5t48.5 -10zM343 705l90 -68l-159 -128l-65 47z" />
    <glyph glyph-name="upsilontonos" unicode="&#x3cd;" horiz-adv-x="540" 
d="M63 438h114v-229q0 -26 3.5 -48.5t14 -39t29 -26.5t48.5 -10t47.5 10.5t27.5 28t13 39t3 43.5v232h114v-229q0 -54 -10.5 -96t-40.5 -72q-29 -29 -69 -41.5t-88 -12.5q-100 0 -157 57q-26 26 -37.5 64.5t-11.5 93.5v236zM339 705l90 -68l-159 -128l-65 47z" />
    <glyph glyph-name="omegatonos" unicode="&#x3ce;" horiz-adv-x="758" 
d="M378 82q-16 -44 -50 -69.5t-88 -25.5t-91 16.5t-60.5 45t-34 67t-10.5 81.5q0 48 15.5 89.5t35.5 73t39 52t25 26.5h108q-17 -21 -35.5 -48t-33.5 -58t-24.5 -63.5t-9.5 -64.5q0 -24 4 -45.5t14 -38.5t26 -27t40 -10q41 0 58 34.5t17 83.5v147h110v-145q0 -25 4 -46.5
t13 -38t24 -26t37 -9.5q24 0 39.5 10.5t25.5 27t14 38t4 43.5q0 31 -10 64t-25 64.5t-33.5 59t-35.5 48.5h110q6 -6 24.5 -26.5t38.5 -51.5t35.5 -72t15.5 -88q0 -44 -11 -83t-34.5 -68t-61.5 -45.5t-92 -16.5q-55 0 -88.5 26t-48.5 69zM443 705l90 -68l-159 -128l-65 47z
" />
    <glyph glyph-name="afii10023" unicode="&#x401;" horiz-adv-x="544" 
d="M82 709h387v-113h-263v-176h255v-111h-255v-196h264v-113h-388v709zM385 757q-29 0 -49.5 20.5t-20.5 49.5t20.5 49t49.5 20t49 -20t20 -49t-20 -49.5t-49 -20.5zM184 757q-29 0 -49 20.5t-20 49.5t20 49t49 20t49.5 -20t20.5 -49t-20.5 -49.5t-49.5 -20.5z" />
    <glyph glyph-name="afii10051" unicode="&#x402;" horiz-adv-x="723" 
d="M314 418q17 1 36 3q17 2 37.5 3t42.5 1q57 0 103.5 -12t80.5 -38t52.5 -66t18.5 -96q0 -43 -14.5 -82.5t-47.5 -70t-87.5 -49t-134.5 -18.5v103q77 0 116.5 28.5t39.5 85.5q0 48 -32 79.5t-105 31.5q-20 0 -39 -1t-34 -3q-18 -2 -33 -3v-314h-124v597h-180v112h484v-112
h-180v-179z" />
    <glyph glyph-name="afii10052" unicode="&#x403;" horiz-adv-x="464" 
d="M446 709v-113h-240v-596h-124v709h364zM166 800l142 120l88 -74l-175 -103z" />
    <glyph glyph-name="afii10053" unicode="&#x404;" horiz-adv-x="641" 
d="M593 31q-39 -20 -90 -31.5t-107 -11.5q-80 0 -146 28.5t-112.5 77.5t-72 115t-25.5 141q0 81 27 149t75 117t114.5 76.5t145.5 27.5q54 0 100 -10t87 -29v-132q-35 25 -85 42t-103 17q-42 0 -79.5 -13.5t-67 -38.5t-50 -60.5t-29.5 -80.5h334v-110h-335q7 -44 26.5 -81.5
t50 -64.5t70.5 -42.5t88 -15.5q56 0 102.5 15t81.5 40v-125v0z" />
    <glyph glyph-name="afii10054" unicode="&#x405;" horiz-adv-x="531" 
d="M120 182q10 -18 23.5 -34t30.5 -29t37 -20.5t44 -7.5q46 0 73.5 28t27.5 70q0 36 -22 59t-54.5 41.5t-71 36.5t-71 43t-54.5 62t-22 93q0 43 17 79.5t46 63.5t68 42t83 15q64 0 115 -27.5t83 -76.5l-84 -73q-19 34 -48 53.5t-64 19.5q-41 0 -66 -25.5t-25 -64.5
q0 -35 22 -57t55 -40t71.5 -35.5t71.5 -42.5t55 -61.5t22 -91.5q0 -48 -18 -88t-49 -68.5t-74 -44.5t-92 -16q-75 0 -130 33t-88 87z" />
    <glyph glyph-name="afii10055" unicode="&#x406;" horiz-adv-x="288" 
d="M82 709h124v-709h-124v709z" />
    <glyph glyph-name="afii10056" unicode="&#x407;" horiz-adv-x="304" 
d="M90 709h124v-709h-124v709zM232 758q-28 0 -47.5 19.5t-19.5 47.5q0 27 19.5 46.5t47.5 19.5q27 0 46.5 -19.5t19.5 -46.5q0 -28 -19.5 -47.5t-46.5 -19.5zM72 758q-27 0 -46.5 19.5t-19.5 47.5q0 27 19.5 46.5t46.5 19.5q28 0 47.5 -19.5t19.5 -46.5q0 -28 -19.5 -47.5
t-47.5 -19.5z" />
    <glyph glyph-name="afii10057" unicode="&#x408;" horiz-adv-x="434" 
d="M91 168q14 -29 35 -47.5t48 -18.5q11 0 20 4t15 10q12 12 17 32t5 56v505h123v-500q0 -64 -12.5 -104.5t-42.5 -70.5q-47 -47 -133 -47q-26 0 -51 8t-46.5 22.5t-39 34.5t-29.5 44z" />
    <glyph glyph-name="afii10058" unicode="&#x409;" horiz-adv-x="954" 
d="M237 266q0 -72 -7.5 -123.5t-28.5 -85.5t-57.5 -50t-94.5 -16q-11 0 -21 0.5t-13 1.5v106q4 0 10 -0.5t14 -0.5q38 0 56 22t18 77v512h448v-284h105q123 0 190.5 -52t67.5 -158q0 -48 -17.5 -87.5t-51 -68t-82 -44t-110.5 -15.5h-226v595h-200v-329zM796 211
q0 48 -28 78.5t-98 30.5h-109v-216h106q63 0 96 28t33 79z" />
    <glyph glyph-name="afii10059" unicode="&#x40a;" horiz-adv-x="983" 
d="M953 215q0 -48 -17.5 -87.5t-50.5 -68t-82 -44t-112 -15.5h-228v317h-257v-317h-124v709h124v-284h257v284h124v-284h107q122 0 190.5 -51t68.5 -159zM825 211q0 49 -28 79t-98 30h-112v-216h109q63 0 96 29t33 78z" />
    <glyph glyph-name="afii10060" unicode="&#x40b;" horiz-adv-x="734" 
d="M314 597v-177q17 1 37 2q17 1 39 2t47 1q34 0 76 -6t79 -29t62 -68t25 -122v-200h-124v183q0 40 -9 66t-25.5 41t-41 21t-54.5 6q-23 0 -43 -1t-35 -2q-18 -1 -33 -2v-312h-124v597h-180v112h485v-112h-181z" />
    <glyph glyph-name="afii10061" unicode="&#x40c;" horiz-adv-x="649" 
d="M82 709h124v-316l248 316h149l-271 -332l285 -377h-157l-254 345v-345h-124v709zM243 800l142 120l88 -74l-175 -103z" />
    <glyph glyph-name="afii10062" unicode="&#x40e;" horiz-adv-x="626" 
d="M285 0h-137l105 220l-242 489h141l109 -237q7 -17 16 -37l17 -38.5l14.5 -34t8.5 -22.5l12 27l21 47.5l26.5 59.5l29.5 65l75 170h135zM253 922q0 -38 15 -56.5t50 -18.5q71 0 71 75h92q0 -47 -12.5 -80t-34 -53.5t-51.5 -30t-65 -9.5q-157 0 -157 173h92z" />
    <glyph glyph-name="afii10145" unicode="&#x40f;" horiz-adv-x="715" 
d="M206 709v-595h303v595h124v-709h-216v-161h-118v161h-217v709h124z" />
    <glyph glyph-name="afii10017" unicode="&#x410;" horiz-adv-x="701" 
d="M287 709h122l284 -709h-136l-62 165h-294l-61 -165h-131zM455 272l-62 166q-5 13 -12.5 35l-15.5 44l-18 53l-17 -53l-15.5 -43.5l-12.5 -35.5l-62 -166h215z" />
    <glyph glyph-name="afii10018" unicode="&#x411;" horiz-adv-x="608" 
d="M572 215q0 -48 -17.5 -87.5t-51 -68t-82 -44t-110.5 -15.5h-229v709h415v-114h-291v-170h108q126 0 192 -52.5t66 -157.5zM444 211q0 48 -28 78.5t-98 30.5h-112v-216h109q63 0 96 28t33 79z" />
    <glyph glyph-name="afii10019" unicode="&#x412;" horiz-adv-x="603" 
d="M82 709h202q62 0 103.5 -13t73.5 -46q22 -22 34 -52t12 -67q0 -52 -24 -88.5t-65 -59.5q28 -6 52 -21t42 -37t28.5 -51t10.5 -63q0 -89 -57 -146q-30 -30 -80.5 -47.5t-132.5 -17.5h-199v709zM270 419q56 0 85 28q13 13 21 30.5t8 40.5q0 17 -5 33t-18 29
q-14 14 -33 20.5t-51 6.5h-73v-188h66zM292 103q71 0 103.5 27t32.5 78q0 22 -6.5 42t-20.5 34q-18 18 -45.5 26t-66.5 8h-85v-215h88z" />
    <glyph glyph-name="afii10020" unicode="&#x413;" horiz-adv-x="464" 
d="M446 709v-113h-240v-596h-124v709h364z" />
    <glyph glyph-name="afii10021" unicode="&#x414;" horiz-adv-x="707" 
d="M479 595h-210v-216q0 -67 -8.5 -114t-22 -78.5t-29 -48.5t-29.5 -24h299v481zM7 -129v230q19 3 43 18t45.5 44.5t36 75.5t14.5 111v359h457v-595h84v-243h-119v129h-442v-129h-119z" />
    <glyph glyph-name="afii10022" unicode="&#x415;" horiz-adv-x="544" 
d="M82 709h387v-113h-263v-176h255v-111h-255v-196h264v-113h-388v709z" />
    <glyph glyph-name="afii10024" unicode="&#x416;" horiz-adv-x="1006" 
d="M439 345l-253 -345h-151l283 362l-284 347h157l124 -159l124 -158v317h124v-316l248 316h149l-271 -332l285 -377h-157l-254 345v-345h-124v345z" />
    <glyph glyph-name="afii10025" unicode="&#x417;" horiz-adv-x="572" 
d="M159 189q5 -47 36 -73t82 -26q55 0 87 30.5t32 79.5q0 50 -34.5 81t-104.5 31h-64v103h61q60 0 92 28t32 75q0 44 -28 71t-75 27t-73.5 -24t-29.5 -63h-127q2 41 18.5 76.5t46.5 62t72.5 41.5t97.5 15q51 0 92.5 -16t70.5 -43t45 -63t16 -77q0 -57 -26.5 -96t-71.5 -59
q24 -6 45.5 -22t37.5 -38t25.5 -49t9.5 -55q0 -43 -15 -83t-46 -71t-77 -49.5t-109 -18.5q-51 0 -95 13t-76 39t-51.5 64.5t-22.5 88.5h127z" />
    <glyph glyph-name="afii10026" unicode="&#x418;" horiz-adv-x="778" 
d="M82 0v709h123v-288q0 -79 -1 -142.5t-3 -97.5l379 528h116v-709h-124v287q0 79 1 142t3 97l-378 -526h-116z" />
    <glyph glyph-name="afii10027" unicode="&#x419;" horiz-adv-x="778" 
d="M82 0v709h123v-288q0 -79 -1 -142.5t-3 -97.5l379 528h116v-709h-124v287q0 79 1 142t3 97l-378 -526h-116zM326 922q0 -38 15 -56.5t50 -18.5q71 0 71 75h92q0 -47 -12.5 -80t-34 -53.5t-51.5 -30t-65 -9.5q-157 0 -157 173h92z" />
    <glyph glyph-name="afii10028" unicode="&#x41a;" horiz-adv-x="649" 
d="M82 709h124v-316l248 316h149l-271 -332l285 -377h-157l-254 345v-345h-124v709z" />
    <glyph glyph-name="afii10029" unicode="&#x41b;" horiz-adv-x="658" 
d="M237 266q0 -72 -7.5 -123.5t-28.5 -85.5t-57.5 -50t-94.5 -16q-11 0 -21 0.5t-13 1.5v106q4 0 10 -0.5t14 -0.5q38 0 56 22t18 77v512h463v-709h-124v595h-215v-329z" />
    <glyph glyph-name="afii10030" unicode="&#x41c;" horiz-adv-x="906" 
d="M139 709h129l138 -386q13 -36 25 -75.5t23 -80.5l22.5 78t22.5 70l142 394h124l98 -709h-121l-46 381q-5 35 -8 76.5t-5 83.5q-11 -41 -22.5 -78.5t-22.5 -68.5l-143 -394h-91l-141 391q-11 31 -22.5 69.5l-22.5 77.5q-2 -42 -5.5 -83.5t-8.5 -79.5l-45 -375h-120z" />
    <glyph glyph-name="afii10031" unicode="&#x41d;" horiz-adv-x="715" 
d="M82 709h124v-282h303v282h124v-709h-124v315h-303v-315h-124v709z" />
    <glyph glyph-name="afii10032" unicode="&#x41e;" horiz-adv-x="826" 
d="M412 -16q-78 0 -145.5 28.5t-118 78.5t-79.5 117.5t-29 144.5q0 76 29.5 143.5t80.5 118t119 80t145 29.5q78 0 146 -28.5t118.5 -78.5t79.5 -117.5t29 -145.5q0 -77 -30 -144t-81 -117.5t-119 -79.5t-145 -29zM413 102q53 0 98 19.5t78 53.5t51.5 80t18.5 99t-18 99.5
t-51 81t-78 54t-99 19.5q-53 0 -98 -20t-78 -54.5t-51.5 -80.5t-18.5 -98t19 -98t52 -80.5t78 -54.5t97 -20z" />
    <glyph glyph-name="afii10033" unicode="&#x41f;" horiz-adv-x="715" 
d="M509 0v595h-303v-595h-124v709h551v-709h-124z" />
    <glyph glyph-name="afii10034" unicode="&#x420;" horiz-adv-x="541" 
d="M82 709h181q66 0 115.5 -14t83.5 -48q55 -55 55 -148q0 -45 -15 -83t-43 -66q-34 -34 -85 -51t-114 -17h-55v-282h-123v709zM261 387q67 0 100 33q29 29 29 74q0 24 -7 44.5t-20 33.5q-15 15 -38 23t-60 8h-60v-216h56z" />
    <glyph glyph-name="afii10035" unicode="&#x421;" horiz-adv-x="645" 
d="M596 31q-39 -20 -90 -31t-107 -11q-80 0 -145.5 28t-112.5 77t-72.5 115t-25.5 141q0 81 27 148.5t75 116.5t114.5 76.5t145.5 27.5q105 0 187 -38v-134q-35 26 -84.5 42.5t-102.5 16.5q-49 0 -91.5 -18t-73.5 -51t-49 -79.5t-18 -104.5q0 -52 16.5 -97.5t47.5 -79.5
t75.5 -53.5t99.5 -19.5q56 0 102.5 14.5t81.5 40.5v-127v0z" />
    <glyph glyph-name="afii10036" unicode="&#x422;" horiz-adv-x="470" 
d="M174 597h-163v112h449v-111h-163v-598h-123v597z" />
    <glyph glyph-name="afii10037" unicode="&#x423;" horiz-adv-x="626" 
d="M285 0h-137l105 220l-242 489h141l109 -237q7 -17 16 -37l17 -38.5l14.5 -34t8.5 -22.5l12 27l21 47.5l26.5 59.5l29.5 65l75 170h135z" />
    <glyph glyph-name="afii10038" unicode="&#x424;" horiz-adv-x="817" 
d="M346 0v87h-26q-67 0 -120 19.5t-90 54t-57 83t-20 106.5q0 60 19.5 110t58 86.5t94.5 56.5t128 20h13v86h122v-86h30q66 0 119 -19t90 -53.5t57 -83t20 -107.5q0 -61 -20.5 -111t-58.5 -86t-94 -56t-126 -20h-17v-87h-122zM468 191h20q87 0 127.5 42.5t40.5 122.5
t-45 121.5t-123 41.5h-20v-328zM346 519h-16q-169 0 -169 -164q0 -81 46 -122.5t123 -41.5h16v328z" />
    <glyph glyph-name="afii10039" unicode="&#x425;" horiz-adv-x="640" 
d="M255 369l-219 340h145l142 -241l144 241h144l-223 -338l235 -371h-143l-162 271l-160 -271h-142z" />
    <glyph glyph-name="afii10040" unicode="&#x426;" horiz-adv-x="737" 
d="M717 114v-243h-119v129h-516v709h124v-595h303v595h124v-595h84z" />
    <glyph glyph-name="afii10041" unicode="&#x427;" horiz-adv-x="632" 
d="M426 0v289q-16 -2 -36 -3q-17 -1 -40.5 -1.5t-52.5 -0.5q-34 0 -76 6t-79 29t-62 68t-25 122v200h124v-183q0 -40 9 -66t25.5 -41t41 -21t54.5 -6q24 0 45.5 0.5t37.5 1.5q18 1 34 3v312h124v-709h-124z" />
    <glyph glyph-name="afii10042" unicode="&#x428;" horiz-adv-x="996" 
d="M82 0v709h124v-595h230v595h124v-595h230v595h124v-709h-832z" />
    <glyph glyph-name="afii10043" unicode="&#x429;" horiz-adv-x="1018" 
d="M82 0v709h124v-595h230v595h124v-595h230v595h124v-595h84v-243h-118v129h-798z" />
    <glyph glyph-name="afii10044" unicode="&#x42a;" horiz-adv-x="678" 
d="M648 215q0 -47 -17 -86.5t-50 -68t-82 -44.5t-112 -16h-229v596h-147v113h271v-284h108q124 0 191 -52t67 -158zM520 211q0 48 -28 78.5t-98 30.5h-112v-216h109q64 0 96.5 28.5t32.5 78.5z" />
    <glyph glyph-name="afii10045" unicode="&#x42b;" horiz-adv-x="857" 
d="M775 0h-124v709h124v-709zM572 215q0 -48 -17.5 -87.5t-51 -68t-82 -44t-110.5 -15.5h-229v709h124v-284h108q126 0 192 -52.5t66 -157.5zM444 211q0 48 -28 78.5t-98 30.5h-112v-216h109q63 0 96 28t33 79z" />
    <glyph glyph-name="afii10046" unicode="&#x42c;" horiz-adv-x="602" 
d="M572 215q0 -48 -17.5 -87.5t-51 -68t-82 -44t-110.5 -15.5h-229v709h124v-284h108q126 0 192 -52.5t66 -157.5zM444 211q0 48 -28 78.5t-98 30.5h-112v-216h109q63 0 96 28t33 79z" />
    <glyph glyph-name="afii10047" unicode="&#x42d;" horiz-adv-x="641" 
d="M47 156q35 -25 86 -40t106 -15q48 0 87.5 15.5t69 43t48 64.5t24.5 81h-337v110h334q-9 43 -29.5 79t-50.5 61t-68 39t-80 14q-57 0 -104 -15.5t-81 -41.5v128q38 20 85.5 30.5t101.5 10.5q78 0 144.5 -26.5t114.5 -74.5t75.5 -115.5t27.5 -149.5q0 -77 -25.5 -143.5
t-73 -115.5t-114 -77.5t-148.5 -28.5q-55 0 -104 10.5t-89 29.5v127z" />
    <glyph glyph-name="afii10048" unicode="&#x42e;" horiz-adv-x="1078" 
d="M82 709h124v-292h120q11 64 43 120.5t79.5 97.5t106.5 65t125 24q75 0 140.5 -28.5t114 -78.5t76.5 -117.5t28 -145.5q0 -77 -29.5 -144t-79 -117.5t-115 -79.5t-137.5 -29q-69 0 -130 24.5t-108.5 67.5t-78 101.5t-38.5 127.5h-117v-305h-124v709zM679 102
q50 0 92.5 19.5t73.5 53.5t48.5 80t17.5 99t-17 99.5t-48 81t-73.5 54t-93.5 19.5q-50 0 -92.5 -20t-73.5 -54.5t-48.5 -80.5t-17.5 -98t18 -98t49.5 -80.5t73.5 -54.5t91 -20z" />
    <glyph glyph-name="afii10049" unicode="&#x42f;" horiz-adv-x="579" 
d="M14 0l107.5 155.5l107.5 155.5q-40 5 -72.5 21.5t-55.5 42t-35.5 59t-12.5 72.5q0 94 63.5 148.5t181.5 54.5h199v-709h-123v310h-14l-206 -310h-140zM179 502q0 -24 7 -43.5t23 -33t43 -21t66 -7.5h56v209h-68q-36 0 -60 -8.5t-39 -23t-21.5 -33.5t-6.5 -39z" />
    <glyph glyph-name="afii10065" unicode="&#x430;" 
d="M401 54q-25 -30 -62.5 -48t-86.5 -18q-47 0 -86 17t-66.5 47t-43 71.5t-15.5 90.5q0 51 16 94t44.5 74.5t68.5 49.5t88 18q46 0 83.5 -18.5t59.5 -49.5v56h113v-438h-113v54zM283 81q28 0 51 10.5t39 28.5t24.5 42.5t8.5 52.5q0 59 -35 97t-91 38q-26 0 -48 -10
t-38.5 -27.5t-26 -42t-9.5 -52.5t9.5 -53t26 -43.5t39.5 -29.5t50 -11z" />
    <glyph glyph-name="afii10066" unicode="&#x431;" horiz-adv-x="569" 
d="M412 218q0 27 -9.5 51t-26 41.5t-39 28t-49.5 10.5t-49 -10.5t-38.5 -28.5t-25.5 -41.5t-9 -49.5q0 -27 9 -50.5t25.5 -41t40 -28t51.5 -10.5q26 0 48 10t38 27.5t25 41t9 50.5zM149 368q15 23 36 38.5t43.5 25t45.5 13.5t43 4q48 0 87 -18t67 -49.5t43 -73t15 -87.5
q0 -51 -19 -93.5t-52 -74t-78 -49t-96 -17.5q-52 0 -90 15.5t-65 41t-44 58t-26.5 66.5t-13 66t-3.5 57q0 49 3 97t11 92.5t22.5 83.5t38.5 70q42 54 104 80.5t132 26.5h119v-115h-111q-53 0 -95.5 -14t-70.5 -51q-14 -18 -23 -43.5t-14 -52.5t-7 -52.5t-2 -44.5z" />
    <glyph glyph-name="afii10067" unicode="&#x432;" horiz-adv-x="493" 
d="M457 132q0 -25 -7.5 -49t-27 -42.5t-53 -29.5t-86.5 -11h-217v438h218q63 0 103.5 -26.5t40.5 -85.5q0 -32 -15.5 -54t-42.5 -34q34 -7 60.5 -34.5t26.5 -71.5zM339 133q0 27 -17 40t-55 13h-88v-102h88q72 0 72 49zM311 312q0 42 -56 42h-76v-91h73q25 0 42 12t17 37z
" />
    <glyph glyph-name="afii10068" unicode="&#x433;" horiz-adv-x="368" 
d="M353 342h-173v-342h-114v438h287v-96z" />
    <glyph glyph-name="afii10069" unicode="&#x434;" horiz-adv-x="574" 
d="M437 -108v108h-308v-108h-113v192q15 2 33 9.5t33 21.5t25.5 33.5t10.5 45.5v244h352v-341h80v-205h-113zM356 343h-125v-122q0 -32 -4.5 -53t-11.5 -35.5t-15.5 -22.5t-15.5 -13h172v246z" />
    <glyph glyph-name="afii10070" unicode="&#x435;" horiz-adv-x="520" 
d="M471 85q-38 -49 -88 -73.5t-119 -24.5q-46 0 -86.5 15.5t-71 44.5t-48 72t-17.5 98q0 52 17 95t47 74t70.5 48t87.5 17q48 0 87.5 -15.5t68.5 -44.5t45 -71t16 -94q0 -9 -0.5 -18t-0.5 -19h-325q1 -24 10.5 -44.5t25.5 -36t37.5 -24t47.5 -8.5q38 0 68 16.5t53 45.5z
M364 265q0 20 -7 38t-20.5 32t-32.5 22.5t-43 8.5q-46 0 -74 -30t-32 -71h209z" />
    <glyph glyph-name="afii10072" unicode="&#x436;" horiz-adv-x="729" 
d="M575 0l-154 203v-203h-113v203l-154 -203h-150l190 219l-183 219h149l148 -187v187h113v-188l153 188h143l-182 -206l190 -232h-150z" />
    <glyph glyph-name="afii10073" unicode="&#x437;" horiz-adv-x="433" 
d="M31 406q28 19 73.5 32t104.5 13q36 0 66.5 -7.5t53.5 -23t36 -39t13 -55.5q0 -18 -6 -33t-15 -26.5t-20 -19.5t-21 -13q11 -3 24.5 -10.5t25.5 -21t20 -32t8 -42.5q0 -36 -15 -62.5t-40.5 -44t-60 -26t-74.5 -8.5q-61 0 -108.5 13t-76.5 31l41 82q8 -4 22.5 -9.5
t32 -10.5t37 -8.5t38.5 -3.5q37 0 60 12t23 39q0 53 -75 53h-71v80h63q68 0 68 51q0 24 -18.5 34.5t-51.5 10.5q-35 0 -66.5 -10t-49.5 -21z" />
    <glyph glyph-name="afii10074" unicode="&#x438;" horiz-adv-x="557" 
d="M66 0v438h114v-277l207 277h104v-438h-113v276l-208 -276h-104z" />
    <glyph glyph-name="afii10075" unicode="&#x439;" horiz-adv-x="557" 
d="M66 0v438h114v-277l207 277h104v-438h-113v276l-208 -276h-104zM216 696q0 -38 14.5 -62t49.5 -24q36 0 53.5 24t17.5 62h92q0 -47 -12 -81.5t-34 -57t-51.5 -33t-64.5 -10.5q-78 0 -117.5 47t-39.5 135h92z" />
    <glyph glyph-name="afii10076" unicode="&#x43a;" horiz-adv-x="487" 
d="M333 0l-154 203v-203h-113v438h113v-188l153 188h143l-182 -206l190 -232h-150z" />
    <glyph glyph-name="afii10077" unicode="&#x43b;" horiz-adv-x="529" 
d="M18 86h15q60 0 60 71v281h370v-438h-113v342h-144v-158q0 -44 -8 -79.5t-27 -60.5t-49.5 -38.5t-76.5 -13.5q-10 0 -17 1t-10 1v92z" />
    <glyph glyph-name="afii10078" unicode="&#x43c;" horiz-adv-x="678" 
d="M117 438h117l85 -236q9 -25 12.5 -39l6.5 -25l7 25.5t12 36.5l86 238h118l83 -438h-119l-23 142q-8 48 -13 86.5t-7 65.5q-7 -26 -19.5 -63.5t-29.5 -82.5l-54 -148h-85l-54 147l-28.5 81.5t-19.5 64.5q-3 -31 -8 -64.5l-11 -71.5l-25 -157h-114z" />
    <glyph glyph-name="afii10079" unicode="&#x43d;" horiz-adv-x="539" 
d="M360 0v181h-181v-181h-113v438h113v-163h181v163h113v-438h-113z" />
    <glyph glyph-name="afii10080" unicode="&#x43e;" horiz-adv-x="561" 
d="M276 -13q-50 0 -93 17t-74.5 48t-49.5 73.5t-18 92.5q0 48 18 90t50 73.5t76 50t96 18.5q51 0 95 -17.5t76 -48t50 -73t18 -92.5q0 -46 -17.5 -88t-49.5 -74t-77 -51t-100 -19zM281 88q27 0 49.5 10.5t39 28.5t25.5 41.5t9 49.5q0 28 -9.5 52t-26.5 41.5t-40 27.5t-49 10
q-27 0 -49.5 -10.5t-39 -28t-25.5 -41t-9 -50.5q0 -28 10 -52t27 -41.5t39.5 -27.5t48.5 -10z" />
    <glyph glyph-name="afii10081" unicode="&#x43f;" horiz-adv-x="538" 
d="M359 0v342h-180v-342h-113v438h406v-438h-113z" />
    <glyph glyph-name="afii10082" unicode="&#x440;" 
d="M66 438h113v-59q24 33 61.5 51.5t88.5 18.5q46 0 84.5 -17.5t66.5 -48t43.5 -72.5t15.5 -90q0 -46 -15.5 -88t-43.5 -74t-68.5 -51t-89.5 -19q-47 0 -83.5 17t-59.5 46v-253h-113v639zM298 82q28 0 50.5 11t38 29.5t24 42.5t8.5 51t-8.5 51t-24 42.5t-38.5 29.5t-51 11
t-50.5 -10.5t-38.5 -29t-24.5 -43t-8.5 -52.5q0 -59 34 -96t89 -37z" />
    <glyph glyph-name="afii10083" unicode="&#x441;" horiz-adv-x="441" 
d="M398 13q-23 -10 -56.5 -17.5t-69.5 -7.5q-57 0 -100 19t-72 51t-44 73t-15 85q0 45 16.5 87.5t47 74.5t75 51.5t100.5 19.5q31 0 62.5 -6t55.5 -17v-107q-20 12 -49 20.5t-58 8.5q-28 0 -52 -9.5t-41 -26.5t-27 -40.5t-10 -51.5q0 -27 9 -50.5t26 -41.5t41 -28.5
t54 -10.5q29 0 57 8t50 24v-108v0z" />
    <glyph glyph-name="afii10084" unicode="&#x442;" horiz-adv-x="397" 
d="M386 342h-131v-342h-113v342h-131v96h375v-96z" />
    <glyph glyph-name="afii10085" unicode="&#x443;" horiz-adv-x="510" 
d="M202 21l-200 417h132l79 -177l20 -44l16.5 -39.5l14.5 -34.5l22.5 54.5l22.5 54.5l79 186h120l-290 -639h-120z" />
    <glyph glyph-name="afii10086" unicode="&#x444;" horiz-adv-x="718" 
d="M41 213q0 56 18.5 99.5t51.5 73t78 45t98 15.5h14v192h113v-192h14q60 0 106.5 -15.5t78 -44.5t48 -70t16.5 -92q0 -57 -18.5 -100t-51.5 -72.5t-78 -44.5t-97 -15h-18v-193h-113v193h-12q-121 0 -184.5 60t-63.5 161zM560 220q0 65 -36.5 96t-93.5 31h-16v-257h20
q57 0 91.5 31.5t34.5 98.5zM158 217q0 -65 37 -96t93 -31h13v257h-17q-56 0 -91 -31t-35 -99z" />
    <glyph glyph-name="afii10087" unicode="&#x445;" horiz-adv-x="497" 
d="M180 224l-165 214h138l51.5 -72.5l45.5 -69.5l47.5 71l50.5 71h136l-164 -212l175 -226h-138l-55 79.5t-52 78.5q-24 -39 -53.5 -80l-57.5 -78h-137z" />
    <glyph glyph-name="afii10088" unicode="&#x446;" horiz-adv-x="576" 
d="M439 -122v122h-373v438h113v-341h180v341h113v-341h80v-219h-113z" />
    <glyph glyph-name="afii10089" unicode="&#x447;" horiz-adv-x="504" 
d="M324 0v153q-14 -3 -31 -5q-14 -2 -34 -3t-43 -1q-38 0 -70 9.5t-54.5 30t-35 53t-12.5 79.5v122h113v-116q0 -38 15 -59.5t59 -21.5q40 0 66 3q15 2 27 4v190h114v-438h-114z" />
    <glyph glyph-name="afii10090" unicode="&#x448;" horiz-adv-x="775" 
d="M66 0v438h113v-341h151v341h114v-341h151v341h114v-438h-643z" />
    <glyph glyph-name="afii10091" unicode="&#x449;" horiz-adv-x="813" 
d="M66 0v438h113v-341h151v341h114v-341h151v341h114v-341h80v-219h-113v122h-610z" />
    <glyph glyph-name="afii10092" unicode="&#x44a;" horiz-adv-x="531" 
d="M501 147q0 -65 -44 -106t-133 -41h-212v343h-102v95h215v-149q12 0 36.5 0.5t56.5 0.5q89 0 136 -34t47 -109zM309 204q-26 0 -49.5 -0.5t-34.5 -0.5v-117h70q46 0 66.5 15t20.5 44t-17 44t-56 15z" />
    <glyph glyph-name="afii10093" unicode="&#x44b;" horiz-adv-x="699" 
d="M519 0v438h114v-438h-114zM455 147q0 -65 -44 -106t-133 -41h-212v438h113v-149q12 0 36.5 0.5t56.5 0.5q89 0 136 -34t47 -109zM263 204q-26 0 -49.5 -0.5t-34.5 -0.5v-117h70q46 0 66.5 15t20.5 44t-17 44t-56 15z" />
    <glyph glyph-name="afii10094" unicode="&#x44c;" horiz-adv-x="485" 
d="M455 147q0 -65 -44 -106t-133 -41h-212v438h113v-149q12 0 36.5 0.5t56.5 0.5q89 0 136 -34t47 -109zM263 204q-26 0 -49.5 -0.5t-34.5 -0.5v-117h70q46 0 66.5 15t20.5 44t-17 44t-56 15z" />
    <glyph glyph-name="afii10095" unicode="&#x44d;" horiz-adv-x="458" 
d="M56 423q24 11 58 19t71 8q57 0 100.5 -18.5t72.5 -50t43.5 -73.5t14.5 -89q0 -49 -15.5 -91t-45 -73t-72.5 -49t-98 -18q-43 0 -76.5 7.5t-53.5 16.5v101q12 -7 43 -19.5t79 -12.5q50 0 81 27.5t39 72.5h-197v80h197q-8 44 -40 70.5t-81 26.5q-43 0 -75 -12.5t-45 -20.5
v98v0z" />
    <glyph glyph-name="afii10096" unicode="&#x44e;" horiz-adv-x="747" 
d="M471 -13q-44 0 -83 14t-69 39.5t-49.5 61.5t-25.5 79h-65v-181h-113v438h113v-163h70q9 37 29.5 69.5t50 55.5t67 36.5t80.5 13.5q50 0 92.5 -17.5t74 -48t49 -73t17.5 -92.5q0 -46 -17 -88t-48.5 -74t-75 -51t-97.5 -19zM476 88q25 0 46.5 10.5t37 28.5t24.5 41.5
t9 49.5q0 28 -9.5 52t-25.5 41.5t-37.5 27.5t-46.5 10q-26 0 -47 -10.5t-37 -28t-24.5 -41t-8.5 -50.5q0 -28 9.5 -52t25.5 -41.5t38 -27.5t46 -10z" />
    <glyph glyph-name="afii10097" unicode="&#x44f;" horiz-adv-x="489" 
d="M21 0l136 158q-50 11 -80.5 45t-30.5 88q0 30 10 57t32.5 47t58 31.5t86.5 11.5h190v-438h-113v147h-38l-115 -147h-136zM164 293q0 -58 71 -58h75v116h-75q-35 0 -53 -16t-18 -42z" />
    <glyph glyph-name="afii10071" unicode="&#x451;" horiz-adv-x="520" 
d="M471 85q-38 -49 -88 -73.5t-119 -24.5q-46 0 -86.5 15.5t-71 44.5t-48 72t-17.5 98q0 52 17 95t47 74t70.5 48t87.5 17q48 0 87.5 -15.5t68.5 -44.5t45 -71t16 -94q0 -9 -0.5 -18t-0.5 -19h-325q1 -24 10.5 -44.5t25.5 -36t37.5 -24t47.5 -8.5q38 0 68 16.5t53 45.5z
M364 265q0 20 -7 38t-20.5 32t-32.5 22.5t-43 8.5q-46 0 -74 -30t-32 -71h209zM363 541q-29 0 -49.5 20.5t-20.5 49.5t20.5 49t49.5 20t49 -20t20 -49t-20 -49.5t-49 -20.5zM162 541q-29 0 -49 20.5t-20 49.5t20 49t49 20t49.5 -20t20.5 -49t-20.5 -49.5t-49.5 -20.5z" />
    <glyph glyph-name="afii10099" unicode="&#x452;" horiz-adv-x="540" 
d="M476 -47q0 -75 -38 -121t-122 -46q-14 0 -22.5 1t-11.5 1v95q6 -2 22 -2q29 0 44 18.5t15 52.5v305q0 45 -19.5 69t-61.5 24q-41 0 -69 -28q-31 -31 -31 -88v-234h-113v502h-61v87h61v160h113v-160h126v-87h-126v-120q20 26 55.5 46.5t86.5 20.5q32 0 61 -10t49 -30
q42 -42 42 -128v-328v0z" />
    <glyph glyph-name="afii10100" unicode="&#x453;" horiz-adv-x="368" 
d="M353 342h-173v-342h-114v438h287v-96zM255 705l90 -68l-159 -128l-65 47z" />
    <glyph glyph-name="afii10101" unicode="&#x454;" horiz-adv-x="458" 
d="M403 12q-23 -9 -58 -16.5t-75 -7.5q-55 0 -97.5 17.5t-72 48.5t-44.5 72.5t-15 88.5t15.5 89.5t45.5 75t74 51.5t101 19q35 0 68 -7.5t57 -18.5v-99q-12 7 -43 20t-76 13q-49 0 -82 -26t-41 -71h198v-80h-198q8 -44 39 -72t85 -28q22 0 41.5 4t35 9t26.5 10t16 8v-100v0z
" />
    <glyph glyph-name="afii10102" unicode="&#x455;" horiz-adv-x="408" 
d="M128 125q11 -21 29.5 -34.5t43.5 -13.5q23 0 38.5 10t15.5 31q0 19 -15 30t-38 20l-49 18.5t-49 25t-38 39.5t-15 62q0 28 11 52.5t31.5 43.5t49.5 30t66 11q55 0 92.5 -21t59.5 -66l-91 -41q-11 22 -28 32t-37 10q-19 0 -33 -11t-14 -30q0 -20 15.5 -32t38.5 -21
l49.5 -18.5t49.5 -24.5t38.5 -38.5t15.5 -61.5q0 -30 -12 -55.5t-34 -44t-53 -28.5t-68 -10q-63 0 -101 21.5t-61 66.5z" />
    <glyph glyph-name="afii10103" unicode="&#x456;" horiz-adv-x="248" 
d="M124 537q-30 0 -52 21.5t-22 52.5q0 30 22 51.5t52 21.5t51.5 -21.5t21.5 -51.5q0 -31 -21.5 -52.5t-51.5 -21.5zM67 438h114v-438h-114v438z" />
    <glyph glyph-name="afii10104" unicode="&#x457;" horiz-adv-x="290" 
d="M88 438h114v-438h-114v438zM222 545q-27 0 -46 19t-19 47q0 27 19 46t46 19q28 0 47 -19t19 -46q0 -28 -19 -47t-47 -19zM67 545q-27 0 -46 19t-19 47q0 27 19 46t46 19q28 0 47 -19t19 -46q0 -28 -19 -47t-47 -19z" />
    <glyph glyph-name="afii10105" unicode="&#x458;" horiz-adv-x="248" 
d="M124 537q-30 0 -52 21.5t-22 52.5q0 30 22 51.5t52 21.5t51.5 -21.5t21.5 -51.5q0 -31 -21.5 -52.5t-51.5 -21.5zM67 438h114v-639h-114v639z" />
    <glyph glyph-name="afii10106" unicode="&#x459;" horiz-adv-x="747" 
d="M717 147q0 -65 -44 -106t-133 -41h-207v342h-127v-158q0 -44 -8 -79.5t-27 -60.5t-49.5 -38.5t-76.5 -13.5q-10 0 -17 1t-10 1v92h15q60 0 60 71v281h353v-149q12 0 34 0.5t54 0.5q89 0 136 -34t47 -109zM525 204q-26 0 -47 -0.5t-32 -0.5v-117h65q46 0 66.5 15t20.5 44
t-17 44t-56 15z" />
    <glyph glyph-name="afii10107" unicode="&#x45a;" horiz-adv-x="764" 
d="M734 147q0 -65 -44 -106t-133 -41h-208v194h-170v-194h-113v438h113v-156h170v156h114v-149q12 0 34 0.5t54 0.5q89 0 136 -34t47 -109zM542 204q-26 0 -47 -0.5t-32 -0.5v-117h65q46 0 66.5 15t20.5 44t-17 44t-56 15z" />
    <glyph glyph-name="afii10108" unicode="&#x45b;" horiz-adv-x="540" 
d="M363 0v257q0 45 -19.5 69t-61.5 24q-41 0 -69 -28q-31 -31 -31 -88v-234h-113v502h-61v87h61v160h113v-160h126v-87h-126v-120q20 26 55.5 46.5t86.5 20.5q32 0 61 -10t49 -30q42 -42 42 -128v-281h-113z" />
    <glyph glyph-name="afii10109" unicode="&#x45c;" horiz-adv-x="487" 
d="M333 0l-154 203v-203h-113v438h113v-188l153 188h143l-182 -206l190 -232h-150zM311 705l90 -68l-159 -128l-65 47z" />
    <glyph glyph-name="afii10110" unicode="&#x45e;" horiz-adv-x="510" 
d="M202 21l-200 417h132l79 -177l20 -44l16.5 -39.5l14.5 -34.5l22.5 54.5l22.5 54.5l79 186h120l-290 -639h-120zM195 696q0 -38 14.5 -62t49.5 -24q36 0 53.5 24t17.5 62h92q0 -47 -12 -81.5t-34 -57t-51.5 -33t-64.5 -10.5q-78 0 -117.5 47t-39.5 135h92z" />
    <glyph glyph-name="afii10193" unicode="&#x45f;" horiz-adv-x="538" 
d="M325 0v-141h-112v141h-147v438h113v-342h180v342h113v-438h-147z" />
    <glyph glyph-name="afii10050" unicode="&#x490;" horiz-adv-x="464" 
d="M328 861h118v-265h-240v-596h-124v709h246v152z" />
    <glyph glyph-name="afii10098" unicode="&#x491;" horiz-adv-x="368" 
d="M179 342v-342h-113v438h177v105h109v-201h-173z" />
    <glyph glyph-name="endash" unicode="&#x2013;" horiz-adv-x="549" 
d="M22 312h506v-96h-506v96z" />
    <glyph glyph-name="emdash" unicode="&#x2014;" horiz-adv-x="1000" 
d="M0 311h1000v-94h-1000v94z" />
    <glyph glyph-name="quoteleft" unicode="&#x2018;" horiz-adv-x="246" 
d="M226 696q-29 -25 -46 -49.5t-17 -50.5q0 -17 3.5 -29t8 -22.5t8.5 -21t4 -23.5q0 -29 -20 -50t-51 -21t-53 22.5t-22 67.5q0 62 39 119t105 106z" />
    <glyph glyph-name="quoteright" unicode="&#x2019;" horiz-adv-x="246" 
d="M15 454q29 26 46 50.5t17 50.5q0 16 -4 28t-8.5 22.5t-8 21t-3.5 24.5q0 29 19.5 49.5t51.5 20.5q30 0 52.5 -22.5t22.5 -67.5q0 -61 -39 -118t-105 -106z" />
    <glyph glyph-name="quotesinglbase" unicode="&#x201a;" horiz-adv-x="246" 
d="M15 -128q29 26 46.5 50.5t17.5 50.5q0 16 -4 28t-8.5 22.5t-8.5 21t-4 24.5q0 29 20 49.5t51 20.5t53.5 -22.5t22.5 -67.5q0 -61 -39.5 -118t-105.5 -106z" />
    <glyph glyph-name="quotedblleft" unicode="&#x201c;" horiz-adv-x="430" 
d="M405 696q-26 -24 -40.5 -48.5t-14.5 -50.5q0 -16 3.5 -27.5t8 -21.5t8.5 -20t4 -23q0 -29 -19.5 -49t-48.5 -20t-50.5 22t-21.5 65q0 60 35.5 114.5t92.5 102.5zM214 696q-26 -24 -41 -48.5t-15 -50.5q0 -16 3.5 -27.5t8 -21.5t8.5 -20t4 -23q0 -29 -19 -49t-48 -20
t-51 22t-22 65q0 60 35.5 114.5t93.5 102.5z" />
    <glyph glyph-name="quotedblright" unicode="&#x201d;" horiz-adv-x="430" 
d="M216 460q26 24 40.5 49t14.5 51q0 16 -4 27.5t-8.5 21t-8 19.5t-3.5 23q0 29 19.5 49t48.5 20t50.5 -22t21.5 -64q0 -60 -35.5 -114.5t-92.5 -102.5zM24 460q26 24 41 49t15 51q0 16 -4 27.5t-8.5 21t-8 19.5t-3.5 23q0 29 19 49t48 20t51 -22t22 -64q0 -60 -35.5 -114.5
t-93.5 -102.5z" />
    <glyph glyph-name="quotedblbase" unicode="&#x201e;" horiz-adv-x="430" 
d="M216 -122q26 24 40.5 49t14.5 51q0 16 -4 27.5t-8.5 21t-8 19.5t-3.5 23q0 29 19.5 49t48.5 20t50.5 -22t21.5 -64q0 -60 -35.5 -115t-92.5 -103zM24 -122q26 24 41 49t15 51q0 16 -4 27.5t-8.5 21t-8 19.5t-3.5 23q0 29 19 49t48 20t51 -22t22 -64q0 -60 -35.5 -115
t-93.5 -103z" />
    <glyph glyph-name="dagger" unicode="&#x2020;" horiz-adv-x="579" 
d="M232 420h-200v113h200v249h117v-249h198v-114h-198v-526h-117v527z" />
    <glyph glyph-name="daggerdbl" unicode="&#x2021;" horiz-adv-x="569" 
d="M232 111h-200v113h200v226h-200v112h200v220h117v-220h198v-113h-198v-225h198v-113h-198v-218h-117v218z" />
    <glyph glyph-name="bullet" unicode="&#x2022;" horiz-adv-x="339" 
d="M170 205q-30 0 -56 11.5t-45.5 31t-31 46t-11.5 56.5t11.5 56t31 45.5t45.5 31t56 11.5t56.5 -11.5t46 -31t31 -45.5t11.5 -56t-11.5 -56.5t-31 -46t-46 -31t-56.5 -11.5z" />
    <glyph glyph-name="ellipsis" unicode="&#x2026;" horiz-adv-x="802" 
d="M656 -12q-31 0 -53 22t-22 53q0 32 22 54t53 22q32 0 54 -22t22 -54q0 -31 -22 -53t-54 -22zM393 -12q-31 0 -53 22t-22 53q0 32 22 54t53 22q32 0 54 -22t22 -54q0 -31 -22 -53t-54 -22zM130 -12q-31 0 -53 22t-22 53q0 32 22 54t53 22t53.5 -22t22.5 -54
q0 -31 -22.5 -53t-53.5 -22z" />
    <glyph glyph-name="perthousand" unicode="&#x2030;" horiz-adv-x="1140" 
d="M949 -10q-65 0 -104.5 50.5t-39.5 158.5q0 102 39.5 155.5t112.5 53.5q69 0 105.5 -53.5t36.5 -153.5q0 -103 -39.5 -157t-110.5 -54zM605 -10q-65 0 -104 50.5t-39 158.5q0 102 39 155.5t112 53.5q69 0 105.5 -53.5t36.5 -153.5q0 -103 -39.5 -157t-110.5 -54zM563 742
l69 -38l-409 -740l-69 38zM178 300q-65 0 -104.5 50.5t-39.5 158.5q0 102 39.5 155t112.5 53q69 0 105.5 -53t36.5 -153q0 -103 -39.5 -157t-110.5 -54zM953 71q26 0 43.5 28.5t17.5 99.5q0 63 -14.5 96t-46.5 33q-61 0 -61 -129q0 -63 14.5 -95.5t46.5 -32.5zM609 71
q26 0 43.5 28.5t17.5 99.5q0 63 -14.5 96t-46.5 33q-61 0 -61 -129q0 -63 14.5 -95.5t46.5 -32.5zM182 381q26 0 43.5 28t17.5 100q0 63 -14.5 96t-46.5 33q-61 0 -61 -130q0 -62 14.5 -94.5t46.5 -32.5z" />
    <glyph glyph-name="guilsinglleft" unicode="&#x2039;" horiz-adv-x="290" 
d="M25 225l155 223l72 -48l-123 -172l124 -165l-76 -46z" />
    <glyph glyph-name="guilsinglright" unicode="&#x203a;" horiz-adv-x="290" 
d="M161 238l-124 165l76 47l152 -209l-155 -222l-72 47z" />
    <glyph glyph-name="fraction" unicode="&#x2044;" horiz-adv-x="142" 
d="M217 739l71 -32l-372 -739l-70 32z" />
    <glyph glyph-name="zerosuperior" unicode="&#x2070;" horiz-adv-x="388" 
d="M189 306q-73 0 -113 54.5t-40 148.5t42.5 150.5t117.5 56.5q39 0 68 -15t48.5 -42t29.5 -64.5t10 -82.5q0 -41 -10 -78t-30 -65.5t-50.5 -45.5t-72.5 -17zM194 379q29 0 47 33.5t18 95.5q0 60 -15.5 98t-50.5 38q-31 0 -47.5 -37t-16.5 -95q0 -60 16.5 -96.5t48.5 -36.5z
" />
    <glyph glyph-name="foursuperior" unicode="&#x2074;" horiz-adv-x="375" 
d="M33 455l152 254h110v-249h58v-76h-58v-70h-86v70h-176v71zM209 459v152l-88 -152h88z" />
    <glyph glyph-name="fivesuperior" unicode="&#x2075;" horiz-adv-x="333" 
d="M57 416q18 -16 41 -27.5t49 -11.5q32 0 47 17t15 47q0 29 -16 48.5t-60 19.5q-21 0 -43 -3.5t-40 -9.5l28 213h201v-79h-127l-6 -49h5q2 0 5 0.5t6 0.5q60 0 99 -35.5t39 -95.5q0 -30 -9.5 -56.5t-29 -46t-48.5 -31t-69 -11.5q-38 0 -67 12.5t-50 31.5z" />
    <glyph glyph-name="sixsuperior" unicode="&#x2076;" horiz-adv-x="349" 
d="M294 709l-22 -24l-32 -35.5l-37.5 -44t-37.5 -48.5q15 5 36 5q24 0 45 -8.5t37.5 -23.5t26 -37t9.5 -49q0 -29 -10.5 -54.5t-29.5 -44t-46 -29t-60 -10.5q-69 0 -106 38.5t-37 96.5q0 35 14 71.5t46 83.5q22 31 47 60.5l45 52.5h112zM176 378q26 0 40 16t14 43
q0 25 -14 41t-40 16t-41 -16t-15 -43q0 -26 14 -41.5t42 -15.5z" />
    <glyph glyph-name="sevensuperior" unicode="&#x2077;" horiz-adv-x="319" 
d="M188 631h-165v78h277v-39l-162 -356h-101z" />
    <glyph glyph-name="eightsuperior" unicode="&#x2078;" horiz-adv-x="360" 
d="M178 306q-29 0 -55 7.5t-45.5 22t-31 37t-11.5 52.5q0 38 19.5 61.5t40.5 33.5q-18 11 -32 34.5t-14 49.5q0 48 36 80t96 32q54 0 91 -29t37 -80q0 -31 -12 -52.5t-32 -32.5q22 -8 41 -31t19 -63q0 -27 -11.5 -49.5t-31 -38.5t-46.5 -25t-58 -9zM180 555q22 0 34 12.5
t12 32.5q0 18 -12.5 31.5t-34.5 13.5q-23 0 -34 -13t-11 -32q0 -18 11.5 -31.5t34.5 -13.5zM180 377q25 0 40.5 14.5t15.5 37.5t-16 38.5t-41 15.5t-40.5 -15.5t-15.5 -38.5q0 -22 15 -37t42 -15z" />
    <glyph glyph-name="ninesuperior" unicode="&#x2079;" horiz-adv-x="349" 
d="M55 314q7 9 21 24l31.5 35l37 43.5l39.5 48.5q-15 -5 -36 -5q-24 0 -45 8.5t-37.5 23.5t-26 37t-9.5 49q0 29 10.5 54.5t29.5 44t46 29t60 10.5q69 0 106 -38.5t37 -96.5q0 -35 -14 -71.5t-46 -83.5q-22 -31 -47 -60l-45 -52h-112zM173 528q26 0 41 16t15 43
q0 26 -14 41.5t-42 15.5q-26 0 -40 -16t-14 -43q0 -25 14 -41t40 -16z" />
    <glyph glyph-name="minussuperior" unicode="&#x207b;" horiz-adv-x="400" 
d="M52 545h295v-75h-295v75z" />
    <glyph glyph-name="parenleftsuperior" unicode="&#x207d;" horiz-adv-x="218" 
d="M122 246q-40 69 -56 134t-16 127q0 130 73 267l68 -22q-30 -61 -47 -122t-17 -121q0 -62 16.5 -122.5t46.5 -116.5z" />
    <glyph glyph-name="parenrightsuperior" unicode="&#x207e;" horiz-adv-x="219" 
d="M27 268q30 57 47.5 118.5t17.5 124.5q0 61 -17.5 123t-46.5 116l68 24q35 -61 54 -126.5t19 -134.5q0 -72 -19.5 -137.5t-54.5 -129.5z" />
    <glyph glyph-name="zeroinferior" unicode="&#x2080;" horiz-adv-x="388" 
d="M189 -188q-73 0 -113 54.5t-40 148.5t42.5 150.5t117.5 56.5q39 0 68 -15t48.5 -42t29.5 -64.5t10 -82.5q0 -41 -10 -78t-30 -65.5t-50.5 -45.5t-72.5 -17zM194 -115q29 0 47 33.5t18 95.5q0 60 -15.5 98t-50.5 38q-31 0 -47.5 -37t-16.5 -95q0 -60 16.5 -96.5
t48.5 -36.5z" />
    <glyph glyph-name="oneinferior" unicode="&#x2081;" horiz-adv-x="235" 
d="M94 134h-76v81h167v-395h-91v314z" />
    <glyph glyph-name="twoinferior" unicode="&#x2082;" horiz-adv-x="368" 
d="M39 -135l107 99q24 22 41 39t27.5 30.5t15.5 25.5t5 26q0 26 -14.5 42.5t-43.5 16.5q-35 0 -47.5 -24t-10.5 -57h-87q-2 73 37.5 115.5t110.5 42.5q37 0 64.5 -11t45.5 -29.5t26.5 -42.5t8.5 -49q0 -27 -10 -51.5t-28 -47t-43.5 -44.5t-56.5 -45h145v-81h-293v45z" />
    <glyph glyph-name="threeinferior" unicode="&#x2083;" horiz-adv-x="354" 
d="M118 -55q2 -62 57 -62q27 0 41.5 15.5t14.5 37.5q0 23 -15.5 39t-54.5 16h-21v64h18q34 0 48.5 14.5t14.5 34.5q0 21 -13 33.5t-34 12.5q-24 0 -37 -14t-11 -41h-84q1 57 35.5 92t99.5 35q63 0 97.5 -33.5t34.5 -81.5q0 -54 -47 -79q26 -9 43 -35t17 -54q0 -24 -9.5 -47
t-28 -41t-46 -28.5t-64.5 -10.5q-63 0 -101.5 36t-40.5 97h86z" />
    <glyph glyph-name="fourinferior" unicode="&#x2084;" horiz-adv-x="375" 
d="M33 -39l152 254h110v-249h58v-76h-58v-70h-86v70h-176v71zM209 -35v152l-88 -152h88z" />
    <glyph glyph-name="fiveinferior" unicode="&#x2085;" horiz-adv-x="333" 
d="M57 -78q18 -16 41 -27.5t49 -11.5q32 0 47 17t15 47q0 29 -16 48.5t-60 19.5q-21 0 -43 -3.5t-40 -9.5l28 213h201v-79h-127l-6 -49h5q2 0 5 0.5t6 0.5q60 0 99 -35.5t39 -95.5q0 -30 -9.5 -56.5t-29 -46t-48.5 -31t-69 -11.5q-38 0 -67 12.5t-50 31.5z" />
    <glyph glyph-name="sixinferior" unicode="&#x2086;" horiz-adv-x="349" 
d="M294 215l-22 -24l-32 -35.5l-37.5 -44t-37.5 -48.5q15 5 36 5q24 0 45 -8.5t37.5 -23.5t26 -37t9.5 -49q0 -29 -10.5 -54.5t-29.5 -44t-46 -29t-60 -10.5q-69 0 -106 38.5t-37 96.5q0 35 14 71.5t46 83.5q22 31 47 60.5l45 52.5h112zM176 -116q26 0 40 16t14 43
q0 25 -14 41t-40 16t-41 -16t-15 -43q0 -26 14 -41.5t42 -15.5z" />
    <glyph glyph-name="seveninferior" unicode="&#x2087;" horiz-adv-x="319" 
d="M188 137h-165v78h277v-39l-162 -356h-101z" />
    <glyph glyph-name="eightinferior" unicode="&#x2088;" horiz-adv-x="360" 
d="M178 -188q-29 0 -55 7.5t-45.5 22t-31 37t-11.5 52.5q0 38 19.5 61.5t40.5 33.5q-18 11 -32 34.5t-14 49.5q0 48 36 80t96 32q54 0 91 -29t37 -80q0 -31 -12 -52.5t-32 -32.5q22 -8 41 -31t19 -63q0 -27 -11.5 -49.5t-31 -38.5t-46.5 -25t-58 -9zM180 61q22 0 34 12.5
t12 32.5q0 18 -12.5 31.5t-34.5 13.5q-23 0 -34 -13t-11 -32q0 -18 11.5 -31.5t34.5 -13.5zM180 -117q25 0 40.5 14.5t15.5 37.5t-16 38.5t-41 15.5t-40.5 -15.5t-15.5 -38.5q0 -22 15 -37t42 -15z" />
    <glyph glyph-name="nineinferior" unicode="&#x2089;" horiz-adv-x="349" 
d="M55 -180q7 9 21 24l31.5 35l37 43.5l39.5 48.5q-15 -5 -36 -5q-24 0 -45 8.5t-37.5 23.5t-26 37t-9.5 49q0 29 10.5 54.5t29.5 44t46 29t60 10.5q69 0 106 -38.5t37 -96.5q0 -35 -14 -71.5t-46 -83.5q-22 -31 -47 -60l-45 -52h-112zM173 34q26 0 41 16t15 43
q0 26 -14 41.5t-42 15.5q-26 0 -40 -16t-14 -43q0 -25 14 -41t40 -16z" />
    <glyph glyph-name="parenleftinferior" unicode="&#x208d;" horiz-adv-x="218" 
d="M122 -248q-40 69 -56 134t-16 127q0 130 73 267l68 -22q-30 -61 -47 -122t-17 -121q0 -62 16.5 -122.5t46.5 -116.5z" />
    <glyph glyph-name="parenrightinferior" unicode="&#x208e;" horiz-adv-x="219" 
d="M27 -226q30 57 47.5 118.5t17.5 124.5q0 61 -17.5 123t-46.5 116l68 24q35 -61 54 -126.5t19 -134.5q0 -72 -19.5 -137.5t-54.5 -129.5z" />
    <glyph glyph-name="Euro" unicode="&#x20ac;" 
d="M45 313h76q-1 9 -1 18v19v20.5t1 20.5h-76v83h86q23 115 91.5 181.5t175.5 66.5q34 0 68 -7t65 -19v-115q-30 16 -62.5 25.5t-66.5 9.5q-54 0 -90 -36.5t-52 -105.5h175v-83h-185q-1 -9 -1 -18v-18v-21t1 -21h185v-84h-173q16 -66 51.5 -101t91.5 -35q66 0 130 35v-114
q-34 -14 -68 -20.5t-78 -6.5q-108 0 -172.5 63.5t-86.5 178.5h-85v84z" />
    <glyph glyph-name="afii61352" unicode="&#x2116;" horiz-adv-x="1152" 
d="M731 192v96h376v-96h-376zM518 0l-218 337l-55 87.5l-48 82.5q2 -63 3 -120.5t1 -120.5v-266h-119v709h113l218 -339l55 -87t48 -83q-2 63 -3 120.5t-1 120.5v268h119v-709h-113zM915 343q-41 0 -76.5 14t-61.5 39.5t-41 60t-15 75.5q0 39 15 74t41.5 60.5t62.5 40.5
t78 15t78 -14.5t63 -39.5t42 -60t15 -75q0 -38 -14.5 -72.5t-41 -60.5t-63.5 -41.5t-82 -15.5zM919 433q41 0 67 29.5t26 69.5q0 21 -7.5 39t-20 31.5t-30 21.5t-37.5 8q-42 0 -67.5 -29.5t-25.5 -70.5q0 -21 7.5 -39t20.5 -31.5t30 -21t37 -7.5z" />
    <glyph glyph-name="trademark" unicode="&#x2122;" horiz-adv-x="839" 
d="M357 709h128l71 -233l72 233h127l47 -351h-105l-22 237l-75 -237h-103l-72 237l-21 -237h-91zM112 624h-89v85h274v-85h-88v-266h-97v266z" />
    <glyph glyph-name="Omega" unicode="&#x2126;" horiz-adv-x="821" 
d="M649 366q0 51 -17.5 95t-49 77t-75.5 51.5t-97 18.5q-52 0 -96 -18.5t-75.5 -51t-49 -76.5t-17.5 -94q0 -44 13 -81t34.5 -66t50 -50.5t58.5 -33.5v-137h-267v111h127q-28 19 -54 45.5t-46 59t-32 71.5t-12 84q0 75 29.5 139.5t79.5 112t116.5 74.5t141.5 27
q78 0 144.5 -26.5t116 -74t77.5 -112.5t28 -141q0 -44 -13 -82.5t-34 -71.5t-48.5 -59.5t-55.5 -45.5h134v-111h-268v137q31 12 59 33t50 50t35 65.5t13 80.5z" />
    <glyph glyph-name="arrowleft" unicode="&#x2190;" horiz-adv-x="1000" 
d="M471 727l84 -84l-300 -286h745v-112h-745l300 -286l-84 -84l-426 426z" />
    <glyph glyph-name="arrowup" unicode="&#x2191;" horiz-adv-x="1000" 
d="M444 546l-286 -300l-84 84l426 426l426 -426l-84 -84l-286 300v-745h-112v745z" />
    <glyph glyph-name="arrowright" unicode="&#x2192;" horiz-adv-x="1000" 
d="M0 357h745l-300 286l84 84l426 -426l-426 -426l-84 84l300 286h-745v112z" />
    <glyph glyph-name="arrowdown" unicode="&#x2193;" horiz-adv-x="1000" 
d="M158 356l286 -300v745h112v-745l286 300l84 -84l-426 -426l-426 426z" />
    <glyph glyph-name="uni2196" unicode="&#x2196;" horiz-adv-x="1000" 
d="M178 623h603v-119l-415 10l527 -527l-79 -79l-527 527l10 -415h-119v603z" />
    <glyph glyph-name="uni2197" unicode="&#x2197;" horiz-adv-x="1000" 
d="M634 514l-415 -10v119h603v-603h-119l10 415l-527 -527l-79 79z" />
    <glyph glyph-name="uni2198" unicode="&#x2198;" horiz-adv-x="1000" 
d="M219 98l415 -10l-527 527l79 79l527 -527l-10 415h119v-603h-603v119z" />
    <glyph glyph-name="uni2199" unicode="&#x2199;" horiz-adv-x="1000" 
d="M178 582h119l-10 -415l527 527l79 -79l-527 -527l415 10v-119h-603v603z" />
    <glyph glyph-name="partialdiff" unicode="&#x2202;" horiz-adv-x="564" 
d="M117 750q99 -18 174.5 -68.5t126.5 -118.5t77 -146.5t26 -151.5q0 -62 -16.5 -113t-48 -88t-78 -57t-106.5 -20q-49 0 -91 17.5t-73 48t-49 72.5t-18 91q0 48 17 90.5t46 74t68.5 49.5t84.5 18q33 0 65.5 -9.5t57.5 -32.5q-13 45 -37.5 86t-61 74t-84 56.5t-105.5 34.5z
M277 86q56 0 91.5 38.5t35.5 102.5q0 56 -34 91.5t-91 35.5q-26 0 -49 -10t-39.5 -28t-26 -42.5t-9.5 -53.5t9.5 -53.5t26 -42.5t38.5 -28t48 -10z" />
    <glyph glyph-name="Delta" unicode="&#x2206;" horiz-adv-x="709" 
d="M290 709h124l286 -709h-691zM184 113h335l-123 321l-12 32l-13.5 38l-12 35.5l-8.5 25.5q-2 -9 -7.5 -25.5l-12 -35l-13.5 -37.5l-12 -33z" />
    <glyph glyph-name="product" unicode="&#x220f;" horiz-adv-x="851" 
d="M109 597h-93v112h819v-112h-94v-798h-124v798h-384v-798h-124v798z" />
    <glyph glyph-name="summation" unicode="&#x2211;" horiz-adv-x="710" 
d="M61 -105l245 374l-243 342v98h600v-112h-451l232 -326l-240 -360h466v-112h-609v96z" />
    <glyph glyph-name="minus" unicode="&#x2212;" horiz-adv-x="675" 
d="M46 340h583v-105h-583v105z" />
    <glyph glyph-name="radical" unicode="&#x221a;" horiz-adv-x="627" 
d="M23 438h129l85 -210q5 -12 11 -29.5l12 -34.5t10.5 -31t6.5 -21q1 7 6.5 24.5t12.5 37.5l14 40.5t12 33.5l204 552h122l-311 -800h-121z" />
    <glyph glyph-name="infinity" unicode="&#x221e;" horiz-adv-x="717" 
d="M359 222q-38 -39 -80.5 -64.5t-91.5 -25.5q-34 0 -63.5 11t-52 31.5t-35.5 48.5t-13 63q0 34 13 62.5t35 49t52 31.5t63 11q49 0 91.5 -26.5t80.5 -64.5q36 38 79 64t93 26q34 0 64 -11t52 -31t35 -48t13 -62q0 -35 -13 -64t-35 -49.5t-51.5 -31.5t-63.5 -11
q-49 0 -91.5 26t-80.5 65zM417 287q26 -26 51.5 -45t55.5 -19q26 0 45 18.5t19 45.5q0 26 -19 44t-45 18q-32 0 -56.5 -18t-50.5 -44zM300 284q-27 26 -52 45t-54 19q-27 0 -46 -18t-19 -44t19 -44t46 -18q31 0 55.5 17t50.5 43z" />
    <glyph glyph-name="integral" unicode="&#x222b;" horiz-adv-x="320" 
d="M104 598q0 57 9 98.5t30 68t56 39t87 12.5h34v-89q-58 0 -81.5 -21t-23.5 -77v-627q0 -57 -9 -98.5t-30 -67.5t-56 -38.5t-87 -12.5h-35v89q31 0 51.5 4.5t32.5 15.5t17 30.5t5 48.5v625z" />
    <glyph glyph-name="approxequal" unicode="&#x2248;" horiz-adv-x="675" 
d="M32 396q16 13 38 26t46 23t49.5 16.5t49.5 6.5q34 0 68 -10t66 -22t61.5 -22t55.5 -10q34 0 68 15.5t57 33.5l53 -80q-17 -13 -38.5 -26t-45.5 -23t-49.5 -16.5t-49.5 -6.5q-34 0 -67.5 10t-66 22l-62 22t-55.5 10q-33 0 -67.5 -15.5t-57.5 -33.5zM32 195q16 13 38 26
t46 23t49.5 16.5t49.5 6.5q34 0 68 -10t66 -22t61.5 -22t55.5 -10q34 0 68 15.5t57 33.5l53 -80q-17 -13 -38.5 -26t-45.5 -23t-49.5 -16.5t-49.5 -6.5q-34 0 -67.5 10t-66 22l-62 22t-55.5 10q-33 0 -67.5 -15.5t-57.5 -33.5z" />
    <glyph glyph-name="notequal" unicode="&#x2260;" horiz-adv-x="675" 
d="M216 135h-175v105h221l43 99h-264v104h309l54 125h101l-55 -125h183v-104h-228l-43 -99h271v-105h-317l-57 -131h-100z" />
    <glyph glyph-name="lessequal" unicode="&#x2264;" horiz-adv-x="675" 
d="M60 470l555 203v-116l-433 -141l433 -138v-121l-555 202v111zM60 105h555v-105h-555v105z" />
    <glyph glyph-name="greaterequal" unicode="&#x2265;" horiz-adv-x="675" 
d="M60 273l433 141l-433 138v121l555 -202v-111l-555 -203v116zM60 105h555v-105h-555v105z" />
    <glyph glyph-name="lozenge" unicode="&#x25ca;" horiz-adv-x="659" 
d="M38 354l291 376l292 -376l-292 -376zM483 354l-154 199l-153 -199l153 -199z" />
    <glyph glyph-name="circle" unicode="&#x25cb;" horiz-adv-x="1000" 
d="M500 -240q-69 0 -133 18t-119.5 50.5t-101 78t-78 101t-50.5 119.5t-18 133t18 133t50.5 119.5t78 101t101 78t119.5 50.5t133 18q103 0 194.5 -39.5t159 -107t107 -159t39.5 -194.5q0 -69 -18 -133t-50.5 -119.5t-78 -101t-101 -78t-119.5 -50.5t-133 -18zM500 -128
q80 0 151 30.5t123.5 83t83 123.5t30.5 151t-30.5 151t-83 123.5t-123.5 83t-151 30.5t-151 -30.5t-123.5 -83t-83 -123.5t-30.5 -151t30.5 -151t83 -123.5t123.5 -83t151 -30.5z" />
    <glyph glyph-name="H18533" unicode="&#x25cf;" horiz-adv-x="1000" 
d="M500 -240q-69 0 -133 18t-119.5 50.5t-101 78t-78 101t-50.5 119.5t-18 133t18 133t50.5 119.5t78 101t101 78t119.5 50.5t133 18q103 0 194.5 -39.5t159 -107t107 -159t39.5 -194.5q0 -69 -18 -133t-50.5 -119.5t-78 -101t-101 -78t-119.5 -50.5t-133 -18z" />
    <glyph glyph-name="uni25DC" unicode="&#x25dc;" horiz-adv-x="500" 
d="M0 274q0 101 37.5 187t103.5 149t156 98.5t195 35.5h8v-98h-9q-80 0 -148 -29t-117.5 -79.5t-77 -119t-27.5 -148.5v-10h-121v14z" />
    <glyph glyph-name="uni25DD" unicode="&#x25dd;" horiz-adv-x="500" 
d="M379 270q0 80 -27.5 148.5t-77 119t-117.5 79.5t-148 29h-9v98h8q105 0 195 -35.5t156 -98.5t103.5 -149t37.5 -187v-14h-121v10z" />
    <glyph glyph-name="uni25DE" unicode="&#x25de;" horiz-adv-x="500" 
d="M0 -126h9q80 0 148 29t117.5 79.5t77 119t27.5 148.5v10h121v-14q0 -101 -37.5 -187t-103.5 -149t-156 -98.5t-195 -35.5h-8v98z" />
    <glyph glyph-name="uni25DF" unicode="&#x25df;" horiz-adv-x="500" 
d="M0 260h121v-10q0 -80 27.5 -148.5t77 -119t117.5 -79.5t148 -29h9v-98h-8q-105 0 -195 35.5t-156 98.5t-103.5 149t-37.5 187v14z" />
    <glyph glyph-name="Commaaccent" horiz-adv-x="500" 
d="M322 -102q0 -44 -30.5 -84t-83.5 -75l-35 35q21 18 34 34.5t13 33.5q0 11 -4 19.5t-9 16t-9 16t-4 20.5q0 24 17 39.5t46 15.5t47 -20.5t18 -50.5z" />
    <glyph glyph-name="Hungarumlaut" horiz-adv-x="500" 
d="M158 950l88 -67l-126 -142l-63 46zM367 947l89 -67l-143 -141l-63 46z" />
    <glyph glyph-name="Dotaccent" horiz-adv-x="500" 
d="M250 764q-33 0 -55.5 23t-22.5 55q0 33 22.5 55.5t55.5 22.5q32 0 55 -22.5t23 -55.5q0 -32 -23 -55t-55 -23z" />
    <glyph glyph-name="Breve" horiz-adv-x="500" 
d="M182 930q0 -38 15 -56.5t50 -18.5q71 0 71 75h92q0 -47 -12.5 -80t-34 -53.5t-51.5 -30t-65 -9.5q-157 0 -157 173h92z" />
    <glyph glyph-name="Macron" horiz-adv-x="500" 
d="M107 874h285v-94h-285v94z" />
    <glyph glyph-name="Cedilla" horiz-adv-x="500" 
d="M254 -35l88 -52l-122 -135l-67 53z" />
    <glyph glyph-name="Ring" horiz-adv-x="500" 
d="M250 717q-23 0 -43 8t-35 22.5t-23.5 34t-8.5 42.5t8.5 42.5t23.5 34t35 23t43 8.5t43 -8.5t35 -23t23.5 -34t8.5 -42.5t-9 -42.5t-24 -33.5t-35 -22.5t-42 -8.5zM250 777q20 0 33.5 13.5t13.5 33.5t-13.5 34t-33.5 14t-33.5 -14t-13.5 -34t13.5 -33.5t33.5 -13.5z" />
    <glyph glyph-name="Tilde" horiz-adv-x="500" 
d="M54 765q0 57 31 94.5t85 37.5q25 0 44.5 -8t37.5 -18t34.5 -18t35.5 -8q18 0 29 12.5t11 34.5h84q0 -60 -33 -96.5t-87 -36.5q-24 0 -44.5 8.5t-39 18l-35 18t-32.5 8.5q-17 0 -28 -13.5t-11 -33.5h-82z" />
    <glyph glyph-name="Circumflex" horiz-adv-x="500" 
d="M78 814l172 91l172 -89l-43 -70l-129 61l-130 -61z" />
    <glyph glyph-name="Acute" horiz-adv-x="500" 
d="M135 800l142 120l88 -74l-175 -103z" />
    <glyph glyph-name="commaaccent" horiz-adv-x="470" 
d="M305 -102q0 -44 -31 -84t-84 -75l-34 35q21 18 33.5 34.5t12.5 33.5q0 11 -4 19.5t-9 16t-9 16t-4 20.5q0 24 17 39.5t46 15.5t47.5 -20.5t18.5 -50.5z" />
    <glyph glyph-name="Dieresis" horiz-adv-x="500" 
d="M351 757q-29 0 -49.5 20.5t-20.5 49.5t20.5 49t49.5 20t49 -20t20 -49t-20 -49.5t-49 -20.5zM150 757q-29 0 -49 20.5t-20 49.5t20 49t49 20t49.5 -20t20.5 -49t-20.5 -49.5t-49.5 -20.5z" />
    <glyph glyph-name="Caron.alt" horiz-adv-x="500" 
d="M322 653q0 -44 -31 -84t-84 -75l-34 34q21 18 33.5 34.5t12.5 33.5q0 11 -4 19.5t-9 16t-9 16t-4 20.5q0 24 17 40t46 16t47.5 -20.5t18.5 -50.5z" />
    <glyph glyph-name="zero.numerator" horiz-adv-x="388" 
d="M189 306q-73 0 -113 54.5t-40 148.5t42.5 150.5t117.5 56.5q39 0 68 -15t48.5 -42t29.5 -64.5t10 -82.5q0 -41 -10 -78t-30 -65.5t-50.5 -45.5t-72.5 -17zM194 379q29 0 47 33.5t18 95.5q0 60 -15.5 98t-50.5 38q-31 0 -47.5 -37t-16.5 -95q0 -60 16.5 -96.5t48.5 -36.5z
" />
    <glyph glyph-name="zero.denominator" horiz-adv-x="388" 
d="M189 -8q-73 0 -113 54.5t-40 148.5t42.5 150.5t117.5 56.5q39 0 68 -15t48.5 -42t29.5 -64.5t10 -82.5q0 -41 -10 -78t-30 -65.5t-50.5 -45.5t-72.5 -17zM194 65q29 0 47 33.5t18 95.5q0 60 -15.5 98t-50.5 38q-31 0 -47.5 -37t-16.5 -95q0 -60 16.5 -96.5t48.5 -36.5z
" />
    <glyph glyph-name="zero.lf" horiz-adv-x="622" 
d="M303 -14q-61 0 -109 25.5t-81 73t-50.5 115t-17.5 151.5t19 152.5t54 117t85.5 75t112.5 26.5q64 0 112.5 -27t81.5 -75.5t50 -115.5t17 -148q0 -72 -17 -139t-51 -118t-85.5 -82t-120.5 -31zM312 93q61 0 100.5 64.5t39.5 191.5q0 59 -8.5 108t-26 84.5t-44.5 55.5
t-64 20q-33 0 -59 -19t-44 -53.5t-27 -83t-9 -106.5q0 -59 9 -107t27 -82.5t44.5 -53.5t61.5 -19z" />
    <glyph glyph-name="yen.lf" horiz-adv-x="603" 
d="M74 162h167v78h-167v83h164l-227 386h142l152 -285l152 285h137l-232 -386h159v-83h-160v-78h160v-84h-160v-78h-120v78h-167v84z" />
    <glyph glyph-name="two.numerator" horiz-adv-x="368" 
d="M39 359l107 99q24 22 41 39t27.5 30.5t15.5 25.5t5 26q0 26 -14.5 42.5t-43.5 16.5q-35 0 -47.5 -24t-10.5 -57h-87q-2 73 37.5 115.5t110.5 42.5q37 0 64.5 -11t45.5 -29.5t26.5 -42.5t8.5 -49q0 -27 -10 -51.5t-28 -47t-43.5 -44.5t-56.5 -45h145v-81h-293v45z" />
    <glyph glyph-name="two.denominator" horiz-adv-x="368" 
d="M39 45l107 99q24 22 41 39t27.5 30.5t15.5 25.5t5 26q0 26 -14.5 42.5t-43.5 16.5q-35 0 -47.5 -24t-10.5 -57h-87q-2 73 37.5 115.5t110.5 42.5q37 0 64.5 -11t45.5 -29.5t26.5 -42.5t8.5 -49q0 -27 -10 -51.5t-28 -47t-43.5 -44.5t-56.5 -45h145v-81h-293v45z" />
    <glyph glyph-name="two.lf" horiz-adv-x="579" 
d="M55 50l192 211q38 42 64.5 74.5t43.5 60.5t25 53.5t8 52.5q0 48 -29 80t-84 32q-34 0 -56 -13t-35 -35t-17.5 -49.5t-2.5 -56.5h-121q-3 127 60.5 195t176.5 68q60 0 104 -18.5t73.5 -48.5t43.5 -68.5t14 -79.5q0 -78 -40.5 -146t-115.5 -143q-5 -9 -21 -25l-34 -33.5
l-34 -32.5l-22 -21q6 0 17 0.5l23 1t23.5 0.5h17.5h200v-109h-474v50z" />
    <glyph glyph-name="three.numerator" horiz-adv-x="354" 
d="M118 439q2 -62 57 -62q27 0 41.5 15.5t14.5 37.5q0 23 -15.5 39t-54.5 16h-21v64h18q34 0 48.5 14.5t14.5 34.5q0 21 -13 33.5t-34 12.5q-24 0 -37 -14t-11 -41h-84q1 57 35.5 92t99.5 35q63 0 97.5 -33.5t34.5 -81.5q0 -54 -47 -79q26 -9 43 -35t17 -54q0 -24 -9.5 -47
t-28 -41t-46 -28.5t-64.5 -10.5q-63 0 -101.5 36t-40.5 97h86z" />
    <glyph glyph-name="three.denominator" horiz-adv-x="354" 
d="M118 125q2 -62 57 -62q27 0 41.5 15.5t14.5 37.5q0 23 -15.5 39t-54.5 16h-21v64h18q34 0 48.5 14.5t14.5 34.5q0 21 -13 33.5t-34 12.5q-24 0 -37 -14t-11 -41h-84q1 57 35.5 92t99.5 35q63 0 97.5 -33.5t34.5 -81.5q0 -54 -47 -79q26 -9 43 -35t17 -54q0 -24 -9.5 -47
t-28 -41t-46 -28.5t-64.5 -10.5q-63 0 -101.5 36t-40.5 97h86z" />
    <glyph glyph-name="Caron" horiz-adv-x="500" 
d="M119 910l132 -61l128 61l43 -69l-172 -90l-173 93z" />
    <glyph glyph-name="Grave" horiz-adv-x="500" 
d="M222 921l144 -120l-56 -56l-176 102z" />
    <glyph glyph-name="six.numerator" horiz-adv-x="349" 
d="M294 709l-22 -24l-32 -35.5l-37.5 -44t-37.5 -48.5q15 5 36 5q24 0 45 -8.5t37.5 -23.5t26 -37t9.5 -49q0 -29 -10.5 -54.5t-29.5 -44t-46 -29t-60 -10.5q-69 0 -106 38.5t-37 96.5q0 35 14 71.5t46 83.5q22 31 47 60.5l45 52.5h112zM176 378q26 0 40 16t14 43
q0 25 -14 41t-40 16t-41 -16t-15 -43q0 -26 14 -41.5t42 -15.5z" />
    <glyph glyph-name="six.denominator" horiz-adv-x="349" 
d="M294 395l-22 -24l-32 -35.5l-37.5 -44t-37.5 -48.5q15 5 36 5q24 0 45 -8.5t37.5 -23.5t26 -37t9.5 -49q0 -29 -10.5 -54.5t-29.5 -44t-46 -29t-60 -10.5q-69 0 -106 38.5t-37 96.5q0 35 14 71.5t46 83.5q22 31 47 60.5l45 52.5h112zM176 64q26 0 40 16t14 43
q0 25 -14 41t-40 16t-41 -16t-15 -43q0 -26 14 -41.5t42 -15.5z" />
    <glyph glyph-name="six.lf" horiz-adv-x="560" 
d="M451 709l-33.5 -39l-38 -45.5l-38 -47.5l-33.5 -43q-26 -34 -49.5 -68l-43.5 -63q26 14 50 20.5t52 6.5q42 0 79.5 -15t65.5 -42.5t44.5 -65.5t16.5 -84q0 -50 -18.5 -93t-51.5 -75t-78 -50t-97 -18q-54 0 -97.5 17.5t-75 48.5t-48.5 73t-17 91q0 63 26 129.5t82 151.5
q38 57 79.5 113.5t76.5 97.5h147zM284 93q24 0 45.5 9.5t37.5 26.5t25.5 39.5t9.5 49.5q0 24 -9.5 46t-25.5 38t-38 25.5t-47 9.5t-46.5 -9.5t-37.5 -26t-25.5 -38.5t-9.5 -48t9 -48t25.5 -38.5t38.5 -26t48 -9.5z" />
    <glyph glyph-name="seven.numerator" horiz-adv-x="319" 
d="M188 631h-165v78h277v-39l-162 -356h-101z" />
    <glyph glyph-name="seven.denominator" horiz-adv-x="319" 
d="M188 317h-165v78h277v-39l-162 -356h-101z" />
    <glyph glyph-name="seven.lf" horiz-adv-x="504" 
d="M334 601h-308v108h461v-47l-290 -662h-136z" />
    <glyph glyph-name="periodsuperior" horiz-adv-x="206" 
d="M103 306q-23 0 -37.5 15t-14.5 37q0 23 14.5 37.5t37.5 14.5t37.5 -14.5t14.5 -37.5q0 -22 -14.5 -37t-37.5 -15z" />
    <glyph glyph-name="period.numerator" horiz-adv-x="206" 
d="M103 306q-23 0 -37.5 15t-14.5 37q0 23 14.5 37.5t37.5 14.5t37.5 -14.5t14.5 -37.5q0 -22 -14.5 -37t-37.5 -15z" />
    <glyph glyph-name="periodinferior" horiz-adv-x="206" 
d="M103 -188q-23 0 -37.5 15t-14.5 37q0 23 14.5 37.5t37.5 14.5t37.5 -14.5t14.5 -37.5q0 -22 -14.5 -37t-37.5 -15z" />
    <glyph glyph-name="period.denominator" horiz-adv-x="206" 
d="M103 -8q-23 0 -37.5 15t-14.5 37q0 23 14.5 37.5t37.5 14.5t37.5 -14.5t14.5 -37.5q0 -22 -14.5 -37t-37.5 -15z" />
    <glyph glyph-name="periodcentered.case" horiz-adv-x="236" 
d="M117 291q-33 0 -56.5 23.5t-23.5 56.5q0 34 23.5 57t56.5 23t56.5 -23t23.5 -57q0 -33 -23.5 -56.5t-56.5 -23.5z" />
    <glyph glyph-name="parenright.numerator" horiz-adv-x="219" 
d="M27 268q30 57 47.5 118.5t17.5 124.5q0 61 -17.5 123t-46.5 116l68 24q35 -61 54 -126.5t19 -134.5q0 -72 -19.5 -137.5t-54.5 -129.5z" />
    <glyph glyph-name="parenright.denominator" horiz-adv-x="219" 
d="M27 -46q30 57 47.5 118.5t17.5 124.5q0 61 -17.5 123t-46.5 116l68 24q35 -61 54 -126.5t19 -134.5q0 -72 -19.5 -137.5t-54.5 -129.5z" />
    <glyph glyph-name="parenright.case" horiz-adv-x="288" 
d="M22 -90q51 105 79.5 216t28.5 229q0 115 -28 229t-79 209l88 34q57 -106 87.5 -220.5t30.5 -247.5q0 -136 -31.5 -252t-88.5 -228z" />
    <glyph glyph-name="parenleft.numerator" horiz-adv-x="218" 
d="M122 246q-40 69 -56 134t-16 127q0 130 73 267l68 -22q-30 -61 -47 -122t-17 -121q0 -62 16.5 -122.5t46.5 -116.5z" />
    <glyph glyph-name="parenleft.denominator" horiz-adv-x="218" 
d="M122 -68q-40 69 -56 134t-16 127q0 130 73 267l68 -22q-30 -61 -47 -122t-17 -121q0 -62 16.5 -122.5t46.5 -116.5z" />
    <glyph glyph-name="parenleft.case" horiz-adv-x="288" 
d="M178 -121q-64 120 -90.5 236t-26.5 232q0 129 30 247t89 233l87 -31q-51 -106 -79 -218t-28 -227q0 -116 27.5 -227t78.5 -211z" />
    <glyph glyph-name="one.numerator" horiz-adv-x="235" 
d="M94 628h-76v81h167v-395h-91v314z" />
    <glyph glyph-name="sterling.lf" horiz-adv-x="565" 
d="M40 84q55 31 84 67t29 83q0 22 -6 43.5t-15 42.5h-88v78h55q-14 33 -22 64t-8 61q0 38 14.5 74t43 64t71 45t99.5 17q89 0 144 -39.5t81 -111.5l-108 -45q-30 100 -122 100q-44 0 -71 -27t-27 -74q0 -33 10 -61.5t27 -66.5h157v-78h-128q13 -37 13 -72q0 -31 -12 -61.5
t-37 -53.5q25 -1 43 -7t35.5 -13t36.5 -12.5t45 -5.5q33 0 57.5 10.5t45.5 27.5l53 -94q-25 -17 -65 -34.5t-95 -17.5q-32 0 -57 7t-47.5 15t-44.5 15t-47 7q-28 0 -54.5 -10t-46.5 -27z" />
    <glyph glyph-name="three.lf" horiz-adv-x="553" 
d="M160 211q0 -55 28.5 -88t83.5 -33t83 33.5t28 78.5q0 50 -32 81.5t-98 31.5h-34v103h31q56 0 86 27.5t30 74.5q0 44 -26 72t-70 28q-49 0 -73 -31t-22 -79h-117q-1 44 12.5 83t41.5 68t69 46t94 17q49 0 89 -15.5t68 -42t43 -62.5t15 -77q0 -57 -26 -96t-71 -59
q24 -6 45.5 -21.5t37.5 -37.5t25.5 -49t9.5 -56q0 -41 -15 -81t-45 -71t-74.5 -50t-104.5 -19q-47 0 -88.5 14.5t-73 43t-50 70.5t-18.5 96h118z" />
    <glyph glyph-name="caron.alt" horiz-adv-x="470" 
d="M305 741q0 -44 -30.5 -84.5t-83.5 -75.5l-35 35q21 18 34 34.5t13 33.5q0 11 -4 19.5t-9.5 16t-9.5 16t-4 20.5q0 24 17.5 40t46.5 16t47 -20.5t18 -50.5z" />
    <glyph glyph-name="nine.denominator" horiz-adv-x="349" 
d="M55 0q7 9 21 24l31.5 35l37 43.5l39.5 48.5q-15 -5 -36 -5q-24 0 -45 8.5t-37.5 23.5t-26 37t-9.5 49q0 29 10.5 54.5t29.5 44t46 29t60 10.5q69 0 106 -38.5t37 -96.5q0 -35 -14 -71.5t-46 -83.5q-22 -31 -47 -60l-45 -52h-112zM173 214q26 0 41 16t15 43q0 26 -14 41.5
t-42 15.5q-26 0 -40 -16t-14 -43q0 -25 14 -41t40 -16z" />
    <glyph glyph-name="nine.lf" horiz-adv-x="560" 
d="M110 0l32 38.5l34 42.5l34.5 43.5l32.5 41.5q29 36 55 72.5l47 68.5q-20 -13 -45 -20.5t-53 -7.5q-43 0 -81 15t-66.5 43t-45 66t-16.5 85q0 51 19 93.5t52 74t77 49t94 17.5q56 0 100.5 -18t75.5 -49t47.5 -73.5t16.5 -90.5q0 -39 -7 -74.5t-22.5 -72.5t-40 -77.5
t-58.5 -87.5l-29.5 -40l-40.5 -55.5l-39 -52.5t-25 -31h-148zM278 372q25 0 47 9.5t38 26t25 39.5t9 49q0 25 -9.5 47t-25.5 38t-38.5 25.5t-47.5 9.5q-24 0 -45.5 -9.5t-37.5 -26t-25.5 -39t-9.5 -49.5q0 -24 9 -46t25 -38.5t38 -26t48 -9.5z" />
    <glyph glyph-name="minus.numerator" horiz-adv-x="400" 
d="M52 545h295v-75h-295v75z" />
    <glyph glyph-name="minusinferior" horiz-adv-x="400" 
d="M52 51h295v-75h-295v75z" />
    <glyph glyph-name="minus.denominator" horiz-adv-x="400" 
d="M52 231h295v-75h-295v75z" />
    <glyph glyph-name="minus.case" horiz-adv-x="675" 
d="M46 423h583v-105h-583v105z" />
    <glyph glyph-name="hyphensuperior" horiz-adv-x="252" 
d="M39 543h174v-71h-174v71z" />
    <glyph glyph-name="hyphen.numerator" horiz-adv-x="252" 
d="M39 543h174v-71h-174v71z" />
    <glyph glyph-name="hypheninferior" horiz-adv-x="252" 
d="M39 49h174v-71h-174v71z" />
    <glyph glyph-name="hyphen.denominator" horiz-adv-x="252" 
d="M39 229h174v-71h-174v71z" />
    <glyph glyph-name="hyphen.case" horiz-adv-x="361" 
d="M43 418h275v-96h-275v96z" />
    <glyph glyph-name="four.numerator" horiz-adv-x="375" 
d="M33 455l152 254h110v-249h58v-76h-58v-70h-86v70h-176v71zM209 459v152l-88 -152h88z" />
    <glyph glyph-name="four.denominator" horiz-adv-x="375" 
d="M33 141l152 254h110v-249h58v-76h-58v-70h-86v70h-176v71zM209 145v152l-88 -152h88z" />
    <glyph glyph-name="four.lf" horiz-adv-x="564" 
d="M32 255l292 454h131v-447h88v-105h-88v-157h-122v157h-301v98zM334 261v165v31t0.5 42t1.5 41t2 28q-3 -7 -9.5 -19l-14 -25l-14 -24.5t-10.5 -17.5l-138 -221h182z" />
    <glyph glyph-name="florin.lf" horiz-adv-x="450" 
d="M-4 -98q22 -3 44 -3q37 0 52 22.5t23 75.5l51 323h-85l12 78h85l22 141q6 42 17.5 76t31 58t49.5 37t75 13q27 0 49 -2t36 -5l-16 -97q-11 2 -23.5 3t-26.5 1q-20 0 -33 -5.5t-21 -17.5t-12.5 -30.5t-8.5 -44.5l-20 -127h99l-12 -78h-99l-53 -337q-7 -42 -18.5 -76
t-31 -58t-49.5 -37t-74 -13q-51 0 -78 6z" />
    <glyph glyph-name="nine.numerator" horiz-adv-x="349" 
d="M55 314q7 9 21 24l31.5 35l37 43.5l39.5 48.5q-15 -5 -36 -5q-24 0 -45 8.5t-37.5 23.5t-26 37t-9.5 49q0 29 10.5 54.5t29.5 44t46 29t60 10.5q69 0 106 -38.5t37 -96.5q0 -35 -14 -71.5t-46 -83.5q-22 -31 -47 -60l-45 -52h-112zM173 528q26 0 41 16t15 43
q0 26 -14 41.5t-42 15.5q-26 0 -40 -16t-14 -43q0 -25 14 -41t40 -16z" />
    <glyph glyph-name="five.numerator" horiz-adv-x="333" 
d="M57 416q18 -16 41 -27.5t49 -11.5q32 0 47 17t15 47q0 29 -16 48.5t-60 19.5q-21 0 -43 -3.5t-40 -9.5l28 213h201v-79h-127l-6 -49h5q2 0 5 0.5t6 0.5q60 0 99 -35.5t39 -95.5q0 -30 -9.5 -56.5t-29 -46t-48.5 -31t-69 -11.5q-38 0 -67 12.5t-50 31.5z" />
    <glyph glyph-name="five.denominator" horiz-adv-x="333" 
d="M57 102q18 -16 41 -27.5t49 -11.5q32 0 47 17t15 47q0 29 -16 48.5t-60 19.5q-21 0 -43 -3.5t-40 -9.5l28 213h201v-79h-127l-6 -49h5q2 0 5 0.5t6 0.5q60 0 99 -35.5t39 -95.5q0 -30 -9.5 -56.5t-29 -46t-48.5 -31t-69 -11.5q-38 0 -67 12.5t-50 31.5z" />
    <glyph glyph-name="five.lf" horiz-adv-x="528" 
d="M77 161q30 -32 67.5 -50t82.5 -18q27 0 50.5 9.5t41.5 27.5t28.5 43.5t10.5 56.5q0 28 -10.5 53t-30.5 44t-49 30.5t-67 11.5q-32 0 -64 -5.5t-61 -15.5l47 361h322v-109h-226l-15 -139q18 3 42 3q49 0 92 -16t75.5 -45t51 -71t18.5 -94t-18.5 -98t-52.5 -80t-82.5 -53.5
t-108.5 -19.5q-57 0 -104.5 19t-82.5 51z" />
    <glyph glyph-name="one.lf" horiz-adv-x="382" 
d="M175 597h-131v112h252v-709h-121v597z" />
    <glyph glyph-name="one.denominator" horiz-adv-x="235" 
d="M94 314h-76v81h167v-395h-91v314z" />
    <glyph glyph-name="endash.case" horiz-adv-x="549" 
d="M22 418h506v-96h-506v96z" />
    <glyph glyph-name="emdash.case" horiz-adv-x="1000" 
d="M0 408h1000v-74h-1000v74z" />
    <glyph glyph-name="eight.numerator" horiz-adv-x="360" 
d="M178 306q-29 0 -55 7.5t-45.5 22t-31 37t-11.5 52.5q0 38 19.5 61.5t40.5 33.5q-18 11 -32 34.5t-14 49.5q0 48 36 80t96 32q54 0 91 -29t37 -80q0 -31 -12 -52.5t-32 -32.5q22 -8 41 -31t19 -63q0 -27 -11.5 -49.5t-31 -38.5t-46.5 -25t-58 -9zM180 555q22 0 34 12.5
t12 32.5q0 18 -12.5 31.5t-34.5 13.5q-23 0 -34 -13t-11 -32q0 -18 11.5 -31.5t34.5 -13.5zM180 377q25 0 40.5 14.5t15.5 37.5t-16 38.5t-41 15.5t-40.5 -15.5t-15.5 -38.5q0 -22 15 -37t42 -15z" />
    <glyph glyph-name="eight.denominator" horiz-adv-x="360" 
d="M178 -8q-29 0 -55 7.5t-45.5 22t-31 37t-11.5 52.5q0 38 19.5 61.5t40.5 33.5q-18 11 -32 34.5t-14 49.5q0 48 36 80t96 32q54 0 91 -29t37 -80q0 -31 -12 -52.5t-32 -32.5q22 -8 41 -31t19 -63q0 -27 -11.5 -49.5t-31 -38.5t-46.5 -25t-58 -9zM180 241q22 0 34 12.5
t12 32.5q0 18 -12.5 31.5t-34.5 13.5q-23 0 -34 -13t-11 -32q0 -18 11.5 -31.5t34.5 -13.5zM180 63q25 0 40.5 14.5t15.5 37.5t-16 38.5t-41 15.5t-40.5 -15.5t-15.5 -38.5q0 -22 15 -37t42 -15z" />
    <glyph glyph-name="eight.lf" horiz-adv-x="573" 
d="M286 -12q-48 0 -90.5 15t-74 43t-50 67.5t-18.5 88.5q0 56 30.5 103.5t87.5 69.5q-47 23 -72 64t-25 88q0 40 15.5 76t44 63t69 43t89.5 16q44 0 82.5 -14t67.5 -39t45.5 -60.5t16.5 -77.5q0 -53 -26 -92.5t-73 -61.5q25 -9 46.5 -25.5t37.5 -39t25 -49.5t9 -57
q0 -44 -17.5 -84t-49 -70.5t-75 -48.5t-95.5 -18zM289 424q21 0 39.5 7.5t32.5 21t22 32t8 39.5t-8 39t-22.5 32t-33.5 22t-40 8q-43 0 -71.5 -29t-28.5 -71q0 -21 8 -39t21.5 -32t32 -22t40.5 -8zM289 92q24 0 44.5 9t35.5 24.5t24 36.5t9 45t-9 44.5t-24.5 36t-36 24.5
t-44.5 9t-44.5 -9t-35.5 -24.5t-24 -36t-9 -44.5t8.5 -44.5t23.5 -36.5t36 -25t46 -9z" />
    <glyph glyph-name="dollar.lf" horiz-adv-x="488" 
d="M228 -11q-65 5 -116 36.5t-83 83.5l78 71q20 -34 51.5 -57.5t69.5 -31.5v214q-35 16 -67 34t-56.5 43t-39 59t-14.5 81q0 34 12.5 66.5t36 59t56 44.5t72.5 24v89h59v-89q58 -5 100 -29t73 -66l-74 -70q-41 55 -99 66v-211q36 -16 69 -33.5t58.5 -41.5t40.5 -57t15 -79
q0 -39 -13 -73.5t-37 -61.5t-58 -45t-75 -24v-111h-59v109zM230 615q-32 -9 -48.5 -33.5t-16.5 -53.5q0 -33 17.5 -55t47.5 -39v181zM285 92q33 8 51 33t18 57q0 35 -18.5 57t-50.5 39v-186z" />
    <glyph glyph-name="commasuperior" horiz-adv-x="206" 
d="M24 257q20 16 31 29.5t11 23.5q0 5 -2 9.5t-5 10t-5 13t-2 18.5q0 22 14 35.5t37 13.5t37.5 -14.5t14.5 -45.5q0 -39 -25.5 -72t-67.5 -61z" />
    <glyph glyph-name="comma.numerator" horiz-adv-x="206" 
d="M24 257q20 16 31 29.5t11 23.5q0 5 -2 9.5t-5 10t-5 13t-2 18.5q0 22 14 35.5t37 13.5t37.5 -14.5t14.5 -45.5q0 -39 -25.5 -72t-67.5 -61z" />
    <glyph glyph-name="commainferior" horiz-adv-x="206" 
d="M24 -237q20 16 31 29.5t11 23.5q0 5 -2 9.5t-5 10t-5 13t-2 18.5q0 22 14 35.5t37 13.5t37.5 -14.5t14.5 -45.5q0 -39 -25.5 -72t-67.5 -61z" />
    <glyph glyph-name="comma.denominator" horiz-adv-x="206" 
d="M24 -57q20 16 31 29.5t11 23.5q0 5 -2 9.5t-5 10t-5 13t-2 18.5q0 22 14 35.5t37 13.5t37.5 -14.5t14.5 -45.5q0 -39 -25.5 -72t-67.5 -61z" />
    <glyph glyph-name="cent.lf" horiz-adv-x="491" 
d="M273 110q-52 3 -94 23t-71.5 52t-45.5 74t-16 90q0 45 15 87.5t44 76t71.5 55t96.5 26.5v115h62v-116q25 -3 47.5 -9t42.5 -14v-107q-18 9 -41 17t-49 11v-280q27 4 50 13t42 20v-106q-42 -20 -92 -26v-112h-62v110zM273 487q-48 -11 -76.5 -47t-28.5 -87t28.5 -89
t76.5 -49v272z" />
    <glyph glyph-name="bracketright.case" horiz-adv-x="345" 
d="M34 -22h114v753h-113v87h217v-929h-218v89z" />
    <glyph glyph-name="bracketleft.case" horiz-adv-x="345" 
d="M92 818h217v-87h-112v-753h113v-89h-218v929z" />
    <glyph glyph-name="braceright.case" horiz-adv-x="379" 
d="M32 -33q59 0 83.5 26t24.5 84v71q0 50 3.5 84t14 56.5t29 36t47.5 22.5q-29 9 -47 23t-29 34.5t-15 49t-4 68.5v100q0 31 -5 52t-17.5 33.5t-33 17.5t-51.5 5v87h41q95 0 135.5 -43t40.5 -137v-113q0 -69 16.5 -101.5t70.5 -32.5v-85q-26 0 -43 -7t-27 -23t-13.5 -42
t-3.5 -63v-80q0 -57 -10 -95.5t-31.5 -62t-54.5 -34t-78 -10.5h-43v79z" />
    <glyph glyph-name="cyrbreve" horiz-adv-x="470" 
d="M167 696q0 -38 14.5 -62t49.5 -24q36 0 53.5 24t17.5 62h92q0 -47 -12 -81.5t-34 -57t-51.5 -33t-64.5 -10.5q-78 0 -117.5 47t-39.5 135h92z" />
    <glyph glyph-name="cyrBreve" horiz-adv-x="500" 
d="M182 922q0 -38 15 -56.5t50 -18.5q71 0 71 75h92q0 -47 -12.5 -80t-34 -53.5t-51.5 -30t-65 -9.5q-157 0 -157 173h92z" />
    <glyph glyph-name="braceleft.case" horiz-adv-x="379" 
d="M128 183q0 73 -17 106.5t-71 33.5v84q27 0 44 7t26.5 22.5t13.5 40.5t4 60v96q0 97 43 141t137 44h36v-79q-57 0 -82.5 -24.5t-25.5 -80.5v-81q0 -47 -4 -79t-14.5 -53.5t-28.5 -34.5t-47 -22q29 -9 47.5 -23t29 -36t14.5 -52.5t4 -73.5v-90q0 -32 4.5 -54t16.5 -35
t33 -18.5t53 -5.5v-87h-47q-47 0 -79 10t-52 33t-29 60.5t-9 93.5v97z" />
    <glyph glyph-name="Euro.lf" horiz-adv-x="630" 
d="M24 308h84q-1 11 -1.5 21t-0.5 21t0.5 22.5t1.5 22.5h-84v88h99q14 54 40.5 97.5t65 74.5t87.5 47.5t109 16.5q35 0 70.5 -4.5t69.5 -15.5v-122q-32 14 -68.5 22t-71.5 8q-69 0 -109.5 -34t-59.5 -90h186v-88h-203q-1 -11 -1 -21v-21v-22.5t2 -22.5h202v-89h-183
q20 -53 61.5 -85t110.5 -32q38 0 71 7t67 22v-119q-36 -13 -72 -18t-78 -5q-126 0 -200 61.5t-99 168.5h-96v89z" />
    <glyph glyph-name="Tonos" horiz-adv-x="157" 
d="M23 709h111l-18 -211h-75z" />
    </font>
</defs>
</svg>
